💬 Мини-чат

OldGamerdonadar, нет, очень страшного кино не планировал 😀
donadarOldGamer, Спасибо за будущий Крик😀 А будет в планах "Очень страшное кино коллекция"?
AlexTwittСообщение удалено (удалил: AlexTwitt)
StarLordADVOKAT69, супер)
ADVOKAT69StarLord, хорошо!
StarLordADVOKAT69, привет)) как оно?)
Mr. Foxда, это не претензия и не предмет спора, это личное мнение, можно не развивать
Mr. FoxOldGamer, ну если честно, я в курсе, как по мне там даже на желтую не тянуло, но как говорится хозяин - барин
OldGamerMr. Fox, ничего нового или неожиданного, всё как и на других трекерах 😀 С - Стабильность.
Mr. FoxOldGamer, что ж такого NoMaD натворил, интересно
OldGamerПользователь NoMaD забанен навсегда
  • OldGamer
  • Spartanec1308
  • IRIT
  • Priest2017
  • Shok
Отправка сообщений доступна только зарегистрированным/авторизованным пользователям.
Онлайн (за 10 мин.): 5

Фантастические твари: Дилогия / Fantastic Beasts: Dilogy (2016-2018) UHD-BDRip 1080p [HEVC] 10 bit [HDR] от Mr. Fox

HEVC
HDR
10 bit
Обложка Фантастические твари: Дилогия / Fantastic Beasts: Dilogy (2016-2018) UHD-BDRip 1080p [HEVC] 10 bit [HDR] от Mr. Fox Год: 2016-2018
Страна: Великобритания, США
Жанр: Фэнтези, Приключения

1. Фантастические твари и где они обитают / Fantastic Beasts and Where to Find Them (2016) UHD-BDRip 1080p [HEVC] 10 bit [HDR] от Mr. Fox
HEVC
10 bit
Обложка Фантастические твари и где они обитают / Fantastic Beasts and Where to Find Them (2016) UHD-BDRip 1080p [HEVC] 10 bit [HDR] от Mr. Fox Год: 2016
Страна: Великобритания, США
Студия: Heyday Films, Warner Bros.
Жанр: Фэнтези, Приключения
Продолжительность: 02:12:52

Режиссер: Дэвид Йейтс
В ролях: Эдди Редмэйн, Кэтрин Уотерстон, Дэн Фоглер Элисон Судол, Колин Фаррелл, Кармен Эджого Эзра Миллер, Саманта Мортон, Рон Перлман, Джон Войт

Описание: Поиск и изучение необычайных волшебных существ приводят магозоолога Ньюта Саламандера в Нью-Йорк. Скорее всего, он отбыл бы на поезде дальше, если бы не немаг (так в Америке называют магглов) по имени Якоб, оставленный в неположенном месте магический чемодан и побег из него фантастических животных Ньюта.


Видео: 1920x800, ~5932 Кбит/сек
Аудио1: AC3, 6 ch, 448 Kbps - РусскийРусский, Дублированный (Лицензия)
Аудио2: AC3, 6 ch, 384 Kbps - УкраинскийУкраинский, Дублированный (iTunes)
Аудио3: AC3, 6 ch, 448 Kbps - АнглийскийАнглийский, Оригинал
Субтитры: русские (форсированные, полные), украинские (форсированные, полные), английские (полные, SDH, SDH-Colored)

Как за пару секунд удалить ненужные аудиодорожки и субтитры (Внимание! После удаления вы не сможете поддержать раздачу)

Лог (x265 info)
x265 [info]: frame I: Avg QP:16.16 kb/s
x265 [info]: frame P: Avg QP:17.50 kb/s
x265 [info]: frame B: Avg QP:19.31 kb/s
Медиаинфо
General
Unique ID : 238969410575066837848025456688977613053 (0xB3C7D598BDF7C1A151322CB9BE0B10FD)
Complete name : E:\Torrent\Fantastic Beasts and Where to Find Them (2016).mkv
Format : Matroska
Format version : Version 4
File size : 6.70 GiB
Duration : 2 h 12 min
Overall bit rate : 7 215 kb/s
Movie name : Fantastic Beasts and Where to Find Them (2016)
Encoded date : UTC 2021-07-16 07:13:17
Writing application : mkvmerge v59.0.0 ('Shining Star') 64-bit
Writing library : libebml v1.4.2 + libmatroska v1.6.4
Cover : Yes
Attachments : cover

Video
ID : 1
Format : HEVC
Format/Info : High Efficiency Video Coding
Format profile : Main 10@L4.1@High
HDR format : SMPTE ST 2086, HDR10 compatible
Codec ID : V_MPEGH/ISO/HEVC
Duration : 2 h 12 min
Bit rate : 5 932 kb/s
Width : 1 920 pixels
Height : 800 pixels
Display aspect ratio : 2.40:1
Frame rate mode : Constant
Frame rate : 23.976 (23976/1000) FPS
Original frame rate : 23.976 (24000/1001) FPS
Color space : YUV
Chroma subsampling : 4:2:0 (Type 2)
Bit depth : 10 bits
Bits/(Pixel*Frame) : 0.161
Stream size : 5.51 GiB (82%)
Writing library : x265 3.5+1-ce882936d:[Windows][MSVC 1928][64 bit] 10bit
Encoding settings : cpuid=1111039 / frame-threads=4 / numa-pools=16 / wpp / no-pmode / no-pme / no-psnr / no-ssim / log-level=2 / input-csp=1 / input-res=1920x800 / interlace=0 / total-frames=191144 / level-idc=41 / high-tier=1 / uhd-bd=0 / ref=5 / no-allow-non-conformance / repeat-headers / annexb / no-aud / no-hrd / info / hash=0 / no-temporal-layers / open-gop / min-keyint=23 / keyint=240 / gop-lookahead=0 / bframes=16 / b-adapt=2 / b-pyramid / bframe-bias=0 / rc-lookahead=60 / lookahead-slices=4 / scenecut=40 / hist-scenecut=0 / radl=0 / no-splice / no-intra-refresh / ctu=32 / min-cu-size=8 / rect / amp / max-tu-size=32 / tu-inter-depth=4 / tu-intra-depth=4 / limit-tu=1 / rdoq-level=2 / dynamic-rd=0.00 / no-ssim-rd / signhide / no-tskip / nr-intra=0 / nr-inter=0 / no-constrained-intra / no-strong-intra-smoothing / max-merge=4 / limit-refs=2 / limit-modes / me=3 / subme=7 / merange=57 / temporal-mvp / no-frame-dup / no-hme / weightp / weightb / no-analyze-src-pics / deblock=-3:-3 / no-sao / no-sao-non-deblock / rd=6 / selective-sao=0 / no-early-skip / no-rskip / no-fast-intra / no-tskip-fast / no-cu-lossless / no-b-intra / no-splitrd-skip / rdpenalty=0 / psy-rd=2.00 / psy-rdoq=1.00 / no-rd-refine / no-lossless / cbqpoffs=0 / crqpoffs=0 / rc=crf / crf=18.0 / qcomp=0.60 / qpstep=4 / stats-write=0 / stats-read=0 / vbv-maxrate=50000 / vbv-bufsize=50000 / vbv-init=0.9 / min-vbv-fullness=50.0 / max-vbv-fullness=80.0 / crf-max=0.0 / crf-min=0.0 / ipratio=1.40 / pbratio=1.30 / aq-mode=1 / aq-strength=1.00 / no-cutree / zone-count=0 / no-strict-cbr / qg-size=32 / no-rc-grain / qpmax=69 / qpmin=0 / no-const-vbv / sar=1 / overscan=0 / videoformat=5 / range=0 / colorprim=9 / transfer=16 / colormatrix=9 / chromaloc=1 / chromaloc-top=2 / chromaloc-bottom=2 / display-window=0 / master-display=G(13250,34500)B(7500,3000)R(34000,16000)WP(15635,16450)L(40000000,50) / cll=3173,484 / min-luma=0 / max-luma=1023 / log2-max-poc-lsb=8 / vui-timing-info / vui-hrd-info / slices=1 / no-opt-qp-pps / no-opt-ref-list-length-pps / no-multi-pass-opt-rps / scenecut-bias=0.05 / hist-threshold=0.03 / no-opt-cu-delta-qp / no-aq-motion / hdr10 / hdr10-opt / no-dhdr10-opt / no-idr-recovery-sei / analysis-reuse-level=0 / analysis-save-reuse-level=0 / analysis-load-reuse-level=0 / scale-factor=0 / refine-intra=0 / refine-inter=0 / refine-mv=1 / refine-ctu-distortion=0 / no-limit-sao / ctu-info=0 / no-lowpass-dct / refine-analysis-type=0 / copy-pic=1 / max-ausize-factor=1.0 / no-dynamic-refine / no-single-sei / no-hevc-aq / no-svt / no-field / qp-adaptation-range=1.00 / scenecut-aware-qp=0conformance-window-offsets / right=0 / bottom=0 / decoder-max-rate=0 / no-vbv-live-multi-pass
Default : Yes
Forced : No
Color range : Limited
Color primaries : BT.2020
Transfer characteristics : PQ
Matrix coefficients : BT.2020 non-constant
Mastering display color primar : Display P3
Mastering display luminance : min: 0.0050 cd/m2, max: 4000 cd/m2
Maximum Content Light Level : 3173 cd/m2
Maximum Frame-Average Light Le : 484 cd/m2

Audio #1
ID : 2
Format : AC-3
Format/Info : Audio Coding 3
Commercial name : Dolby Digital
Codec ID : A_AC3
Duration : 2 h 12 min
Bit rate mode : Constant
Bit rate : 448 kb/s
Channel(s) : 6 channels
Channel layout : L R C LFE Ls Rs
Sampling rate : 48.0 kHz
Frame rate : 31.250 FPS (1536 SPF)
Compression mode : Lossy
Stream size : 426 MiB (6%)
Title : Дубляж (Лицензия)
Language : Russian
Service kind : Complete Main
Default : No
Forced : No

Audio #2
ID : 3
Format : AC-3
Format/Info : Audio Coding 3
Commercial name : Dolby Digital
Codec ID : A_AC3
Duration : 2 h 12 min
Bit rate mode : Constant
Bit rate : 384 kb/s
Channel(s) : 6 channels
Channel layout : L R C LFE Ls Rs
Sampling rate : 48.0 kHz
Frame rate : 31.250 FPS (1536 SPF)
Compression mode : Lossy
Stream size : 365 MiB (5%)
Title : Дубляж (iTunes)
Language : Ukrainian
Service kind : Complete Main
Default : Yes
Forced : Yes

Audio #3
ID : 4
Format : AC-3
Format/Info : Audio Coding 3
Commercial name : Dolby Digital
Format settings : Dolby Surround EX
Codec ID : A_AC3
Duration : 2 h 12 min
Bit rate mode : Constant
Bit rate : 448 kb/s
Channel(s) : 6 channels
Channel layout : L R C LFE Ls Rs
Sampling rate : 48.0 kHz
Frame rate : 31.250 FPS (1536 SPF)
Compression mode : Lossy
Stream size : 426 MiB (6%)
Title : Original
Language : English
Service kind : Complete Main
Default : No
Forced : No

Text #1
ID : 5
Format : UTF-8
Codec ID : S_TEXT/UTF8
Codec ID/Info : UTF-8 Plain Text
Duration : 2 h 2 min
Bit rate : 2 b/s
Count of elements : 40
Stream size : 2.47 KiB (0%)
Title : Forced
Language : Russian
Default : Yes
Forced : No

Text #2
ID : 6
Format : UTF-8
Codec ID : S_TEXT/UTF8
Codec ID/Info : UTF-8 Plain Text
Duration : 2 h 12 min
Bit rate : 65 b/s
Count of elements : 1316
Stream size : 63.4 KiB (0%)
Title : Full
Language : Russian
Default : No
Forced : No

Text #3
ID : 7
Format : UTF-8
Codec ID : S_TEXT/UTF8
Codec ID/Info : UTF-8 Plain Text
Duration : 2 h 12 min
Bit rate : 2 b/s
Count of elements : 47
Stream size : 2.76 KiB (0%)
Title : Forced
Language : Ukrainian
Default : No
Forced : Yes

Text #4
ID : 8
Format : UTF-8
Codec ID : S_TEXT/UTF8
Codec ID/Info : UTF-8 Plain Text
Duration : 2 h 7 min
Bit rate : 66 b/s
Count of elements : 1318
Stream size : 62.2 KiB (0%)
Title : Full
Language : Ukrainian
Default : No
Forced : No

Text #5
ID : 9
Format : UTF-8
Codec ID : S_TEXT/UTF8
Codec ID/Info : UTF-8 Plain Text
Duration : 2 h 11 min
Bit rate : 44 b/s
Count of elements : 1599
Stream size : 43.1 KiB (0%)
Language : English
Default : No
Forced : No

Text #6
ID : 10
Format : UTF-8
Codec ID : S_TEXT/UTF8
Codec ID/Info : UTF-8 Plain Text
Duration : 2 h 2 min
Bit rate : 48 b/s
Count of elements : 1598
Stream size : 43.3 KiB (0%)
Title : SDH
Language : English
Default : No
Forced : No

Text #7
ID : 11
Format : UTF-8
Codec ID : S_TEXT/UTF8
Codec ID/Info : UTF-8 Plain Text
Duration : 2 h 2 min
Bit rate : 63 b/s
Count of elements : 1598
Stream size : 57.4 KiB (0%)
Title : SDH-Colored
Language : English
Default : No
Forced : No

Menu
00:00:00.000 : :00:00:00.000
00:08:40.270 : :00:08:40.270
00:18:55.718 : :00:18:55.718
00:28:23.660 : :00:28:23.660
00:38:34.187 : :00:38:34.187
00:48:08.594 : :00:48:08.594
00:58:19.246 : :00:58:19.246
01:09:14.692 : :01:09:14.692
01:17:26.392 : :01:17:26.392
01:29:33.660 : :01:29:33.660
01:38:02.085 : :01:38:02.085
01:50:27.871 : :01:50:27.871
01:59:04.471 : :01:59:04.471
02:04:11.944 : :02:04:11.944
Загрузка...Cкриншот1 Фантастические твари и где они обитают / Fantastic Beasts and Where to Find Them (2016) UHD-BDRip 1080p [HEVC] 10 bit [HDR] от Mr. FoxЗагрузка...Cкриншот2 Фантастические твари и где они обитают / Fantastic Beasts and Where to Find Them (2016) UHD-BDRip 1080p [HEVC] 10 bit [HDR] от Mr. FoxЗагрузка...Cкриншот3 Фантастические твари и где они обитают / Fantastic Beasts and Where to Find Them (2016) UHD-BDRip 1080p [HEVC] 10 bit [HDR] от Mr. FoxЗагрузка...Cкриншот4 Фантастические твари и где они обитают / Fantastic Beasts and Where to Find Them (2016) UHD-BDRip 1080p [HEVC] 10 bit [HDR] от Mr. Fox
Сэмпл
2. Фантастические твари: Преступления Грин-де-Вальда / Fantastic Beasts: The Crimes of Grindelwald (2018) UHD-BDRip 1080p [HEVC] 10 bit [HDR] от Mr. Fox
HEVC
10 bit
Обложка Фантастические твари: Преступления Грин-де-Вальда / Fantastic Beasts: The Crimes of Grindelwald (2018) UHD-BDRip 1080p [HEVC] 10 bit [HDR] от Mr. Fox Год: 2018
Страна: Великобритания, США
Студия: Heyday Films, Warner Bros. Pictures
Жанр: Фэнтези, Приключения
Продолжительность: 02:13:50
В ролях: Эдди Редмэйн, Джонни Депп, Кэтрин Уотерстон, Элисон Судол, Дэн Фоглер, Джуд Лоу, Эзра Миллер, Зои Кравиц, Каллум Тернер, Клаудия Ким

Описание: Могущественный тёмный волшебник Геллерт Грин-де-Вальд пойман в Штатах, но не собирается молча сидеть в темнице и устраивает грандиозный побег. Теперь ничто не помешает ему добиться своей цели — установить превосходство волшебников над всеми немагическими существами на планете. Чтобы сорвать планы Грин-де-Вальда, Альбус Дамблдор обращается к своему бывшему студенту Ньюту Саламандеру, который соглашается помочь, не подозревая, какая опасность ему грозит. В раскалывающемся на части волшебном мире любовь и верность проверяются на прочность, а конфликт разделяет даже настоящих друзей и членов семей.


Видео: 1920x800, ~5723 Кбит/сек
Аудио1: AC3, 6 ch, 448 Kbps - РусскийРусский, Дублированный (Лицензия)
Аудио2: AC3, 6 ch, 384 Kbps - УкраинскийУкраинский, Дублированный (iTunes)
Аудио3: AC3, 6 ch, 448 Kbps - АнглийскийАнглийский, Оригинал
Субтитры: русские (форсированные, полные), украинские (форсированные, полные), английские (полные, SDH, SDH-Colored)

Как за пару секунд удалить ненужные аудиодорожки и субтитры (Внимание! После удаления вы не сможете поддержать раздачу)

Лог (x265 info)
x265 [info]: frame I: Avg QP:17.66 kb/s
x265 [info]: frame P: Avg QP:18.88 kb/s
x265 [info]: frame B: Avg QP:21.01 kb/s
Медиаинфо
General
Unique ID : 41960985248136348542537033530514879061 (0x1F91644CE8B1FB95C351591C22083255)
Complete name : E:\Torrent\Fantastic Beasts The Crimes of Grindelwald (2018).mkv
Format : Matroska
Format version : Version 4
File size : 6.55 GiB
Duration : 2 h 13 min
Overall bit rate : 7 012 kb/s
Movie name : Fantastic Beasts The Crimes of Grindelwald (2018)
Encoded date : UTC 2021-07-09 04:41:47
Writing application : mkvmerge v56.0.0 ('Strasbourg / St. Denis') 64-bit
Writing library : libebml v1.4.2 + libmatroska v1.6.4
Cover : Yes
Attachments : cover

Video
ID : 1
Format : HEVC
Format/Info : High Efficiency Video Coding
Format profile : Main 10@L4.1@High
HDR format : SMPTE ST 2086, HDR10 compatible
Codec ID : V_MPEGH/ISO/HEVC
Duration : 2 h 13 min
Bit rate : 5 723 kb/s
Width : 1 920 pixels
Height : 800 pixels
Display aspect ratio : 2.40:1
Frame rate mode : Constant
Frame rate : 23.976 (23976/1000) FPS
Original frame rate : 23.976 (24000/1001) FPS
Color space : YUV
Chroma subsampling : 4:2:0 (Type 2)
Bit depth : 10 bits
Bits/(Pixel*Frame) : 0.155
Stream size : 5.35 GiB (82%)
Writing library : x265 3.5+1-ce882936d:[Windows][MSVC 1928][64 bit] 10bit
Encoding settings : cpuid=1111039 / frame-threads=4 / numa-pools=16 / wpp / no-pmode / no-pme / no-psnr / no-ssim / log-level=2 / input-csp=1 / input-res=1920x800 / interlace=0 / total-frames=192526 / level-idc=41 / high-tier=1 / uhd-bd=0 / ref=5 / no-allow-non-conformance / repeat-headers / annexb / no-aud / no-hrd / info / hash=0 / no-temporal-layers / open-gop / min-keyint=23 / keyint=240 / gop-lookahead=0 / bframes=16 / b-adapt=2 / b-pyramid / bframe-bias=0 / rc-lookahead=60 / lookahead-slices=4 / scenecut=40 / hist-scenecut=0 / radl=0 / no-splice / no-intra-refresh / ctu=32 / min-cu-size=8 / rect / amp / max-tu-size=32 / tu-inter-depth=4 / tu-intra-depth=4 / limit-tu=1 / rdoq-level=2 / dynamic-rd=0.00 / no-ssim-rd / signhide / no-tskip / nr-intra=0 / nr-inter=0 / no-constrained-intra / no-strong-intra-smoothing / max-merge=4 / limit-refs=2 / limit-modes / me=3 / subme=7 / merange=57 / temporal-mvp / no-frame-dup / no-hme / weightp / weightb / no-analyze-src-pics / deblock=-3:-3 / no-sao / no-sao-non-deblock / rd=6 / selective-sao=0 / no-early-skip / no-rskip / no-fast-intra / no-tskip-fast / no-cu-lossless / no-b-intra / no-splitrd-skip / rdpenalty=0 / psy-rd=2.00 / psy-rdoq=1.00 / no-rd-refine / no-lossless / cbqpoffs=0 / crqpoffs=0 / rc=crf / crf=19.0 / qcomp=0.70 / qpstep=4 / stats-write=0 / stats-read=0 / vbv-maxrate=50000 / vbv-bufsize=50000 / vbv-init=0.9 / min-vbv-fullness=50.0 / max-vbv-fullness=80.0 / crf-max=0.0 / crf-min=0.0 / ipratio=1.40 / pbratio=1.30 / aq-mode=1 / aq-strength=1.00 / no-cutree / zone-count=0 / no-strict-cbr / qg-size=32 / no-rc-grain / qpmax=69 / qpmin=0 / no-const-vbv / sar=1 / overscan=0 / videoformat=5 / range=0 / colorprim=9 / transfer=16 / colormatrix=9 / chromaloc=1 / chromaloc-top=2 / chromaloc-bottom=2 / display-window=0 / master-display=G(13250,34500)B(7500,3000)R(34000,16000)WP(15635,16450)L(40000000,50) / cll=3241,902 / min-luma=0 / max-luma=1023 / log2-max-poc-lsb=8 / vui-timing-info / vui-hrd-info / slices=1 / no-opt-qp-pps / no-opt-ref-list-length-pps / no-multi-pass-opt-rps / scenecut-bias=0.05 / hist-threshold=0.03 / no-opt-cu-delta-qp / no-aq-motion / hdr10 / hdr10-opt / no-dhdr10-opt / no-idr-recovery-sei / analysis-reuse-level=0 / analysis-save-reuse-level=0 / analysis-load-reuse-level=0 / scale-factor=0 / refine-intra=0 / refine-inter=0 / refine-mv=1 / refine-ctu-distortion=0 / no-limit-sao / ctu-info=0 / no-lowpass-dct / refine-analysis-type=0 / copy-pic=1 / max-ausize-factor=1.0 / no-dynamic-refine / no-single-sei / no-hevc-aq / no-svt / no-field / qp-adaptation-range=1.00 / scenecut-aware-qp=0conformance-window-offsets / right=0 / bottom=0 / decoder-max-rate=0 / no-vbv-live-multi-pass
Default : Yes
Forced : No
Color range : Limited
Color primaries : BT.2020
Transfer characteristics : PQ
Matrix coefficients : BT.2020 non-constant
Mastering display color primar : Display P3
Mastering display luminance : min: 0.0050 cd/m2, max: 4000 cd/m2
Maximum Content Light Level : 3241 cd/m2
Maximum Frame-Average Light Le : 902 cd/m2

Audio #1
ID : 2
Format : AC-3
Format/Info : Audio Coding 3
Commercial name : Dolby Digital
Codec ID : A_AC3
Duration : 2 h 13 min
Bit rate mode : Constant
Bit rate : 448 kb/s
Channel(s) : 6 channels
Channel layout : L R C LFE Ls Rs
Sampling rate : 48.0 kHz
Frame rate : 31.250 FPS (1536 SPF)
Compression mode : Lossy
Stream size : 429 MiB (6%)
Title : Дубляж (Лицензия)
Language : Russian
Service kind : Complete Main
Default : Yes
Forced : Yes

Audio #2
ID : 3
Format : AC-3
Format/Info : Audio Coding 3
Commercial name : Dolby Digital
Codec ID : A_AC3
Duration : 2 h 13 min
Bit rate mode : Constant
Bit rate : 384 kb/s
Channel(s) : 6 channels
Channel layout : L R C LFE Ls Rs
Sampling rate : 48.0 kHz
Frame rate : 31.250 FPS (1536 SPF)
Compression mode : Lossy
Stream size : 368 MiB (5%)
Title : Дубляж (iTunes)
Language : Ukrainian
Service kind : Complete Main
Default : No
Forced : Yes

Audio #3
ID : 4
Format : AC-3
Format/Info : Audio Coding 3
Commercial name : Dolby Digital
Format settings : Dolby Surround EX
Codec ID : A_AC3
Duration : 2 h 13 min
Bit rate mode : Constant
Bit rate : 448 kb/s
Channel(s) : 6 channels
Channel layout : L R C LFE Ls Rs
Sampling rate : 48.0 kHz
Frame rate : 31.250 FPS (1536 SPF)
Compression mode : Lossy
Stream size : 429 MiB (6%)
Title : Original
Language : English
Service kind : Complete Main
Default : No
Forced : No

Text #1
ID : 5
Format : UTF-8
Codec ID : S_TEXT/UTF8
Codec ID/Info : UTF-8 Plain Text
Duration : 2 h 0 min
Bit rate : 1 b/s
Count of elements : 25
Stream size : 1.13 KiB (0%)
Title : Forced
Language : Russian
Default : Yes
Forced : Yes

Text #2
ID : 6
Format : UTF-8
Codec ID : S_TEXT/UTF8
Codec ID/Info : UTF-8 Plain Text
Duration : 2 h 4 min
Bit rate : 70 b/s
Count of elements : 1249
Stream size : 63.9 KiB (0%)
Title : Full
Language : Russian
Default : No
Forced : No

Text #3
ID : 7
Format : UTF-8
Codec ID : S_TEXT/UTF8
Codec ID/Info : UTF-8 Plain Text
Duration : 2 h 13 min
Bit rate : 1 b/s
Count of elements : 28
Stream size : 1.19 KiB (0%)
Title : Forced
Language : Ukrainian
Default : No
Forced : No

Text #4
ID : 8
Format : UTF-8
Codec ID : S_TEXT/UTF8
Codec ID/Info : UTF-8 Plain Text
Duration : 2 h 4 min
Bit rate : 69 b/s
Count of elements : 1251
Stream size : 63.0 KiB (0%)
Title : Full
Language : Ukrainian
Default : No
Forced : No

Text #5
ID : 9
Format : UTF-8
Codec ID : S_TEXT/UTF8
Codec ID/Info : UTF-8 Plain Text
Duration : 2 h 3 min
Bit rate : 40 b/s
Count of elements : 1185
Stream size : 36.8 KiB (0%)
Title : Full
Language : English
Default : No
Forced : No

Text #6
ID : 10
Format : UTF-8
Codec ID : S_TEXT/UTF8
Codec ID/Info : UTF-8 Plain Text
Duration : 2 h 4 min
Bit rate : 46 b/s
Count of elements : 1588
Stream size : 42.8 KiB (0%)
Title : SDH
Language : English
Default : No
Forced : No

Text #7
ID : 11
Format : UTF-8
Codec ID : S_TEXT/UTF8
Codec ID/Info : UTF-8 Plain Text
Duration : 2 h 4 min
Bit rate : 60 b/s
Count of elements : 1588
Stream size : 55.0 KiB (0%)
Title : SDH-Colored
Language : English
Default : No
Forced : No

Menu
00:00:00.000 : Chapter 01
00:07:15.310 : Chapter 02
00:21:39.381 : Chapter 03
00:32:56.850 : Chapter 04
00:41:41.124 : Chapter 05
00:50:26.190 : Chapter 06
00:58:21.540 : Chapter 07
01:12:02.860 : Chapter 08
01:20:23.610 : Chapter 09
01:34:50.059 : Chapter 10
01:43:08.557 : Chapter 11
01:51:42.237 : Chapter 12
02:00:31.641 : Chapter 13
Загрузка...Cкриншот1 Фантастические твари: Преступления Грин-де-Вальда / Fantastic Beasts: The Crimes of Grindelwald (2018) UHD-BDRip 1080p [HEVC] 10 bit [HDR] от Mr. FoxЗагрузка...Cкриншот2 Фантастические твари: Преступления Грин-де-Вальда / Fantastic Beasts: The Crimes of Grindelwald (2018) UHD-BDRip 1080p [HEVC] 10 bit [HDR] от Mr. FoxЗагрузка...Cкриншот3 Фантастические твари: Преступления Грин-де-Вальда / Fantastic Beasts: The Crimes of Grindelwald (2018) UHD-BDRip 1080p [HEVC] 10 bit [HDR] от Mr. FoxЗагрузка...Cкриншот4 Фантастические твари: Преступления Грин-де-Вальда / Fantastic Beasts: The Crimes of Grindelwald (2018) UHD-BDRip 1080p [HEVC] 10 bit [HDR] от Mr. Fox
Сэмпл
Торрент🧲 Магнет

Рейтинги КП и IMDB, кнопки "Позвать в чате" и "Спасибо", а также мультитрекерная статистика доступны только зарегистрированным/авторизованным пользователям!

Файлы: 2
  • Fantastic Beasts
    • Fantastic Beasts The Crimes of Grindelwald (2018).mkv   6.55 ГБ
    • Fantastic Beasts and Where to Find Them (2016).mkv   6.7 ГБ
Поблагодарили: 12
Andrey_alex, Beebo, Brooklyn, Elico1977, han-nik, Kilop77, Kiran, makss333, NoMaD, Nuclear70, Rezident, SERGIY
Admin
0140192 (2)  13.25 ГБ

Добавление нового комментария

Добавление комментариев доступно только зарегистрированным/авторизованным пользователям.