💬 Мини-чат

OldGamerdonadar, нет, очень страшного кино не планировал 😀
donadarOldGamer, Спасибо за будущий Крик😀 А будет в планах "Очень страшное кино коллекция"?
AlexTwittСообщение удалено (удалил: AlexTwitt)
StarLordADVOKAT69, супер)
ADVOKAT69StarLord, хорошо!
StarLordADVOKAT69, привет)) как оно?)
Mr. Foxда, это не претензия и не предмет спора, это личное мнение, можно не развивать
Mr. FoxOldGamer, ну если честно, я в курсе, как по мне там даже на желтую не тянуло, но как говорится хозяин - барин
OldGamerMr. Fox, ничего нового или неожиданного, всё как и на других трекерах 😀 С - Стабильность.
Mr. FoxOldGamer, что ж такого NoMaD натворил, интересно
OldGamerПользователь NoMaD забанен навсегда
  • OldGamer
  • demons22
  • IRIT
  • MIGRANT
  • Ярослав
Отправка сообщений доступна только зарегистрированным/авторизованным пользователям.
Онлайн (за 10 мин.): 5

Западня / Entrapment (1999) BDRip 1080p [HEVC] 10 bit от OldGamer (RG RIPS CLUB)

HEVC
10 bit
Обложка Западня / Entrapment (1999) BDRip 1080p [HEVC] 10 bit от OldGamer (RG RIPS CLUB) Год: 1999
Страна: США, Великобритания, Германия
Студия: 20th Century Fox Film Corporation, Fountainbridge Films, Regency Enterprises, Taurus Film
Жанр: Боевик, Триллер, Мелодрама, Криминал
Продолжительность: 01:52:56

Режиссер: Джон Эмиел
В ролях: Шон Коннери, Кэтрин Зета-Джонс, Винг Реймз, Уилл Пэттон, Мори Чайкин, Кевин МакНэлли, Терри О’Нил, Мадхав Шарма, Дэвид Ип, Тим Поттер

Описание: Следователь страховой компании Вирджиния Бейкер идёт по следу легендарного вора Роберта Макдугала, который специализируется на уникальных произведениях искусства. Чтобы взять Макдугала с поличным, Бейкер выдаёт себя за преступницу и пытается втереться к нему в доверие. Но её интересует отнюдь не торжество правосудия...


Исходник: Blu-Ray Remux 1080p (TeamHD)
Видео: 1920x812 (2.35:1), 7622 Кбит/сек, HEVC (Main10@L.4.1@High)
Аудио1: AC3, 6 ch, 384 Kbps - РусскийРусский, Дублированный
Аудио2: AC3, 6 ch, 384 Kbps - РусскийРусский, Многоголосый (EDV)
Аудио3: AC3, 2 ch, 192 Kbps - РусскийРусский, Многоголосый (ТНТ)
Аудио4: AC3, 2 ch, 192 Kbps - РусскийРусский, Двухголосый (НТВ+)
Аудио5: AC3, 6 ch, 640 Kbps - РусскийРусский, Авторский (Андрей Гаврилов)
Аудио6: AC3, 6 ch, 640 Kbps - РусскийРусский, Авторский (Диктор CDV)
Аудио7: AC3, 6 ch, 640 Kbps - РусскийРусский, Авторский (Дмитрий Есарёв)
Аудио8: AC3, 2 ch, 192 Kbps - РусскийРусский, Авторский (Александр Кашкин)
Аудио9: AC3, 2 ch, 192 Kbps - РусскийРусский, Авторский (Андрей Дольский)
Аудио10: AC3, 6 ch, 448 Kbps - УкраинскийУкраинский, Многоголосый (ICTV)
Аудио11: AC3, 6 ch, 640 Kbps - EnglishEnglish, Original
Субтитры: Русские полные (SRT), English full (SRT)

Как за пару секунд удалить ненужные аудиодорожки и субтитры (Внимание! После удаления вы не сможете поддержать раздачу)

Лог (x265 info)
x265 [info]: frame I: 689, Avg QP:16.90 kb/s: 15681.22
x265 [info]: frame P: 24909, Avg QP:18.33 kb/s: 12126.33
x265 [info]: frame B: 136876, Avg QP:20.10 kb/s: 6761.27
x265 [info]: Weighted P-Frames: Y:10.6% UV:8.4%
x265 [info]: Weighted B-Frames: Y:10.4% UV:7.3%
x265 [info]: consecutive B-frames: 3.2% 3.5% 6.6% 11.9% 5.1% 47.1% 2.2% 1.2% 1.7% 0.6% 0.7% 15.8% 0.1% 0.1% 0.2%
x265 [info]: encoded 162474 frames in 233934.09s (0.69 fps), 7621.62 kb/s, Avg QP:19.82
Медиаинфо
Общее
Уникальный идентификатор : 235988458177696990829917184536196514013 (0xB189B94BD617F32FC695F8FA870D80DD)
Полное имя : \\.\Западня.Entrapment.1999.BDRip-HEVC.1080p.mkv
Формат : Matroska
Версия формата : Version 4
Размер файла : 9,60 Гбайт
Продолжительность : 1 ч. 52 м.
Общий поток : 12,2 Мбит/сек
Название фильма : Западня.Entrapment.1999.BDRip-HEVC.1080p
Дата кодирования : UTC 2021-07-19 01:42:51
Программа кодирования : mkvmerge v58.0.0 ('Supper's Ready') 64-bit
Библиотека кодирования : libebml v1.4.2 + libmatroska v1.6.4

Видео
Идентификатор : 1
Формат : HEVC
Формат/Информация : High Efficiency Video Coding
Профиль формата : Main 10@L4.1@High
Идентификатор кодека : V_MPEGH/ISO/HEVC
Продолжительность : 1 ч. 52 м.
Битрейт : 7 622 Кбит/сек
Ширина : 1 920 пикселей
Высота : 812 пикселей
Соотношение сторон : 2,35:1
Режим частоты кадров : Постоянный
Частота кадров : 23,976 (24000/1001) кадра/сек
Цветовое пространство : YUV
Субдискретизация насыщенности : 4:2:0
Битовая глубина : 10 бит
Бит/(Пиксели*Кадры) : 0.204
Размер потока : 6,01 Гбайт (63%)
Заголовок : Entrapment / Rip by OldGamer
Библиотека кодирования : x265 3.5+9-bf91444e0:[Windows][GCC 10.2.1][64 bit] 10bit
Настройки программы : cpuid=1111039 / frame-threads=3 / numa-pools=12 / wpp / no-pmode / no-pme / no-psnr / no-ssim / log-level=2 / input-csp=1 / input-res=1920x812 / interlace=0 / total-frames=162474 / level-idc=41 / high-tier=1 / uhd-bd=0 / ref=5 / no-allow-non-conformance / no-repeat-headers / annexb / no-aud / no-eob / no-eos / no-hrd / info / hash=0 / no-temporal-layers / open-gop / min-keyint=23 / keyint=240 / gop-lookahead=0 / bframes=14 / b-adapt=2 / b-pyramid / bframe-bias=0 / rc-lookahead=40 / lookahead-slices=0 / scenecut=40 / hist-scenecut=0 / radl=0 / no-splice / no-intra-refresh / ctu=32 / min-cu-size=8 / rect / amp / max-tu-size=32 / tu-inter-depth=4 / tu-intra-depth=4 / limit-tu=1 / rdoq-level=2 / dynamic-rd=0.00 / no-ssim-rd / signhide / no-tskip / nr-intra=0 / nr-inter=0 / no-constrained-intra / no-strong-intra-smoothing / max-merge=5 / limit-refs=3 / no-limit-modes / me=3 / subme=7 / merange=57 / temporal-mvp / no-frame-dup / no-hme / weightp / weightb / no-analyze-src-pics / deblock=-3:-3 / no-sao / no-sao-non-deblock / rd=6 / selective-sao=0 / no-early-skip / rskip / no-fast-intra / no-tskip-fast / no-cu-lossless / b-intra / no-splitrd-skip / rdpenalty=0 / psy-rd=2.00 / psy-rdoq=1.00 / no-rd-refine / no-lossless / cbqpoffs=0 / crqpoffs=0 / rc=crf / crf=19.0 / qcomp=0.60 / qpstep=4 / stats-write=0 / stats-read=0 / vbv-maxrate=50000 / vbv-bufsize=50000 / vbv-init=0.9 / min-vbv-fullness=50.0 / max-vbv-fullness=80.0 / crf-max=0.0 / crf-min=0.0 / ipratio=1.40 / pbratio=1.30 / aq-mode=2 / aq-strength=1.00 / no-cutree / zone-count=1 / zones: / start-frame=155032 / end-frame=162474 / qp=36 / no-strict-cbr / qg-size=32 / no-rc-grain / qpmax=69 / qpmin=0 / no-const-vbv / sar=1 / overscan=0 / videoformat=5 / range=0 / colorprim=2 / transfer=2 / colormatrix=2 / chromaloc=0 / display-window=0 / cll=0,0 / min-luma=0 / max-luma=1023 / log2-max-poc-lsb=8 / vui-timing-info / vui-hrd-info / slices=1 / no-opt-qp-pps / no-opt-ref-list-length-pps / no-multi-pass-opt-rps / scenecut-bias=0.00 / hist-threshold=0.03 / no-opt-cu-delta-qp / no-aq-motion / no-hdr10 / no-hdr10-opt / no-dhdr10-opt / no-idr-recovery-sei / analysis-reuse-level=0 / analysis-save-reuse-level=0 / analysis-load-reuse-level=0 / scale-factor=0 / refine-intra=0 / refine-inter=0 / refine-mv=1 / refine-ctu-distortion=0 / no-limit-sao / ctu-info=0 / no-lowpass-dct / refine-analysis-type=0 / copy-pic=1 / max-ausize-factor=1.0 / no-dynamic-refine / no-single-sei / no-hevc-aq / no-svt / no-field / qp-adaptation-range=1.00 / scenecut-aware-qp=0conformance-window-offsets / right=0 / bottom=0 / decoder-max-rate=0 / no-vbv-live-multi-pass
Язык : English
Default : Да
Forced : Нет

Аудио #1
Идентификатор : 2
ID in the original source medium : 4352 (0x1100)
Формат : AC-3
Формат/Информация : Audio Coding 3
Коммерческое название : Dolby Digital
Идентификатор кодека : A_AC3
Продолжительность : 1 ч. 52 м.
Вид битрейта : Постоянный
Битрейт : 384 Кбит/сек
Каналы : 6 каналов
Channel layout : L R C LFE Ls Rs
Частота : 48,0 КГц
Частота кадров : 31,250 кадров/сек (1536 SPF)
Метод сжатия : С потерями
Размер потока : 310 Мбайт (3%)
Заголовок : DUB
Язык : Russian
Service kind : Complete Main
Default : Да
Forced : Нет
Носитель оригинала : Blu-ray

Аудио #2
Идентификатор : 3
ID in the original source medium : 4353 (0x1101)
Формат : AC-3
Формат/Информация : Audio Coding 3
Коммерческое название : Dolby Digital
Идентификатор кодека : A_AC3
Продолжительность : 1 ч. 52 м.
Вид битрейта : Постоянный
Битрейт : 384 Кбит/сек
Каналы : 6 каналов
Channel layout : L R C LFE Ls Rs
Частота : 48,0 КГц
Частота кадров : 31,250 кадров/сек (1536 SPF)
Метод сжатия : С потерями
Размер потока : 310 Мбайт (3%)
Заголовок : MVO (EDV)
Язык : Russian
Service kind : Complete Main
Default : Нет
Forced : Нет
Носитель оригинала : Blu-ray

Аудио #3
Идентификатор : 4
ID in the original source medium : 4354 (0x1102)
Формат : AC-3
Формат/Информация : Audio Coding 3
Коммерческое название : Dolby Digital
Идентификатор кодека : A_AC3
Продолжительность : 1 ч. 52 м.
Вид битрейта : Постоянный
Битрейт : 192 Кбит/сек
Каналы : 2 канала
Channel layout : L R
Частота : 48,0 КГц
Частота кадров : 31,250 кадров/сек (1536 SPF)
Метод сжатия : С потерями
Размер потока : 155 Мбайт (2%)
Заголовок : MVO (ТНТ)
Язык : Russian
Service kind : Complete Main
Default : Нет
Forced : Нет
Носитель оригинала : Blu-ray

Аудио #4
Идентификатор : 5
ID in the original source medium : 4355 (0x1103)
Формат : AC-3
Формат/Информация : Audio Coding 3
Коммерческое название : Dolby Digital
Идентификатор кодека : A_AC3
Продолжительность : 1 ч. 52 м.
Вид битрейта : Постоянный
Битрейт : 192 Кбит/сек
Каналы : 2 канала
Channel layout : L R
Частота : 48,0 КГц
Частота кадров : 31,250 кадров/сек (1536 SPF)
Метод сжатия : С потерями
Размер потока : 155 Мбайт (2%)
Заголовок : DVO (НТВ+)
Язык : Russian
Service kind : Complete Main
Default : Нет
Forced : Нет
Носитель оригинала : Blu-ray

Аудио #5
Идентификатор : 6
Формат : AC-3
Формат/Информация : Audio Coding 3
Коммерческое название : Dolby Digital
Идентификатор кодека : A_AC3
Продолжительность : 1 ч. 52 м.
Вид битрейта : Постоянный
Битрейт : 640 Кбит/сек
Каналы : 6 каналов
Channel layout : L R C LFE Ls Rs
Частота : 48,0 КГц
Частота кадров : 31,250 кадров/сек (1536 SPF)
Метод сжатия : С потерями
Размер потока : 517 Мбайт (5%)
Заголовок : AVO (Андрей Гаврилов)
Язык : Russian
Service kind : Complete Main
Default : Нет
Forced : Нет

Аудио #6
Идентификатор : 7
Формат : AC-3
Формат/Информация : Audio Coding 3
Коммерческое название : Dolby Digital
Идентификатор кодека : A_AC3
Продолжительность : 1 ч. 52 м.
Вид битрейта : Постоянный
Битрейт : 640 Кбит/сек
Каналы : 6 каналов
Channel layout : L R C LFE Ls Rs
Частота : 48,0 КГц
Частота кадров : 31,250 кадров/сек (1536 SPF)
Метод сжатия : С потерями
Размер потока : 517 Мбайт (5%)
Заголовок : AVO (Диктор CDV)
Язык : Russian
Service kind : Complete Main
Default : Нет
Forced : Нет

Аудио #7
Идентификатор : 8
Формат : AC-3
Формат/Информация : Audio Coding 3
Коммерческое название : Dolby Digital
Идентификатор кодека : A_AC3
Продолжительность : 1 ч. 52 м.
Вид битрейта : Постоянный
Битрейт : 640 Кбит/сек
Каналы : 6 каналов
Channel layout : L R C LFE Ls Rs
Частота : 48,0 КГц
Частота кадров : 31,250 кадров/сек (1536 SPF)
Метод сжатия : С потерями
Размер потока : 517 Мбайт (5%)
Заголовок : AVO (Дмитрий Есарёв)
Язык : Russian
Service kind : Complete Main
Default : Нет
Forced : Нет

Аудио #8
Идентификатор : 9
ID in the original source medium : 4359 (0x1107)
Формат : AC-3
Формат/Информация : Audio Coding 3
Коммерческое название : Dolby Digital
Идентификатор кодека : A_AC3
Продолжительность : 1 ч. 52 м.
Вид битрейта : Постоянный
Битрейт : 192 Кбит/сек
Каналы : 2 канала
Channel layout : L R
Частота : 48,0 КГц
Частота кадров : 31,250 кадров/сек (1536 SPF)
Метод сжатия : С потерями
Размер потока : 155 Мбайт (2%)
Заголовок : AVO (Александр Кашкин)
Язык : Russian
Service kind : Complete Main
Default : Нет
Forced : Нет
Носитель оригинала : Blu-ray

Аудио #9
Идентификатор : 10
ID in the original source medium : 4360 (0x1108)
Формат : AC-3
Формат/Информация : Audio Coding 3
Коммерческое название : Dolby Digital
Идентификатор кодека : A_AC3
Продолжительность : 1 ч. 52 м.
Вид битрейта : Постоянный
Битрейт : 192 Кбит/сек
Каналы : 2 канала
Channel layout : L R
Частота : 48,0 КГц
Частота кадров : 31,250 кадров/сек (1536 SPF)
Метод сжатия : С потерями
Размер потока : 155 Мбайт (2%)
Заголовок : AVO (Андрей Дольский)
Язык : Russian
Service kind : Complete Main
Default : Нет
Forced : Нет
Носитель оригинала : Blu-ray

Аудио #10
Идентификатор : 11
ID in the original source medium : 4361 (0x1109)
Формат : AC-3
Формат/Информация : Audio Coding 3
Коммерческое название : Dolby Digital
Идентификатор кодека : A_AC3
Продолжительность : 1 ч. 52 м.
Вид битрейта : Постоянный
Битрейт : 448 Кбит/сек
Каналы : 6 каналов
Channel layout : L R C LFE Ls Rs
Частота : 48,0 КГц
Частота кадров : 31,250 кадров/сек (1536 SPF)
Метод сжатия : С потерями
Размер потока : 362 Мбайт (4%)
Заголовок : MVO (ICTV)
Язык : Ukrainian
Service kind : Complete Main
Default : Нет
Forced : Нет
Носитель оригинала : Blu-ray

Аудио #11
Идентификатор : 12
Формат : AC-3
Формат/Информация : Audio Coding 3
Коммерческое название : Dolby Digital
Идентификатор кодека : A_AC3
Продолжительность : 1 ч. 52 м.
Вид битрейта : Постоянный
Битрейт : 640 Кбит/сек
Каналы : 6 каналов
Channel layout : L R C LFE Ls Rs
Частота : 48,0 КГц
Частота кадров : 31,250 кадров/сек (1536 SPF)
Метод сжатия : С потерями
Размер потока : 517 Мбайт (5%)
Язык : English
Service kind : Complete Main
Default : Нет
Forced : Нет

Текст #1
Идентификатор : 13
Формат : UTF-8
Идентификатор кодека : S_TEXT/UTF8
Идентификатор кодека/Информация : UTF-8 Plain Text
Продолжительность : 1 ч. 41 м.
Битрейт : 73 бит/сек
Count of elements : 1302
Размер потока : 54,5 Кбайт (0%)
Язык : Russian
Default : Нет
Forced : Нет

Текст #2
Идентификатор : 14
Формат : UTF-8
Идентификатор кодека : S_TEXT/UTF8
Идентификатор кодека/Информация : UTF-8 Plain Text
Продолжительность : 1 ч. 45 м.
Битрейт : 41 бит/сек
Count of elements : 968
Размер потока : 32,3 Кбайт (0%)
Язык : English
Default : Нет
Forced : Нет

Меню
00:00:00.000 : 01. Opening Credits
00:00:53.219 : 02. Hi-Tech Robbery
00:09:21.769 : 03. A Suspect
00:13:30.476 : 04. Entrapment
00:20:01.992 : 05. Blackmail
00:25:12.010 : 06. Advanced Preparation
00:39:29.116 : 07. The Party Dress
00:42:24.708 : 08. Upstairs
00:45:17.965 : 09. The Masked Ball
00:47:23.298 : 10. The Mask
00:56:17.874 : 11. Truth or Dare
00:58:30.340 : 12. It's a Bank
01:04:26.153 : 13. Sizing Up the Job
01:07:08.441 : 14. Show and Tell
01:09:59.028 : 15. Changing the Rules
01:19:42.819 : 16. New Year's Eve
01:26:08.621 : 17. Countdown
01:27:29.911 : 18. System Breach
01:28:50.783 : 19. Elevator Five
01:31:31.611 : 20. Escape
01:35:16.585 : 21. Plan B
01:38:27.651 : 22. The Way it Has to Be
01:43:31.121 : 23. The End of a Terrible Friendship
01:47:25.939 : 24. Closing Credits
Загрузка...Cкриншот1 Западня / Entrapment (1999) BDRip 1080p [HEVC] 10 bit от OldGamer (RG RIPS CLUB)Загрузка...Cкриншот2 Западня / Entrapment (1999) BDRip 1080p [HEVC] 10 bit от OldGamer (RG RIPS CLUB)Загрузка...Cкриншот3 Западня / Entrapment (1999) BDRip 1080p [HEVC] 10 bit от OldGamer (RG RIPS CLUB)Загрузка...Cкриншот4 Западня / Entrapment (1999) BDRip 1080p [HEVC] 10 bit от OldGamer (RG RIPS CLUB)
Релиз-группа: RIPS CLUB
Сэмпл Торрент🧲 Магнет

Рейтинги КП и IMDB, кнопки "Позвать в чате" и "Спасибо", а также мультитрекерная статистика доступны только зарегистрированным/авторизованным пользователям!

Файлы: 1
  • Западня.Entrapment.1999.BDRip-HEVC.1080p.mkv   9.6 ГБ
Поблагодарили: 11
Beebo, Brooklyn, donadar, Kiran, makss333, michael90, NoMaD, Nuclear70, Rezident, sharkey71, StarLord
OldGamer
01101109.6 ГБ

Добавление нового комментария

Добавление комментариев доступно только зарегистрированным/авторизованным пользователям.