💬 Мини-чат

OldGamerdonadar, нет, очень страшного кино не планировал 😀
donadarOldGamer, Спасибо за будущий Крик😀 А будет в планах "Очень страшное кино коллекция"?
AlexTwittСообщение удалено (удалил: AlexTwitt)
StarLordADVOKAT69, супер)
ADVOKAT69StarLord, хорошо!
StarLordADVOKAT69, привет)) как оно?)
Mr. Foxда, это не претензия и не предмет спора, это личное мнение, можно не развивать
Mr. FoxOldGamer, ну если честно, я в курсе, как по мне там даже на желтую не тянуло, но как говорится хозяин - барин
OldGamerMr. Fox, ничего нового или неожиданного, всё как и на других трекерах 😀 С - Стабильность.
Mr. FoxOldGamer, что ж такого NoMaD натворил, интересно
OldGamerПользователь NoMaD забанен навсегда
  • OldGamer
  • alexyak
  • diesel0000
  • IRIT
Отправка сообщений доступна только зарегистрированным/авторизованным пользователям.
Онлайн (за 10 мин.): 4

Десять заповедей / The Ten Commandments (1956) UHD-BDRip 1080p [HEVC] 10 bit [HDR] от Mr. Fox

HEVC
HDR
10 bit
Обложка Десять заповедей / The Ten Commandments (1956) UHD-BDRip 1080p [HEVC] 10 bit [HDR] от Mr. Fox Год: 1956
Страна: США
Студия: Motion Picture Associates (II)
Жанр: Драма, Приключения
Продолжительность: 03:51:38

Режиссер: Сесил Б. ДеМилль
В ролях: Чарлтон Хестон, Юл Бриннер, Энн Бакстер, Эдвард Г. Робинсон, Ивонн Де Карло, Дебра Пейджит, Джон Дерек, Седрик Хардвик, Нина Фош, Марта Скотт

Описание: Фильм повествует о знаменитом библейском персонаже Моисее, о его рождении, возмужании, культовом исходе евреев из Египта...


Видео: 1920x1080, ~8609 Кбит/сек
Аудио1: AC3, 6 ch, 384 Kbps - РусскийРусский, Многоголосый (SomeWax)
Аудио2: AC3, 2 ch, 192 Kbps - РусскийРусский, Многоголосый (DVD Магия)
Аудио3: AC3, 6 ch, 640 Kbps - АнглийскийАнглийский, Оригинал
Субтитры: русские, английские (полные, SDH)

Как за пару секунд удалить ненужные аудиодорожки и субтитры (Внимание! После удаления вы не сможете поддержать раздачу)

Лог (x265 info)
x265 [info]: frame I: Avg QP:17.73 kb/s
x265 [info]: frame P: Avg QP:18.94 kb/s
x265 [info]: frame B: Avg QP:20.67 kb/s
Медиаинфо
General
Unique ID : 87725818536238338659588508626433663959 (0x41FF60C9F2B160EC08A1A9E60D80E3D7)
Complete name : E:\Torrent\The Ten Commandments (1956).mkv
Format : Matroska
Format version : Version 4
File size : 15.9 GiB
Duration : 3 h 51 min
Overall bit rate : 9 847 kb/s
Movie name : The Ten Commandments (1956)
Encoded date : UTC 2021-07-13 08:54:47
Writing application : mkvmerge v59.0.0 ('Shining Star') 64-bit
Writing library : libebml v1.4.2 + libmatroska v1.6.4
Cover : Yes
Attachments : cover

Video
ID : 1
Format : HEVC
Format/Info : High Efficiency Video Coding
Format profile : Main 10@L4.1@High
HDR format : SMPTE ST 2086, HDR10 compatible
Codec ID : V_MPEGH/ISO/HEVC
Duration : 3 h 51 min
Bit rate : 8 609 kb/s
Width : 1 920 pixels
Height : 1 080 pixels
Display aspect ratio : 16:9
Frame rate mode : Constant
Frame rate : 23.976 (23976/1000) FPS
Original frame rate : 23.976 (24000/1001) FPS
Color space : YUV
Chroma subsampling : 4:2:0 (Type 2)
Bit depth : 10 bits
Bits/(Pixel*Frame) : 0.173
Stream size : 13.9 GiB (87%)
Writing library : x265 3.5+1-ce882936d:[Windows][MSVC 1928][64 bit] 10bit
Encoding settings : cpuid=1111039 / frame-threads=4 / numa-pools=16 / wpp / no-pmode / no-pme / no-psnr / no-ssim / log-level=2 / input-csp=1 / input-res=1920x1080 / interlace=0 / total-frames=333184 / level-idc=41 / high-tier=1 / uhd-bd=0 / ref=5 / no-allow-non-conformance / repeat-headers / annexb / no-aud / no-hrd / info / hash=0 / no-temporal-layers / open-gop / min-keyint=23 / keyint=240 / gop-lookahead=0 / bframes=16 / b-adapt=2 / b-pyramid / bframe-bias=0 / rc-lookahead=60 / lookahead-slices=4 / scenecut=40 / hist-scenecut=0 / radl=0 / no-splice / no-intra-refresh / ctu=32 / min-cu-size=8 / rect / amp / max-tu-size=32 / tu-inter-depth=4 / tu-intra-depth=4 / limit-tu=1 / rdoq-level=2 / dynamic-rd=0.00 / no-ssim-rd / signhide / no-tskip / nr-intra=0 / nr-inter=0 / no-constrained-intra / no-strong-intra-smoothing / max-merge=4 / limit-refs=2 / limit-modes / me=3 / subme=7 / merange=57 / temporal-mvp / no-frame-dup / no-hme / weightp / weightb / no-analyze-src-pics / deblock=-3:-3 / no-sao / no-sao-non-deblock / rd=6 / selective-sao=0 / no-early-skip / no-rskip / no-fast-intra / no-tskip-fast / no-cu-lossless / no-b-intra / no-splitrd-skip / rdpenalty=0 / psy-rd=2.00 / psy-rdoq=1.00 / no-rd-refine / no-lossless / cbqpoffs=0 / crqpoffs=0 / rc=crf / crf=18.0 / qcomp=0.60 / qpstep=4 / stats-write=0 / stats-read=0 / vbv-maxrate=50000 / vbv-bufsize=50000 / vbv-init=0.9 / min-vbv-fullness=50.0 / max-vbv-fullness=80.0 / crf-max=0.0 / crf-min=0.0 / ipratio=1.40 / pbratio=1.30 / aq-mode=1 / aq-strength=1.00 / no-cutree / zone-count=0 / no-strict-cbr / qg-size=32 / no-rc-grain / qpmax=69 / qpmin=0 / no-const-vbv / sar=1 / overscan=0 / videoformat=5 / range=0 / colorprim=9 / transfer=16 / colormatrix=9 / chromaloc=1 / chromaloc-top=2 / chromaloc-bottom=2 / display-window=0 / master-display=G(13250,34500)B(7500,3000)R(34000,16000)WP(15635,16450)L(40000000,50) / cll=1281,148 / min-luma=0 / max-luma=1023 / log2-max-poc-lsb=8 / vui-timing-info / vui-hrd-info / slices=1 / no-opt-qp-pps / no-opt-ref-list-length-pps / no-multi-pass-opt-rps / scenecut-bias=0.05 / hist-threshold=0.03 / no-opt-cu-delta-qp / no-aq-motion / hdr10 / hdr10-opt / no-dhdr10-opt / no-idr-recovery-sei / analysis-reuse-level=0 / analysis-save-reuse-level=0 / analysis-load-reuse-level=0 / scale-factor=0 / refine-intra=0 / refine-inter=0 / refine-mv=1 / refine-ctu-distortion=0 / no-limit-sao / ctu-info=0 / no-lowpass-dct / refine-analysis-type=0 / copy-pic=1 / max-ausize-factor=1.0 / no-dynamic-refine / no-single-sei / no-hevc-aq / no-svt / no-field / qp-adaptation-range=1.00 / scenecut-aware-qp=0conformance-window-offsets / right=0 / bottom=0 / decoder-max-rate=0 / no-vbv-live-multi-pass
Default : Yes
Forced : No
Color range : Limited
Color primaries : BT.2020
Transfer characteristics : PQ
Matrix coefficients : BT.2020 non-constant
Mastering display color primar : Display P3
Mastering display luminance : min: 0.0050 cd/m2, max: 4000 cd/m2
Maximum Content Light Level : 1281 cd/m2
Maximum Frame-Average Light Le : 148 cd/m2

Audio #1
ID : 2
Format : AC-3
Format/Info : Audio Coding 3
Commercial name : Dolby Digital
Codec ID : A_AC3
Duration : 3 h 51 min
Bit rate mode : Constant
Bit rate : 384 kb/s
Channel(s) : 6 channels
Channel layout : L R C LFE Ls Rs
Sampling rate : 48.0 kHz
Frame rate : 31.250 FPS (1536 SPF)
Compression mode : Lossy
Stream size : 636 MiB (4%)
Title : MVO, SomeWax
Language : Russian
Service kind : Complete Main
Default : Yes
Forced : No

Audio #2
ID : 3
Format : AC-3
Format/Info : Audio Coding 3
Commercial name : Dolby Digital
Codec ID : A_AC3
Duration : 3 h 51 min
Bit rate mode : Constant
Bit rate : 192 kb/s
Channel(s) : 2 channels
Channel layout : L R
Sampling rate : 48.0 kHz
Frame rate : 31.250 FPS (1536 SPF)
Compression mode : Lossy
Stream size : 318 MiB (2%)
Title : MVO, DVD Магия
Language : Russian
Service kind : Complete Main
Default : No
Forced : No

Audio #3
ID : 4
Format : AC-3
Format/Info : Audio Coding 3
Commercial name : Dolby Digital
Codec ID : A_AC3
Duration : 3 h 51 min
Bit rate mode : Constant
Bit rate : 640 kb/s
Channel(s) : 6 channels
Channel layout : L R C LFE Ls Rs
Sampling rate : 48.0 kHz
Frame rate : 31.250 FPS (1536 SPF)
Compression mode : Lossy
Stream size : 1.04 GiB (6%)
Title : Original
Language : English
Service kind : Complete Main
Default : Yes
Forced : No

Text #1
ID : 5
Format : UTF-8
Codec ID : S_TEXT/UTF8
Codec ID/Info : UTF-8 Plain Text
Duration : 3 h 44 min
Bit rate : 83 b/s
Count of elements : 2496
Stream size : 138 KiB (0%)
Title : Full
Language : Russian
Default : No
Forced : No

Text #2
ID : 6
Format : UTF-8
Codec ID : S_TEXT/UTF8
Codec ID/Info : UTF-8 Plain Text
Duration : 3 h 43 min
Bit rate : 54 b/s
Count of elements : 2656
Stream size : 90.1 KiB (0%)
Title : Full
Language : English
Default : No
Forced : No

Text #3
ID : 7
Format : PGS
Muxing mode : zlib
Codec ID : S_HDMV/PGS
Codec ID/Info : Picture based subtitle format used on BDs/HD-DVDs
Duration : 3 h 43 min
Bit rate : 41.2 kb/s
Count of elements : 5739
Stream size : 65.9 MiB (0%)
Title : SDH
Language : English
Default : No
Forced : No

Menu
00:00:00.000 : Overture
00:01:40.391 : Prologue
00:04:05.161 : Main Title
00:09:44.166 : Rameses The First
00:12:55.274 : Drifting Basket
00:17:04.898 : Prince Of Egypt
00:20:20.886 : Moses The Conqueror
00:25:58.014 : Throne Princess
00:27:29.689 : Goshen
00:30:49.222 : The Keystone
00:36:17.175 : Temple Granaries
00:38:17.670 : Hounds And Jackals
00:43:47.041 : Treasure City
00:49:26.964 : Hebrew Cloth
00:59:30.108 : The Binding Tie
01:07:28.294 : Brick Pits
01:15:25.812 : Royal Barge
01:18:42.467 : Master Butcher
01:27:31.246 : Pharaoh's Justice
01:38:42.291 : Dathan's Bribe
01:41:58.695 : Robe And Staff
01:44:10.077 : The Wilderness Of Shur
01:47:28.150 : Well Of Midian
01:53:08.990 : Mountain Of God
01:56:30.441 : Jethro's Daughters
01:59:40.256 : Moses Chooses Sephora
02:02:49.320 : Sethi's Death
02:05:54.463 : A Man Among The Sheep
02:08:43.757 : Burning Bush
02:15:49.975 : Entr' Acte
02:18:05.068 : Return Into Egypt
02:23:20.925 : Bricks Without Straw
02:25:09.951 : Bound To A Shepherd Girl
02:29:49.689 : Plagues On Egypt
02:37:17.344 : Death To The Firstborn
02:44:31.820 : Lamb's Blood
02:46:48.456 : Passover
02:55:14.086 : Set Free
02:58:59.979 : Exodus
03:10:00.847 : Hardened Heart
03:14:23.568 : Pharaoh's Chariots
03:19:28.081 : Parting Of The Red Sea
03:29:06.408 : Mount Sinai
03:32:01.166 : Finger Of God
03:37:55.687 : Idolaters
03:40:34.930 : The Lord's Side
03:43:05.872 : Go, Proclaim Liberty!
03:46:52.390 : Exit Music
Загрузка...Cкриншот1 Десять заповедей / The Ten Commandments (1956) UHD-BDRip 1080p [HEVC] 10 bit [HDR] от Mr. FoxЗагрузка...Cкриншот2 Десять заповедей / The Ten Commandments (1956) UHD-BDRip 1080p [HEVC] 10 bit [HDR] от Mr. FoxЗагрузка...Cкриншот3 Десять заповедей / The Ten Commandments (1956) UHD-BDRip 1080p [HEVC] 10 bit [HDR] от Mr. FoxЗагрузка...Cкриншот4 Десять заповедей / The Ten Commandments (1956) UHD-BDRip 1080p [HEVC] 10 bit [HDR] от Mr. Fox
Сэмпл Торрент🧲 Магнет

Рейтинги КП и IMDB, кнопки "Позвать в чате" и "Спасибо", а также мультитрекерная статистика доступны только зарегистрированным/авторизованным пользователям!

Файлы: 1
  • The Ten Commandments (1956).mkv   15.93 ГБ
Поблагодарили: 5
alenu, Kiran, makss333, StarLord, VIS
Admin
99214115.93 ГБ

Добавление нового комментария

Добавление комментариев доступно только зарегистрированным/авторизованным пользователям.
Аватар DjBadan
  DjBadan  
XuMuK писал(а):
фильмы BBC?
да, например, BD фильма Голубая планета 2 появился только недавно, а он вышел в 2017 году. До этого был только HDR на торрентах. И так со многими документальными фильмами в высоком качестве
Аватар не указан
  XuMuK  
DjBadan писал(а):
я не про этот фильм спрашиваю. Есть ряд фильмов Дэвида Аттенборо которые в сети есть только HDR, я хотел бы их в SDR иметь вот и все
фильмы BBC?
Аватар DjBadan
  DjBadan  
XuMuK писал(а):
качай блюрик 1080p. глупые вопросы стали твоей визитной карточкой.
я не про этот фильм спрашиваю. Есть ряд фильмов Дэвида Аттенборо которые в сети есть только HDR, я хотел бы их в SDR иметь вот и все
Аватар не указан
  XuMuK  
DjBadan писал(а):
Я так понимаю, это искусственный HDR, скажите, если его искусственно можно перевести в HDR, то наверняка можно и обратно? Ну ведь не было тогда таких технологий...
качай блюрик 1080p. глупые вопросы стали твоей визитной карточкой.
Аватар OldGamer
  OldGamer  
Mr. Fox писал(а):
во-первых, какой в этом смысл, если плееры сами все делают при проигрывании
во-вторых, я уже вам на этот вопрос в какой-то теме отвечал и даже получил спасибо за ответ )
В теме "Назад в будущее". Спасибо за ответ не означает понимания его (ответа) сути и возможности применения на практике 😀
Аватар Mr. Fox
  Mr. Fox  
DjBadan писал(а):
а обратно как сделать?)
во-первых, какой в этом смысл, если плееры сами все делают при проигрывании
во-вторых, я уже вам на этот вопрос в какой-то теме отвечал и даже получил спасибо за ответ )
Аватар DjBadan
  DjBadan  
Beebo писал(а):
так он искусственно и добавляется, ты думаешь фильмы с HDR снимают?
а обратно как сделать?)
Аватар не указан
  Beebo  (Отредактировал Beebo: )    
DjBadan писал(а):
Я так понимаю, это искусственный HDR, скажите, если его искусственно можно перевести в HDR, то наверняка можно и обратно? Ну ведь не было тогда таких технологий...
так он искусственно и добавляется, ты думаешь фильмы с HDR снимают?
Аватар DjBadan
  DjBadan  
Я так понимаю, это искусственный HDR, скажите, если его искусственно можно перевести в HDR, то наверняка можно и обратно? Ну ведь не было тогда таких технологий...