💬 Мини-чат

Для тех, кому интересен процесс переделки сайта - https://rips.club/changelog.html (обновлен 20.04.2024)
  • justmkr
Отправка сообщений доступна только зарегистрированным/авторизованным пользователям.
Онлайн (за 10 мин.): 1

Поворот не туда / Wrong Turn (2003) BDRip 1080p [HEVC] 10 bit от ADVOKAT69

HEVC
10 bit
Обложка Поворот не туда / Wrong Turn (2003) BDRip 1080p [HEVC] 10 bit от ADVOKAT69 Год: 2003
Страна: Канада, Германия, США
Студия: Constantin Film Produktion GmbH
Жанр: Ужасы, Триллер
Продолжительность: 01:24:14

Режиссер: Роб Шмидт
В ролях: Десмонд Харрингтон, Элиза Душку, Эммануэль Шрики, Джереми Систо, Кевин Зегерс, Линди Бут, Джулиан Ричингс, Гэрри Роббинс, Тед Кларк, Ивонн Годри

Описание: Потерявшись в лесах Западной Вирджинии в результате рокового стечения обстоятельств, группа молодых людей пытается добраться до ближайшего телефона. Но вместо телефона им суждено найти дом в горах, увешанный страшным оружием и отвратительными трофеями. Кто или что живёт в этом доме? Молодые люди начинают понимать, что все их злоключения – способ загнать дичь в ловушку, где они – это дичь, а зловещие охотники – обитатели дома.


Исходник: BDRemux
Видео: 1920x1040, ~5 766 Кбит/сек
Аудио: DTS, 6 ch, 755 Kbps - РусскийРусский, Дубляж
Субтитры: нет

Лог (x265 info)
x265 [info]: frame I: 1452, Avg QP:17.13 kb/s: 28112.70
x265 [info]: frame P: 27427, Avg QP:18.44 kb/s: 13190.28
x265 [info]: frame B: 92308, Avg QP:20.70 kb/s: 3208.09
x265 [info]: Weighted P-Frames: Y:9.6% UV:7.5%
x265 [info]: Weighted B-Frames: Y:7.7% UV:5.3%
x265 [info]: consecutive B-frames: 10.5% 7.2% 8.0% 34.9% 9.7% 26.4% 1.9% 0.9% 0.2% 0.2%

encoded 121187 frames in 103296.53s (1.17 fps), 5765.65 kb/s, Avg QP:20.14
Медиаинфо
Общее
Уникальный идентификатор : 196178349103215339165964650493244793376 (0x93969360EEE75F26AA9B20F4BE96E220)
Полное имя : D:\Temp\Поворот не туда (2003) HEVC 10bit.mkv
Формат : Matroska
Версия формата : Version 4
Размер файла : 3,84 Гбайт
Продолжительность : 1 ч. 24 м.
Общий поток : 6 523 Кбит/сек
Дата кодирования : UTC 2021-08-04 11:58:42
Программа кодирования : mkvmerge v9.2.0 ('Photograph') 64bit
Библиотека кодирования : libebml v1.3.3 + libmatroska v1.4.4

Видео
Идентификатор : 1
Формат : HEVC
Формат/Информация : High Efficiency Video Coding
Профиль формата : Main 10@L4.1@High
Идентификатор кодека : V_MPEGH/ISO/HEVC
Продолжительность : 1 ч. 24 м.
Битрейт : 5 766 Кбит/сек
Ширина : 1 920 пикселей
Высота : 1 040 пикселей
Соотношение сторон : 1,85:1
Режим частоты кадров : Постоянный
Частота кадров : 23,976 (24000/1001) кадра/сек
Цветовое пространство : YUV
Субдискретизация насыщенности : 4:2:0
Битовая глубина : 10 бит
Бит/(Пиксели*Кадры) : 0.120
Размер потока : 3,39 Гбайт (88%)
Библиотека кодирования : x265 3.5+10-82786fccc:[Windows][MSVC 1929][64 bit] 10bit
Настройки программы : cpuid=1049583 / frame-threads=3 / numa-pools=8 / wpp / no-pmode / no-pme / no-psnr / no-ssim / log-level=2 / input-csp=1 / input-res=1920x1040 / interlace=0 / total-frames=121187 / level-idc=41 / high-tier=1 / uhd-bd=0 / ref=5 / no-allow-non-conformance / no-repeat-headers / annexb / no-aud / no-eob / no-eos / no-hrd / info / hash=0 / no-temporal-layers / open-gop / min-keyint=24 / keyint=240 / gop-lookahead=0 / bframes=9 / b-adapt=2 / b-pyramid / bframe-bias=0 / rc-lookahead=40 / lookahead-slices=4 / scenecut=40 / hist-scenecut=0 / radl=0 / no-splice / no-intra-refresh / ctu=32 / min-cu-size=8 / rect / no-amp / max-tu-size=32 / tu-inter-depth=4 / tu-intra-depth=4 / limit-tu=1 / rdoq-level=2 / dynamic-rd=4.00 / no-ssim-rd / signhide / no-tskip / nr-intra=0 / nr-inter=0 / constrained-intra / no-strong-intra-smoothing / max-merge=3 / limit-refs=3 / limit-modes / me=3 / subme=7 / merange=57 / temporal-mvp / no-frame-dup / no-hme / weightp / weightb / no-analyze-src-pics / deblock=-2:-2 / no-sao / no-sao-non-deblock / rd=4 / selective-sao=0 / no-early-skip / rskip / no-fast-intra / no-tskip-fast / no-cu-lossless / b-intra / no-splitrd-skip / rdpenalty=0 / psy-rd=1.50 / psy-rdoq=0.70 / no-rd-refine / no-lossless / cbqpoffs=0 / crqpoffs=0 / rc=crf / crf=20.0 / qcomp=0.60 / qpstep=4 / stats-write=0 / stats-read=0 / vbv-maxrate=50000 / vbv-bufsize=50000 / vbv-init=0.9 / min-vbv-fullness=50.0 / max-vbv-fullness=80.0 / crf-max=0.0 / crf-min=0.0 / ipratio=1.40 / pbratio=1.30 / aq-mode=2 / aq-strength=0.80 / no-cutree / zone-count=0 / no-strict-cbr / qg-size=32 / no-rc-grain / qpmax=69 / qpmin=0 / no-const-vbv / sar=1 / overscan=0 / videoformat=5 / range=0 / colorprim=1 / transfer=1 / colormatrix=1 / chromaloc=0 / display-window=0 / cll=0,0 / min-luma=0 / max-luma=1023 / log2-max-poc-lsb=8 / vui-timing-info / vui-hrd-info / slices=1 / no-opt-qp-pps / no-opt-ref-list-length-pps / no-multi-pass-opt-rps / scenecut-bias=0.05 / hist-threshold=0.03 / no-opt-cu-delta-qp / no-aq-motion / no-hdr10 / no-hdr10-opt / no-dhdr10-opt / no-idr-recovery-sei / analysis-reuse-level=0 / analysis-save-reuse-level=0 / analysis-load-reuse-level=0 / scale-factor=0 / refine-intra=0 / refine-inter=0 / refine-mv=1 / refine-ctu-distortion=0 / no-limit-sao / ctu-info=0 / no-lowpass-dct / refine-analysis-type=0 / copy-pic=1 / max-ausize-factor=1.0 / no-dynamic-refine / no-single-sei / no-hevc-aq / no-svt / no-field / qp-adaptation-range=1.00 / scenecut-aware-qp=0conformance-window-offsets / right=0 / bottom=0 / decoder-max-rate=0 / no-vbv-live-multi-pass
Default : Да
Forced : Нет
Цветовой диапазон : Limited
Основные цвета : BT.709
Характеристики трансфера : BT.709
Коэффициенты матрицы : BT.709

Аудио
Идентификатор : 2
Формат : DTS
Формат/Информация : Digital Theater Systems
Идентификатор кодека : A_DTS
Продолжительность : 1 ч. 24 м.
Вид битрейта : Постоянный
Битрейт : 755 Кбит/сек
Каналы : 6 каналов
Channel layout : C L R Ls Rs LFE
Частота : 48,0 КГц
Частота кадров : 93,750 кадра/сек (512 SPF)
Битовая глубина : 24 бит
Метод сжатия : С потерями
Размер потока : 454 Мбайт (12%)
Заголовок : Русский Дубляж BD
Default : Да
Forced : Нет

Меню
00:00:00.000 : en:Chapter 1
00:03:26.122 : en:Chapter 2
00:05:38.504 : en:Chapter 3
00:08:40.811 : en:Chapter 4
00:11:41.784 : en:Chapter 5
00:14:05.469 : en:Chapter 6
00:15:45.277 : en:Chapter 7
00:23:17.354 : en:Chapter 8
00:28:07.102 : en:Chapter 9
00:30:15.104 : en:Chapter 10
00:33:30.717 : en:Chapter 11
00:37:10.018 : en:Chapter 12
00:39:21.192 : en:Chapter 13
00:44:38.175 : en:Chapter 14
00:47:30.847 : en:Chapter 15
00:52:02.494 : en:Chapter 16
00:54:33.853 : en:Chapter 17
00:56:44.317 : en:Chapter 18
00:59:26.646 : en:Chapter 19
01:02:29.245 : en:Chapter 20
01:05:50.821 : en:Chapter 21
01:09:14.817 : en:Chapter 22
01:11:38.460 : en:Chapter 23
01:13:04.505 : en:Chapter 24
01:14:47.816 : en:Chapter 25
01:16:01.390 : en:Chapter 26
01:17:39.488 : en:Chapter 27
01:19:05.573 : en:Chapter 28
Сравнение скриншотов:
https://screenshotcomparison.com/comparison/16372

Загрузка...Cкриншот1 Поворот не туда / Wrong Turn (2003) BDRip 1080p [HEVC] 10 bit от ADVOKAT69Загрузка...Cкриншот2 Поворот не туда / Wrong Turn (2003) BDRip 1080p [HEVC] 10 bit от ADVOKAT69Загрузка...Cкриншот3 Поворот не туда / Wrong Turn (2003) BDRip 1080p [HEVC] 10 bit от ADVOKAT69Загрузка...Cкриншот4 Поворот не туда / Wrong Turn (2003) BDRip 1080p [HEVC] 10 bit от ADVOKAT69
Сэмпл Торрент🧲 Магнет

Рейтинги КП и IMDB, кнопки "Позвать в чате" и "Спасибо", а также мультитрекерная статистика доступны только зарегистрированным/авторизованным пользователям!

Файлы: 1
  • Поворот не туда (2003) HEVC 10bit.mkv   3.84 ГБ
Поблагодарили: 11
and50, Beebo, denisspb, donadar, Dosoleg, ilyich05, makss333, MIGRANT, sabretooth, SERGIY, Кинозритель
ADVOKAT69
553013.84 ГБ

Добавление нового комментария

Добавление комментариев доступно только зарегистрированным/авторизованным пользователям.
Аватар ADVOKAT69
  ADVOKAT69  
MIGRANT писал(а):
Ооооо!!! Вот это сюрприз. Даже не мог и мечтать! Благодарю! Давно ждал... 2 и 3 части тоже норм.
мне как-то не зашли!пересмотрю может зайдет по-новому!)))
Аватар не указан
  MIGRANT  
Ооооо!!! Вот это сюрприз. Даже не мог и мечтать! Благодарю! Давно ждал... 2 и 3 части тоже норм.
Аватар ADVOKAT69
  ADVOKAT69  
donadar писал(а):
Будут другие серии?
не планирую
Аватар не указан
  donadar  
Будут другие серии?
Аватар ADVOKAT69
  ADVOKAT69  
https://disk.yandex.ua/d/OfFB8JpA4FckBg --- дорожка в АС-3 448 Кбит/сек