💬 Мини-чат

Для тех, кому интересен процесс переделки сайта - https://rips.club/changelog.html (обновлен 22.02.2024)
OldGamerz1M4p9i0, и этот релиз скачался
Adminatomicheart, встал, но у Вас в профиле не видно. Вам бы перекачать.
OldGamerz1M4p9i0, Хан Соло скачался, но релиз, который был на руторе, там аудиодорожек меньше, чем тут, а видеоряд тот же. Попробуйте оттуда, я пока что сидирую.
OldGamerХан Соло откуда-то по чайной ложке в час скачивается, за сутки 50%, наблюдаем-с дальше
Adminatomicheart, завтра посмотрю, он у меня должен быть.
atomicheartРаздайте, пожалуйста, Тихое место: Дилогия / A Quiet Place: Dilogy (2018-2020) UHD-BDRip 1080p [HEVC] 10 bit [HDR] от Mr. Fox
z1M4p9i0Раздайте, пожалуйста, Хан Соло: Звёздные войны. Истории / Solo: A Star Wars Story (2018) [Локализованная версия] BDRip 1080p [HEVC] 10 bit от Cthulhu
z1M4p9i0Раздайте, пожалуйста, Терминатор: Тёмные судьбы / Terminator: Dark Fate (2019) [iTunes] UHD-BDRip 1440p [HEVC] 10 bit от HANNIBAL
OldGamerKeynol, честно говоря, пока что не планировалось, так как у нас есть отличный рип этого фильма
KeynolПриветствую! А можно сделать HEVC 10 bit на Трон Наследие Hybrid ? там файл на 31 гиг :-( на рутрекере. Хороший, но очень массивный..
  • Admin
  • OldGamer
  • Brooklyn
  • InSpector
  • pmihail99
  • Странник
Отправка сообщений доступна только зарегистрированным/авторизованным пользователям.
Онлайн (за 10 мин.): 6

Почтальон / The Postman (1997) BDRip 1080p [HEVC] 10 bit от OldGamer (RG RIPS CLUB)

HEVC
10 bit
Обложка Почтальон / The Postman (1997) BDRip 1080p [HEVC] 10 bit от OldGamer (RG RIPS CLUB) Год: 1997
Страна: США
Студия: Tig Productions, Warner Bros. Pictures Co.
Жанр: Фантастика, Боевик, Драма, Приключения
Продолжительность: 02:57:49

Режиссер: Кевин Костнер
В ролях: Кевин Костнер, Уилл Пэттон, Лоренц Тейт, Оливия Уильямс, Джеймс Руссо, Дэниэл фон Барген, Том Петти, Скотт Бэйрстоу, Джованни Рибизи, Роберта Максвелл

Описание: 2013 год. Спустя несколько десятилетий после ядерной войны и последовавшего за ней распада современной цивилизации выжившие люди селятся разрозненными группами на территории бывших Соединенных Штатов Америки. Правит всеми тиран, генерал Бетлехем. Однажды кочевник, который за пищу и кров разыгрывает перед зрителями спектакли Шекспира, находит форму почтальона и сумку с письмами. Он доставляет почту в соседний город, блефуя, что правительство США восстановлено, и обманом заставляет жителей накормить его. Так он становится символом надежды для людей – у них появляется смелость противостоять тирану и его армии.


Исходник: Blu-Ray Remux 1080p (TeamHD + RuTracker)
Видео: 1916x796, 9381 Kbps, HEVC (Main10@L.4.1@High)
Аудио1: AC3, 2 ch, 192 Kbps - РусскийРусский, DUB (Варус видео)
Аудио2: AC3, 6 ch, 640 Kbps - РусскийРусский, MVO (Карусель)
Аудио3: AC3, 2 ch, 192 Kbps - РусскийРусский, MVO (НТВ)
Аудио4: AC3, 2 ch, 192 Kbps - РусскийРусский, MVO (т/к Россия)
Аудио5: AC3, 6 ch, 640 Kbps - РусскийРусский, AVO (Юрий Живов)
Аудио6: AC3, 6 ch, 448 Kbps - РусскийРусский, AVO (Дмитрий Есарёв)
Аудио7: AC3, 2 ch, 192 Kbps - РусскийРусский, AVO (Александр Кашкин)
Аудио8: AC3, 1 ch, 192 Kbps - РусскийРусский, VO (Николай "Антонов")
Аудио9: AC3, 6 ch, 320 Kbps - УкраинскийУкраинский, MVO (HTH)
Аудио10: AC3, 2 ch, 192 Kbps - УкраинскийУкраинский, MVO (K1, HNH)
Аудио11: AC3, 6 ch, 640 Kbps - EnglishEnglish, Original
Субтитры: русские, украинские, английские (SDH)

Как за пару секунд удалить ненужные аудиодорожки и субтитры (Внимание! После удаления вы не сможете поддержать раздачу)

Лог (x265 info)
x265 [info]: frame I: 1075, Avg QP:17.69 kb/s: 20325.63
x265 [info]: frame P: 45723, Avg QP:19.09 kb/s: 14538.23
x265 [info]: frame B: 209019, Avg QP:20.90 kb/s: 8195.57
x265 [info]: Weighted P-Frames: Y:12.5% UV:10.3%
x265 [info]: Weighted B-Frames: Y:12.0% UV:8.9%
x265 [info]: consecutive B-frames: 1.6% 3.1% 4.2% 34.6% 5.5% 31.9% 3.2% 9.6% 1.1% 2.1% 0.4% 1.5% 0.3% 0.4% 0.4%
x265 [info]: encoded 255817 frames in 387947.35s (0.66 fps), 9380.19 kb/s, Avg QP:20.56
Медиаинфо
Общее
Уникальный идентификатор : 301864411146768572150935886961850120530 (0xE318F88A199705D368CF6DE14916F952)
Полное имя : \\.\Почтальон.The.Postman.1997.BDRip-HEVC.1080p.mkv
Формат : Matroska
Версия формата : Version 4
Размер файла : 17,0 Гбайт
Продолжительность : 2 ч. 57 м.
Общий поток : 13,7 Мбит/сек
Частота кадров : 23,976 кадра/сек
Дата кодирования : 2023-12-09 17:35:44 UTC
Программа кодирования : mkvmerge v81.0 ('Milliontown') 64-bit
Библиотека кодирования : libebml v1.4.4 + libmatroska v1.7.1
Attachments : The.Postman.1997.BD.png

Видео
Идентификатор : 1
Формат : HEVC
Формат/Информация : High Efficiency Video Coding
Профиль формата : Main 10@L4.1@High
Идентификатор кодека : V_MPEGH/ISO/HEVC
Продолжительность : 2 ч. 57 м.
Битрейт : 9 381 Кбит/сек
Ширина : 1 916 пикселей
Высота : 796 пикселей
Соотношение сторон : 2,40:1
Режим частоты кадров : Постоянный
Частота кадров : 23,976 (24000/1001) кадра/сек
Цветовое пространство : YUV
Субдискретизация насыщенности : 4:2:0
Битовая глубина : 10 бит
Бит/(Пиксели*Кадры) : 0.257
Размер потока : 11,7 Гбайт (69%)
Заголовок : The Postman / Rip by OldGamer
Библиотека кодирования : x265 3.5+9-bf91444e0:[Windows][GCC 10.2.1][64 bit] 10bit
Настройки программы : cpuid=1111039 / frame-threads=3 / numa-pools=12 / wpp / no-pmode / no-pme / no-psnr / no-ssim / log-level=2 / input-csp=1 / input-res=1916x796 / interlace=0 / total-frames=255817 / level-idc=41 / high-tier=1 / uhd-bd=0 / ref=5 / no-allow-non-conformance / no-repeat-headers / annexb / no-aud / no-eob / no-eos / no-hrd / info / hash=0 / no-temporal-layers / open-gop / min-keyint=23 / keyint=240 / gop-lookahead=0 / bframes=14 / b-adapt=2 / b-pyramid / bframe-bias=0 / rc-lookahead=40 / lookahead-slices=0 / scenecut=40 / hist-scenecut=0 / radl=0 / no-splice / no-intra-refresh / ctu=32 / min-cu-size=8 / rect / amp / max-tu-size=32 / tu-inter-depth=4 / tu-intra-depth=4 / limit-tu=1 / rdoq-level=2 / dynamic-rd=0.00 / no-ssim-rd / signhide / no-tskip / nr-intra=0 / nr-inter=0 / no-constrained-intra / no-strong-intra-smoothing / max-merge=5 / limit-refs=3 / no-limit-modes / me=3 / subme=7 / merange=57 / temporal-mvp / no-frame-dup / no-hme / weightp / weightb / no-analyze-src-pics / deblock=-3:-3 / no-sao / no-sao-non-deblock / rd=6 / selective-sao=0 / no-early-skip / rskip / no-fast-intra / no-tskip-fast / no-cu-lossless / b-intra / no-splitrd-skip / rdpenalty=0 / psy-rd=2.00 / psy-rdoq=1.00 / no-rd-refine / no-lossless / cbqpoffs=0 / crqpoffs=0 / rc=crf / crf=18.9 / qcomp=0.60 / qpstep=4 / stats-write=0 / stats-read=0 / vbv-maxrate=50000 / vbv-bufsize=50000 / vbv-init=0.9 / min-vbv-fullness=50.0 / max-vbv-fullness=80.0 / crf-max=0.0 / crf-min=0.0 / ipratio=1.40 / pbratio=1.30 / aq-mode=1 / aq-strength=1.00 / no-cutree / zone-count=1 / zones: / start-frame=246830 / end-frame=255817 / qp=36 / no-strict-cbr / qg-size=32 / no-rc-grain / qpmax=69 / qpmin=0 / no-const-vbv / sar=1 / overscan=0 / videoformat=5 / range=0 / colorprim=2 / transfer=2 / colormatrix=2 / chromaloc=0 / display-window=0 / cll=0,0 / min-luma=0 / max-luma=1023 / log2-max-poc-lsb=8 / vui-timing-info / vui-hrd-info / slices=1 / no-opt-qp-pps / no-opt-ref-list-length-pps / no-multi-pass-opt-rps / scenecut-bias=0.00 / hist-threshold=0.03 / no-opt-cu-delta-qp / no-aq-motion / no-hdr10 / no-hdr10-opt / no-dhdr10-opt / no-idr-recovery-sei / analysis-reuse-level=0 / analysis-save-reuse-level=0 / analysis-load-reuse-level=0 / scale-factor=0 / refine-intra=0 / refine-inter=0 / refine-mv=1 / refine-ctu-distortion=0 / no-limit-sao / ctu-info=0 / no-lowpass-dct / refine-analysis-type=0 / copy-pic=1 / max-ausize-factor=1.0 / no-dynamic-refine / no-single-sei / no-hevc-aq / no-svt / no-field / qp-adaptation-range=1.00 / scenecut-aware-qp=0conformance-window-offsets / right=0 / bottom=0 / decoder-max-rate=0 / no-vbv-live-multi-pass
Язык : English
Default : Да
Forced : Нет

Аудио #1
Идентификатор : 2
Формат : AC-3
Формат/Информация : Audio Coding 3
Коммерческое название : Dolby Digital
Идентификатор кодека : A_AC3
Продолжительность : 2 ч. 57 м.
Вид битрейта : Постоянный
Битрейт : 192 Кбит/сек
Каналы : 2 канала
Channel layout : L R
Частота : 48,0 КГц
Частота кадров : 31,250 кадров/сек (1536 SPF)
Метод сжатия : С потерями
Размер потока : 244 Мбайт (1%)
Заголовок : DUB (Варус видео)
Язык : Russian
Service kind : Complete Main
Default : Да
Forced : Нет

Аудио #2
Идентификатор : 3
Формат : AC-3
Формат/Информация : Audio Coding 3
Коммерческое название : Dolby Digital
Идентификатор кодека : A_AC3
Продолжительность : 2 ч. 57 м.
Вид битрейта : Постоянный
Битрейт : 640 Кбит/сек
Каналы : 6 каналов
Channel layout : L R C LFE Ls Rs
Частота : 48,0 КГц
Частота кадров : 31,250 кадров/сек (1536 SPF)
Метод сжатия : С потерями
Размер потока : 814 Мбайт (5%)
Заголовок : MVO (Карусель)
Язык : Russian
Service kind : Complete Main
Default : Нет
Forced : Нет

Аудио #3
Идентификатор : 4
Формат : AC-3
Формат/Информация : Audio Coding 3
Коммерческое название : Dolby Digital
Идентификатор кодека : A_AC3
Продолжительность : 2 ч. 57 м.
Вид битрейта : Постоянный
Битрейт : 192 Кбит/сек
Каналы : 2 канала
Channel layout : L R
Частота : 48,0 КГц
Частота кадров : 31,250 кадров/сек (1536 SPF)
Метод сжатия : С потерями
Размер потока : 244 Мбайт (1%)
Заголовок : MVO (НТВ)
Язык : Russian
Service kind : Complete Main
Default : Нет
Forced : Нет

Аудио #4
Идентификатор : 5
Формат : AC-3
Формат/Информация : Audio Coding 3
Коммерческое название : Dolby Digital
Идентификатор кодека : A_AC3
Продолжительность : 2 ч. 57 м.
Вид битрейта : Постоянный
Битрейт : 192 Кбит/сек
Каналы : 2 канала
Channel layout : L R
Частота : 48,0 КГц
Частота кадров : 31,250 кадров/сек (1536 SPF)
Метод сжатия : С потерями
Размер потока : 244 Мбайт (1%)
Заголовок : MVO (т/к Россия)
Язык : Russian
Service kind : Complete Main
Default : Нет
Forced : Нет

Аудио #5
Идентификатор : 6
Формат : AC-3
Формат/Информация : Audio Coding 3
Коммерческое название : Dolby Digital
Идентификатор кодека : A_AC3
Продолжительность : 2 ч. 57 м.
Вид битрейта : Постоянный
Битрейт : 640 Кбит/сек
Каналы : 6 каналов
Channel layout : L R C LFE Ls Rs
Частота : 48,0 КГц
Частота кадров : 31,250 кадров/сек (1536 SPF)
Метод сжатия : С потерями
Размер потока : 814 Мбайт (5%)
Заголовок : AVO (Юрий Живов)
Язык : Russian
Service kind : Complete Main
Default : Нет
Forced : Нет

Аудио #6
Идентификатор : 7
Формат : AC-3
Формат/Информация : Audio Coding 3
Коммерческое название : Dolby Digital
Идентификатор кодека : A_AC3
Продолжительность : 2 ч. 57 м.
Вид битрейта : Постоянный
Битрейт : 448 Кбит/сек
Каналы : 6 каналов
Channel layout : L R C LFE Ls Rs
Частота : 48,0 КГц
Частота кадров : 31,250 кадров/сек (1536 SPF)
Метод сжатия : С потерями
Размер потока : 570 Мбайт (3%)
Заголовок : AVO (Дмитрий Есарёв)
Язык : Russian
Service kind : Complete Main
Default : Нет
Forced : Нет

Аудио #7
Идентификатор : 8
Формат : AC-3
Формат/Информация : Audio Coding 3
Коммерческое название : Dolby Digital
Идентификатор кодека : A_AC3
Продолжительность : 2 ч. 57 м.
Вид битрейта : Постоянный
Битрейт : 192 Кбит/сек
Каналы : 2 канала
Channel layout : L R
Частота : 48,0 КГц
Частота кадров : 31,250 кадров/сек (1536 SPF)
Метод сжатия : С потерями
Размер потока : 244 Мбайт (1%)
Заголовок : AVO (Александр Кашкин)
Язык : Russian
Service kind : Complete Main
Default : Нет
Forced : Нет

Аудио #8
Идентификатор : 9
Формат : AC-3
Формат/Информация : Audio Coding 3
Коммерческое название : Dolby Digital
Идентификатор кодека : A_AC3
Продолжительность : 2 ч. 57 м.
Вид битрейта : Постоянный
Битрейт : 640 Кбит/сек
Каналы : 1 канал
Channel layout : M
Частота : 48,0 КГц
Частота кадров : 31,250 кадров/сек (1536 SPF)
Метод сжатия : С потерями
Размер потока : 814 Мбайт (5%)
Заголовок : VO (Николай "Антонов")
Язык : Russian
Service kind : Complete Main
Default : Нет
Forced : Нет

Аудио #9
Идентификатор : 10
Формат : AC-3
Формат/Информация : Audio Coding 3
Коммерческое название : Dolby Digital
Идентификатор кодека : A_AC3
Продолжительность : 2 ч. 57 м.
Вид битрейта : Постоянный
Битрейт : 320 Кбит/сек
Каналы : 6 каналов
Channel layout : L R C LFE Ls Rs
Частота : 48,0 КГц
Частота кадров : 31,250 кадров/сек (1536 SPF)
Метод сжатия : С потерями
Размер потока : 407 Мбайт (2%)
Заголовок : MVO (HTH)
Язык : Ukrainian
Service kind : Complete Main
Default : Нет
Forced : Нет

Аудио #10
Идентификатор : 11
Формат : AC-3
Формат/Информация : Audio Coding 3
Коммерческое название : Dolby Digital
Идентификатор кодека : A_AC3
Продолжительность : 2 ч. 57 м.
Вид битрейта : Постоянный
Битрейт : 192 Кбит/сек
Каналы : 2 канала
Channel layout : L R
Частота : 48,0 КГц
Частота кадров : 31,250 кадров/сек (1536 SPF)
Метод сжатия : С потерями
Размер потока : 244 Мбайт (1%)
Заголовок : MVO (K1, HNH)
Язык : Ukrainian
Service kind : Complete Main
Default : Нет
Forced : Нет

Аудио #11
Идентификатор : 12
Формат : AC-3
Формат/Информация : Audio Coding 3
Коммерческое название : Dolby Digital
Идентификатор кодека : A_AC3
Продолжительность : 2 ч. 57 м.
Вид битрейта : Постоянный
Битрейт : 640 Кбит/сек
Каналы : 6 каналов
Channel layout : L R C LFE Ls Rs
Частота : 48,0 КГц
Частота кадров : 31,250 кадров/сек (1536 SPF)
Метод сжатия : С потерями
Размер потока : 814 Мбайт (5%)
Язык : English
Service kind : Complete Main
Default : Нет
Forced : Нет

Текст #1
Идентификатор : 13
Формат : UTF-8
Идентификатор кодека : S_TEXT/UTF8
Идентификатор кодека/Информация : UTF-8 Plain Text
Продолжительность : 2 ч. 50 м.
Битрейт : 72 бит/сек
Частота кадров : 0,170 кадр/сек
Count of elements : 1742
Размер потока : 90,4 Кбайт (0%)
Заголовок : Russian
Язык : Russian
Default : Нет
Forced : Нет

Текст #2
Идентификатор : 14
Формат : UTF-8
Идентификатор кодека : S_TEXT/UTF8
Идентификатор кодека/Информация : UTF-8 Plain Text
Продолжительность : 2 ч. 50 м.
Битрейт : 64 бит/сек
Частота кадров : 0,162 кадр/сек
Count of elements : 1660
Размер потока : 80,6 Кбайт (0%)
Заголовок : Ukrainian
Язык : Ukrainian
Default : Нет
Forced : Нет

Текст #3
Идентификатор : 15
Формат : UTF-8
Идентификатор кодека : S_TEXT/UTF8
Идентификатор кодека/Информация : UTF-8 Plain Text
Продолжительность : 2 ч. 57 м.
Битрейт : 33 бит/сек
Частота кадров : 0,158 кадр/сек
Count of elements : 1683
Размер потока : 43,8 Кбайт (0%)
Заголовок : English Full
Язык : English
Default : Нет
Forced : Нет

Текст #4
Идентификатор : 16
Формат : UTF-8
Идентификатор кодека : S_TEXT/UTF8
Идентификатор кодека/Информация : UTF-8 Plain Text
Продолжительность : 2 ч. 57 м.
Битрейт : 35 бит/сек
Частота кадров : 0,169 кадр/сек
Count of elements : 1800
Размер потока : 46,7 Кбайт (0%)
Заголовок : English SDH
Язык : English
Default : Нет
Forced : Нет

Меню
00:00:00.000 : en:He Walked Alone
00:03:48.978 : en:Service Station Riches
00:06:53.204 : en:Sort of Shakespeare
00:11:18.427 : en:The Conscript
00:15:33.933 : en:Not a Fighter
00:21:55.314 : en:The Best Years?
00:27:15.050 : en:Only One Penalty
00:30:55.228 : en:Two Men's Plans
00:34:45.541 : en:Rescue Mission
00:38:04.907 : en:Downriver
00:41:08.299 : en:The Lion's Share
00:44:11.857 : en:New Clothes
00:50:03.333 : en:Your Postman
00:55:13.643 : en:Pres. Starkey and Other Tall Tales
00:58:39.807 : en:Bodyfather Needed (You Don't Have to Be So Nice)
01:02:12.645 : en:What's He Looking For
01:04:50.636 : en:Oath of Office
01:08:37.404 : en:Easier With Eyes Closed
01:14:04.148 : en:Are You Really (America the Beautiful)?
01:17:34.232 : en:Dreams Up in Flames
01:20:45.799 : en:Dead-Because He Can
01:26:43.406 : en:Hannibal at the Gates
01:30:11.197 : en:Dictating Justice
01:32:59.365 : en:Ride to Freedom
01:34:40.925 : en:Abby Takes Charge
01:37:09.156 : en:"Don't Make Me Use This!"
01:41:00.888 : en:On His Feet
01:43:07.097 : en:The Truth About Michael
01:47:08.839 : en:In Person
01:52:51.264 : en:Appointed Rounds
02:00:31.265 : en:Dancing and Dying (Come and Get Your Love, Almost Home)
02:07:00.070 : en:Ambush at Elvis
02:11:41.602 : en:Massacre at Elvis
02:17:03.089 : en:Presidential Letter
02:20:05.688 : en:A Better Man
02:22:09.270 : en:A Bargaining Chip
02:26:00.752 : en:Famous in Bridge City
02:30:58.966 : en:Abby's Farewell
02:33:39.418 : en:Hope in a Basket
02:36:10.069 : en:Field of Battle
02:39:22.844 : en:Law 7
02:42:21.857 : en:New Laws
02:47:36.880 : en:Hope and Remembrance
02:51:35.285 : en:End Credits (You Didn't Have to Be So Nice)
Загрузка...Cкриншот1 Почтальон / The Postman (1997) BDRip 1080p [HEVC] 10 bit от OldGamer (RG RIPS CLUB)Загрузка...Cкриншот2 Почтальон / The Postman (1997) BDRip 1080p [HEVC] 10 bit от OldGamer (RG RIPS CLUB)Загрузка...Cкриншот3 Почтальон / The Postman (1997) BDRip 1080p [HEVC] 10 bit от OldGamer (RG RIPS CLUB)Загрузка...Cкриншот4 Почтальон / The Postman (1997) BDRip 1080p [HEVC] 10 bit от OldGamer (RG RIPS CLUB)
Релиз-группа: RIPS CLUB
Сэмпл Торрент🧲 Магнет

Раздача обновлена!
Замена (Варус видео и Карусель) и добавление новых (Александр Кашкин, Николай "Антонов") звуковых дорожек. Добавлены украинские и английские (SDH) субтитры.

Рейтинги КП и IMDB, кнопки "Позвать в чате" и "Спасибо", а также мультитрекерная статистика доступны только зарегистрированным/авторизованным пользователям!

Файлы: 1
  • Почтальон.The.Postman.1997.BDRip-HEVC.1080p.mkv   16.99 ГБ
Поблагодарили: 20
and50, aquarius, arwis, bassoutta, Beebo, bonkai77, Brooklyn, donadar, Elico1977, GIS88, ilyich05, IRIT, kisa1980, makss333, mr_nikitin, Nuclear70, Rezident, sabretooth, SergKote, torrentzulu
OldGamer
01485016.99 ГБ

Добавление нового комментария

Добавление комментариев доступно только зарегистрированным/авторизованным пользователям.