💬 Мини-чат

Giggaloнет ли у кого в планах "Давайте потанцуем" 2004
GiggaloСообщение удалено (удалил: Giggalo)
StarLordOldGamer, как дела?)
StarLordOldGamer, ура, вернулся 😄
OldGamerRezident, можете скачать этот фильм от другого релизёра, там невелика разница, а раздающие точно есть
OldGamerGiggalo, https://tsya.ru/mnemonic.html
NoMaDСообщение удалено (удалил: NoMaD)
NoMaDСообщение удалено (удалил: NoMaD)
GiggaloСообщение удалено (удалил: Giggalo)
GiggaloСообщение удалено (удалил: Giggalo)
Spartanec1308Был днём
StarLordGiggalo, наверное отрубало беднягу, целый день его нету 😅
GiggaloСообщение удалено (удалил: Giggalo)
OldGamerДоброе. Работы много, некогда на перинах валяться.
GiggaloСообщение удалено (удалил: Giggalo)
GiggaloСообщение удалено (удалил: Giggalo)
  • Giggalo
  • Andrey_alex
  • Blake
  • DEMMON75
  • donadar
  • litanglong
  • Shok
Отправка сообщений доступна только зарегистрированным/авторизованным пользователям.
Онлайн (за 10 мин.): 7

Возвращение живых мертвецов / The Return of the Living Dead (1985) [Remastered] BDRip 1080p [HEVC] 10 bit от HANNIBAL

HEVC
10 bit
Обложка Возвращение живых мертвецов / The Return of the Living Dead (1985) [Remastered] BDRip 1080p [HEVC] 10 bit от HANNIBAL Год: 1985
Страна: США
Студия: Hemdale, Fox Films Ltd., Cinema '84/Greenberg Brothers Partnership
Жанр: Ужасы, Комедия
Продолжительность: 01:30:30

Режиссер: Дэн О’Бэннон
В ролях: Клу Гулагер, Джеймс Карен, Дон Кэлфа, Том Мэтьюз, Беверли Рэндольф, Джон Филбин, Джуэл Шепард, Мигель А. Нуньес мл., Брайан Пек, Линни Куигли, ...

Описание: На захолустном медицинском складе хранились контейнеры с зомби, по ошибке попавшие туда много лет назад. В один далеко не прекрасный день герметичность упаковки была нарушена, ядовитый газ вырвался наружу, и вот уже мертвецы с соседнего кладбища покидают свое тихое пристанище, чтобы полакомиться мозгом живых…


Видео: 1920x1040, 5450 Kbps
Аудио1: AC3, 2 ch, 192 Kbps - РусскийРусский, Многоголосый (СВ-Дубль по заказу Медиа-Фильм)
Аудио2: AC3, 2 ch, 192 Kbps - РусскийРусский, Двухголосый (НТВ)
Аудио3: AC3, 6 ch, 640 Kbps - РусскийРусский, Одноголосый (Ю.Живов)
Субтитры: Русские, Английские

Как за пару секунд удалить ненужные аудиодорожки и субтитры (Внимание! После удаления вы не сможете поддержать раздачу)

Медиаинфо
General
Unique ID : 274710950923210402204702945323863592698 (0xCEAB6796B5E5E7695905EB993A594EFA)
Complete name : E:\The Return of the Living Dead [Remastered](1985) BDRip 1080p [HEVC] 10bit.mkv
Format : Matroska
Format version : Version 4 / Version 2
File size : 4.09 GiB
Duration : 1 h 30 min
Overall bit rate : 6 477 kb/s
Encoded date : UTC 2018-08-17 19:00:22
Writing application : mkvmerge v20.0.0 ('I Am The Sun') 64-bit
Writing library : libebml v1.3.5 + libmatroska v1.4.8 / Lavf57.71.100
Cover : Yes
Attachments : cover.jpg
ENCODING_INFO : MATROSKA,WEBM > MKV 1080p 10-bit / H264 > X265 CBR 5500kbps Medium / AC3 > AC3 CBR 192kbps / AC3 > AC3 CBR 192kbps / AC3 > AC3 CBR 640kbps

Video
ID : 1
Format : HEVC
Format/Info : High Efficiency Video Coding
Format profile : Main 10@L5.1@Main
Codec ID : V_MPEGH/ISO/HEVC
Duration : 1 h 30 min
Bit rate : 5 450 kb/s
Width : 1 920 pixels
Height : 1 040 pixels
Display aspect ratio : 1.85:1
Frame rate mode : Constant
Frame rate : 23.976 (24000/1001) FPS
Color space : YUV
Chroma subsampling : 4:2:0
Bit depth : 10 bits
Bits/(Pixel*Frame) : 0.114
Stream size : 3.45 GiB (84%)
Title : The Return of the Living Dead (1984) Remastered
Writing library : x265 2.8+19-bcdc610cf5f0:[Windows][GCC 7.3.0][64 bit] 10bit
Encoding settings : cpuid=1049583 / frame-threads=5 / numa-pools=4 / wpp / no-pmode / no-pme / no-psnr / no-ssim / log-level=3 / input-csp=1 / input-res=1920x1040 / interlace=0 / total-frames=0 / level-idc=51 / high-tier=1 / uhd-bd=0 / ref=5 / allow-non-conformance / no-repeat-headers / annexb / no-aud / no-hrd / info / hash=0 / no-temporal-layers / open-gop / min-keyint=24 / keyint=240 / gop-lookahead=0 / bframes=8 / b-adapt=2 / b-pyramid / bframe-bias=0 / rc-lookahead=20 / lookahead-slices=6 / scenecut=40 / radl=0 / no-intra-refresh / ctu=64 / min-cu-size=8 / no-rect / no-amp / max-tu-size=32 / tu-inter-depth=1 / tu-intra-depth=1 / limit-tu=0 / rdoq-level=0 / dynamic-rd=0.00 / no-ssim-rd / signhide / no-tskip / nr-intra=0 / nr-inter=0 / no-constrained-intra / strong-intra-smoothing / max-merge=2 / limit-refs=3 / no-limit-modes / me=3 / subme=7 / merange=57 / temporal-mvp / weightp / no-weightb / no-analyze-src-pics / deblock=-2:-2 / sao / no-sao-non-deblock / rd=3 / no-early-skip / rskip / no-fast-intra / no-tskip-fast / no-cu-lossless / no-b-intra / no-splitrd-skip / rdpenalty=0 / psy-rd=2.00 / psy-rdoq=0.00 / no-rd-refine / no-lossless / cbqpoffs=0 / crqpoffs=0 / rc=cbr / bitrate=5500 / qcomp=0.60 / qpstep=4 / stats-write=0 / stats-read=0 / vbv-maxrate=5500 / vbv-bufsize=3928 / vbv-init=0.9 / ipratio=1.40 / pbratio=1.30 / aq-mode=1 / aq-strength=1.00 / cutree / zone-count=0 / no-strict-cbr / qg-size=32 / no-rc-grain / qpmax=69 / qpmin=0 / no-const-vbv / sar=1 / overscan=0 / videoformat=5 / range=0 / colorprim=1 / transfer=1 / colormatrix=1 / chromaloc=0 / display-window=0 / max-cll=0,0 / min-luma=0 / max-luma=1023 / log2-max-poc-lsb=8 / vui-timing-info / vui-hrd-info / slices=1 / no-opt-qp-pps / no-opt-ref-list-length-pps / no-multi-pass-opt-rps / scenecut-bias=0.05 / no-opt-cu-delta-qp / no-aq-motion / no-hdr / no-hdr-opt / no-dhdr10-opt / no-idr-recovery-sei / analysis-reuse-level=5 / scale-factor=0 / refine-intra=0 / refine-inter=0 / refine-mv=0 / no-limit-sao / ctu-info=0 / no-lowpass-dct / refine-mv-type=0 / copy-pic=1 / max-ausize-factor=1.0 / no-dynamic-refine / no-single-sei
Language : English
Default : Yes
Forced : No
Color range : Limited
Color primaries : BT.709
Transfer characteristics : BT.709
Matrix coefficients : BT.709

Audio #1
ID : 2
Format : AC-3
Format/Info : Audio Coding 3
Codec ID : A_AC3
Duration : 1 h 30 min
Bit rate mode : Constant
Bit rate : 192 kb/s
Channel(s) : 2 channels
Channel positions : Front: L R
Sampling rate : 48.0 kHz
Frame rate : 31.250 FPS (1536 SPF)
Bit depth : 16 bits
Compression mode : Lossy
Stream size : 124 MiB (3%)
Title : MVO Студия СВ-Дубль по заказу Медиа-Фильм
Language : Russian
Service kind : Complete Main
Default : Yes
Forced : No

Audio #2
ID : 3
Format : AC-3
Format/Info : Audio Coding 3
Codec ID : A_AC3
Duration : 1 h 30 min
Bit rate mode : Constant
Bit rate : 192 kb/s
Channel(s) : 2 channels
Channel positions : Front: L R
Sampling rate : 48.0 kHz
Frame rate : 31.250 FPS (1536 SPF)
Bit depth : 16 bits
Compression mode : Lossy
Stream size : 124 MiB (3%)
Title : DVO НТВ
Language : Russian
Service kind : Complete Main
Default : No
Forced : No

Audio #3
ID : 4
Format : AC-3
Format/Info : Audio Coding 3
Codec ID : A_AC3
Duration : 1 h 30 min
Bit rate mode : Constant
Bit rate : 640 kb/s
Channel(s) : 6 channels
Channel positions : Front: L C R, Side: L R, LFE
Sampling rate : 48.0 kHz
Frame rate : 31.250 FPS (1536 SPF)
Bit depth : 16 bits
Compression mode : Lossy
Stream size : 414 MiB (10%)
Title : AVO Живов Юрий Викторович
Language : Russian
Service kind : Complete Main
Default : No
Forced : No

Text #1
ID : 5
Format : UTF-8
Codec ID : S_TEXT/UTF8
Codec ID/Info : UTF-8 Plain Text
Duration : 1 h 26 min
Bit rate : 93 b/s
Count of elements : 999
Stream size : 59.6 KiB (0%)
Language : Russian
Default : Yes
Forced : No

Text #2
ID : 6
Format : UTF-8
Codec ID : S_TEXT/UTF8
Codec ID/Info : UTF-8 Plain Text
Duration : 1 h 30 min
Bit rate : 65 b/s
Count of elements : 1389
Stream size : 43.2 KiB (0%)
Title : 1
Language : English
Default : No
Forced : No

Menu
00:00:00.000 : :00:00:00.000
00:10:29.295 : :00:10:29.295
00:19:01.849 : :00:19:01.849
00:26:58.492 : :00:26:58.492
00:33:37.015 : :00:33:37.015
00:39:19.649 : :00:39:19.649
00:46:37.670 : :00:46:37.670
00:53:10.562 : :00:53:10.562
00:57:40.040 : :00:57:40.040
01:02:36.753 : :01:02:36.753
01:09:10.145 : :01:09:10.146
01:17:15.214 : :01:17:15.214
Загрузка...Cкриншот1 Возвращение живых мертвецов / The Return of the Living Dead (1985) [Remastered] BDRip 1080p [HEVC] 10 bit от HANNIBALЗагрузка...Cкриншот2 Возвращение живых мертвецов / The Return of the Living Dead (1985) [Remastered] BDRip 1080p [HEVC] 10 bit от HANNIBALЗагрузка...Cкриншот3 Возвращение живых мертвецов / The Return of the Living Dead (1985) [Remastered] BDRip 1080p [HEVC] 10 bit от HANNIBALЗагрузка...Cкриншот4 Возвращение живых мертвецов / The Return of the Living Dead (1985) [Remastered] BDRip 1080p [HEVC] 10 bit от HANNIBAL
Сэмпл Торрент🧲 Магнет

Рейтинги КП и IMDB, кнопки "Позвать в чате" и "Спасибо", а также мультитрекерная статистика доступны только зарегистрированным/авторизованным пользователям!

Файлы: 1
  • The Return of the Living Dead [Remastered](1985) BDRip 1080p [HEVC] 10bit.mkv   4.09 ГБ
Поблагодарили: 2
icesnoop, Maximilian_1932
HANNIBAL
7769004.09 ГБ

Добавление нового комментария

Добавление комментариев доступно только зарегистрированным/авторизованным пользователям.
Аватар не указан
  DSIO  
mvclub писал(а):
Не согласен. 3-я - лучшая.
Третья просто слишком сильно отличается от первых двух, поэтому не всем заходит, мне например тоже не зашла, хотя знаю что многие считают её не менее культовой чем первые две.
Аватар не указан
  DSIO  
Спасибо
Аватар igor302
  igor302  
Просто красавчик! Спасибо!
Аватар mvclub
  mvclub  
Не согласен. 3-я - лучшая.
Аватар HANNIBAL
  HANNIBAL  
да и только 1 и 2 часть норм другие хлам
Аватар HANNIBAL
  HANNIBAL  
Cthulhu писал(а):
Спасибо! Все части будешь делать?
если нужно
Аватар Cthulhu
  Cthulhu  
Спасибо! Все части будешь делать?