💬 Мини-чат

ADVOKAT69michael90, 👍без проблем!пожалуйста!
michael90ADVOKAT69, большое спасибо😎
ADVOKAT69michael90, раздаю
michael90Раздайте, пожалуйста, Джентльмены удачи (1971) BDRip 1080p [HEVC] 10 bit от ADVOKAT69
StarLordOldGamer, немного уменьшил список :)
OldGamerСкоро вся первая страница будет состоять из публикаций "Скоро" 😂
Adminzzzlayasss, сделайте скриншоты вкладок с хэш-суммой и трекерами и мне в приват или в ЛС
Adminzzzlayasss, в Вашем профиле я вообще не вижу, чтобы Вы это качали, так что мы даже не уверены, что Вы скачивали торрент-файл именно у нас.
OldGamerох уж в 2022 то году думать, что торренты скачиваются с сайта...
zzzlayasssСообщение удалено (удалил: zzzlayasss)
zzzlayasssOldGamer, у меня потери - 0, что тут разбирать?
OldGamerс моей стороны трассировка до пользователей саркор-телеком проходит успешно, так что разберитесь с принципом работы торрентов и ищите решение на своей стороне
OldGamerzzzlayasss, дело хозяйское
zzzlayasssOldGamer, Ни с железом, ни со скоростью интернета у меня нет проблем. Сейчас поставил на закачку релиз от ктулху, он в два раза меньше, но уже половина скачано, если докачаю быстрее 16-ти ваших мегабайт, то буду избавляться от вашего 11,66 гигового вашего, всё настроение испоганено такой долгой закачкой.
OldGamerzzzlayasss, у меня нет никаких проблем
zzzlayasssЛюди добрые, обьясните мне, я реально не понимаю, вчера поставил на закачку два фильма, РЭД и РЭД-2, второй фильм скачался буквально за каких-то пол часа, но вот с фильмом РЭД у меня какие-то немыслимые качели, или у релизера проблемы с файлом и он мне не может раздать последние 16 мегабайт, или он просто издевается, объясните мне пожалуйста, что тут реально происходит.
zzzlayasssСообщение удалено (удалил: zzzlayasss)
zzzlayasssОсталось докачать 16 мегабайт, но я уже почти сутки сижу и жду.
zzzlayasssРаздайте, пожалуйста, РЭД / RED (2010) BDRip 1080p [HEVC] 10 bit от OldGamer (RG RIPS CLUB)
zzzlayasssРаздайте, пожалуйста, РЭД / RED (2010) BDRip 1080p [HEVC] 10 bit от OldGamer (RG RIPS CLUB)
Отправка сообщений доступна только зарегистрированным/авторизованным пользователям.
Онлайн (за 10 мин.): 0

Бездна / The Deep (1977) BDRip 1080p [HEVC] 10 bit от ADVOKAT69

HEVC
10 bit
Обложка Бездна / The Deep (1977) BDRip 1080p [HEVC] 10 bit от ADVOKAT69 Год: 1977
Страна: Великобритания, США
Студия: Casablanca Filmworks
Жанр: Триллер, Детектив, Приключения
Продолжительность: 02:04:30

Режиссер: Питер Йетс
В ролях: Роберт Шоу, Жаклин Биссет, Ник Нолти, Луис Госсет мл., Эли Уоллах, Дик Энтони Уильямс, Эрл Мэйнард, Боб Майнор, Тедди Таккер, Роберт Тессьер

Описание: Супруги Гейл и Дэвид проводят отпуск на экзотическом бермудском острове. Во время подводной охоты им достается роскошная и опасная добыча: они находят затонувший испанский корабль, который набит несметными сокровищами. Искатели приключений и не подозревают, с чем им предстоит столкнуться в погоне за кладом. В конце концов, они оказываются на краю бездны, где любое неверное движение может стоить жизни.


Видео: 1920x800, ~4 408 Кбит/сек
Аудио: AC3, 2 ch, 192 Kbps - РусскийРусский, Дубляж Мосфильм
Субтитры: нет

Лог (x265 info)
x265 [info]: frame I: 1641, Avg QP:17.84 kb/s: 17561.34
x265 [info]: frame P: 36646, Avg QP:19.29 kb/s: 11146.78
x265 [info]: frame B: 140823, Avg QP:21.59 kb/s: 2499.64
x265 [info]: Weighted P-Frames: Y:19.2% UV:15.2%
x265 [info]: Weighted B-Frames: Y:12.4% UV:8.6%
x265 [info]: consecutive B-frames: 5.1% 2.2% 3.6% 40.6% 8.3% 38.7% 0.9% 0.5% 0.1%

encoded 179110 frames in 119614.47s (1.50 fps), 4406.85 kb/s, Avg QP:21.08
Медиаинфо
Общее
Уникальный идентификатор : 203254643917447955027658444154280399490 (0x98E96BA641EA1EBB9FA5FFA24DBCD282)
Полное имя : D:\Бездна 1977\Бездна (1977) HEVC 10bit.mkv
Формат : Matroska
Версия формата : Version 4
Размер файла : 4,00 Гбайт
Продолжительность : 2 ч. 4 м.
Общий поток : 4 601 Кбит/сек
Дата кодирования : UTC 2021-08-21 07:54:20
Программа кодирования : mkvmerge v9.2.0 ('Photograph') 64bit
Библиотека кодирования : libebml v1.3.3 + libmatroska v1.4.4

Видео
Идентификатор : 1
Формат : HEVC
Формат/Информация : High Efficiency Video Coding
Профиль формата : Main 10@L4.1@High
Идентификатор кодека : V_MPEGH/ISO/HEVC
Продолжительность : 2 ч. 4 м.
Битрейт : 4 408 Кбит/сек
Ширина : 1 920 пикселей
Высота : 800 пикселей
Соотношение сторон : 2,40:1
Режим частоты кадров : Постоянный
Частота кадров : 23,976 (24000/1001) кадра/сек
Цветовое пространство : YUV
Субдискретизация насыщенности : 4:2:0
Битовая глубина : 10 бит
Бит/(Пиксели*Кадры) : 0.120
Размер потока : 3,83 Гбайт (96%)
Библиотека кодирования : x265 3.5+10-82786fccc:[Windows][MSVC 1929][64 bit] 10bit
Настройки программы : cpuid=1049583 / frame-threads=3 / numa-pools=8 / wpp / no-pmode / no-pme / no-psnr / no-ssim / log-level=2 / input-csp=1 / input-res=1920x800 / interlace=0 / total-frames=179110 / level-idc=41 / high-tier=1 / uhd-bd=0 / ref=5 / no-allow-non-conformance / no-repeat-headers / annexb / no-aud / no-eob / no-eos / no-hrd / info / hash=0 / no-temporal-layers / open-gop / min-keyint=24 / keyint=240 / gop-lookahead=0 / bframes=8 / b-adapt=2 / b-pyramid / bframe-bias=0 / rc-lookahead=40 / lookahead-slices=4 / scenecut=40 / hist-scenecut=0 / radl=0 / no-splice / no-intra-refresh / ctu=32 / min-cu-size=8 / rect / no-amp / max-tu-size=32 / tu-inter-depth=4 / tu-intra-depth=4 / limit-tu=1 / rdoq-level=2 / dynamic-rd=4.00 / no-ssim-rd / signhide / no-tskip / nr-intra=0 / nr-inter=0 / constrained-intra / no-strong-intra-smoothing / max-merge=3 / limit-refs=3 / limit-modes / me=3 / subme=7 / merange=57 / temporal-mvp / no-frame-dup / no-hme / weightp / weightb / no-analyze-src-pics / deblock=-2:-2 / no-sao / no-sao-non-deblock / rd=4 / selective-sao=0 / no-early-skip / rskip / no-fast-intra / no-tskip-fast / no-cu-lossless / b-intra / no-splitrd-skip / rdpenalty=0 / psy-rd=1.50 / psy-rdoq=0.70 / no-rd-refine / no-lossless / cbqpoffs=0 / crqpoffs=0 / rc=crf / crf=20.0 / qcomp=0.60 / qpstep=4 / stats-write=0 / stats-read=0 / vbv-maxrate=50000 / vbv-bufsize=50000 / vbv-init=0.9 / min-vbv-fullness=50.0 / max-vbv-fullness=80.0 / crf-max=0.0 / crf-min=0.0 / ipratio=1.40 / pbratio=1.30 / aq-mode=2 / aq-strength=0.80 / no-cutree / zone-count=0 / no-strict-cbr / qg-size=32 / no-rc-grain / qpmax=69 / qpmin=0 / no-const-vbv / sar=1 / overscan=0 / videoformat=5 / range=0 / colorprim=1 / transfer=1 / colormatrix=1 / chromaloc=0 / display-window=0 / cll=0,0 / min-luma=0 / max-luma=1023 / log2-max-poc-lsb=8 / vui-timing-info / vui-hrd-info / slices=1 / no-opt-qp-pps / no-opt-ref-list-length-pps / no-multi-pass-opt-rps / scenecut-bias=0.05 / hist-threshold=0.03 / no-opt-cu-delta-qp / no-aq-motion / no-hdr10 / no-hdr10-opt / no-dhdr10-opt / no-idr-recovery-sei / analysis-reuse-level=0 / analysis-save-reuse-level=0 / analysis-load-reuse-level=0 / scale-factor=0 / refine-intra=0 / refine-inter=0 / refine-mv=1 / refine-ctu-distortion=0 / no-limit-sao / ctu-info=0 / no-lowpass-dct / refine-analysis-type=0 / copy-pic=1 / max-ausize-factor=1.0 / no-dynamic-refine / no-single-sei / no-hevc-aq / no-svt / no-field / qp-adaptation-range=1.00 / scenecut-aware-qp=0conformance-window-offsets / right=0 / bottom=0 / decoder-max-rate=0 / no-vbv-live-multi-pass
Default : Да
Forced : Нет
Цветовой диапазон : Limited
Основные цвета : BT.709
Характеристики трансфера : BT.709
Коэффициенты матрицы : BT.709

Аудио
Идентификатор : 2
Формат : AC-3
Формат/Информация : Audio Coding 3
Коммерческое название : Dolby Digital
Идентификатор кодека : A_AC3
Продолжительность : 2 ч. 4 м.
Вид битрейта : Постоянный
Битрейт : 192 Кбит/сек
Каналы : 2 канала
Channel layout : L R
Частота : 48,0 КГц
Частота кадров : 31,250 кадров/сек (1536 SPF)
Метод сжатия : С потерями
Размер потока : 171 Мбайт (4%)
Заголовок : Дубляж Мосфильм
Service kind : Complete Main
Default : Да
Forced : Нет

Меню
00:00:00.000 : :Глава 01
00:08:33.554 : :Глава 02
00:16:56.182 : :Глава 03
00:22:52.078 : :Глава 04
00:29:13.669 : :Глава 05
00:40:16.539 : :Глава 06
00:47:18.293 : :Глава 07
00:55:24.028 : :Глава 08
01:12:44.819 : :Глава 09
01:19:36.896 : :Глава 10
01:26:58.921 : :Глава 11
01:34:20.904 : :Глава 12
01:41:07.019 : :Глава 13
01:46:58.996 : :Глава 14
01:54:33.992 : :Глава 15
02:00:27.470 : :Глава 16
Загрузка...Cкриншот1 Бездна / The Deep (1977) BDRip 1080p [HEVC] 10 bit от ADVOKAT69Загрузка...Cкриншот2 Бездна / The Deep (1977) BDRip 1080p [HEVC] 10 bit от ADVOKAT69Загрузка...Cкриншот3 Бездна / The Deep (1977) BDRip 1080p [HEVC] 10 bit от ADVOKAT69Загрузка...Cкриншот4 Бездна / The Deep (1977) BDRip 1080p [HEVC] 10 bit от ADVOKAT69
Сэмпл Торрент🧲 Магнет

Раздача обновлена!
без дополнительных дорожек

Рейтинги КП и IMDB, кнопки "Позвать в чате" и "Спасибо", а также мультитрекерная статистика доступны только зарегистрированным/авторизованным пользователям!

Файлы: 1
  • Бездна (1977) HEVC 10bit.mkv   4 ГБ
Поблагодарили: 13
77carlsson77, and50, animen67, aquarius, donadar, Elico1977, FFantasy, IRIT, joker63, makss333, mvclub, Nuclear70, StarLord
ADVOKAT69
232004 ГБ

Добавление нового комментария

Добавление комментариев доступно только зарегистрированным/авторизованным пользователям.
Аватар ADVOKAT69
  ADVOKAT69  
Niflung писал(а):
<Раздача обновлена!
без дополнительных дорожек>

Вы бы хотя бы отдельно дорожки положили бы в раздачу!)
сначало так и было но ограничен свободным местом на дисках поэтому сейчас раздача только с одной!
Аватар не указан
  Niflung  
<Раздача обновлена!
без дополнительных дорожек>

Вы бы хотя бы отдельно дорожки положили бы в раздачу!)