💬 Мини-чат

OldGamerНасколько я помню, даже мой первый стик 2014 года тянул hevc, хотя и подтупливал на перемотке
OldGamerВыбирайте по цене и отзывам.
OldGamerСообщение удалено (удалил: OldGamer)
OldGamerЛюбой, всё что выпускалось за последние 3 года, вполне тянет hevc. Чуть раньше в чате ссылку давал на обсуждения на 4пда.
SAHA55Подскажите,пожалуйста какой купить медио плеер для просмотра видео в HEVC x265 с переносного жёсткого на 1 Тб. TV старый Panasonic
  • abtr
  • Blaster
  • Brooklyn
  • cdmitry
  • Krem_OFF
  • sethsrt srt
Отправка сообщений доступна только зарегистрированным/авторизованным пользователям.
Онлайн (за 10 мин.): 6

Лига справедливости Зака Снайдера / Zack Snyder's Justice League (2021) BDRip 1080p [HEVC] 10 bit от -Star-Lord- (RG RIPS CLUB)

HEVC
10 bit
Обложка Лига справедливости Зака Снайдера / Zack Snyder's Justice League (2021) BDRip 1080p [HEVC] 10 bit от -Star-Lord- (RG RIPS CLUB) Год: 2021
Страна: США
Студия: Atlas Entertainment, DC Entertainment, DC Films, HBO Max, RatPac-Dune Entertainment, The Stone Quarry, Warner Bros., Warner Bros. Pictures, Warner Max
Жанр: Фантастика, Фэнтези, Боевик
Продолжительность: 04:02:04

Режиссер: Зак Снайдер
В ролях: Бен Аффлек, Галь Гадот, Генри Кавилл, Джейсон Момоа, Эзра Миллер, Рэй Фишер, Эми Адамс, Джереми Айронс, Дайан Лэйн, Джаред Лето

Описание: Вдохновившись самопожертвованием Супермена, Брюс Уэйн вновь обретает веру в человечество. Он заручается поддержкой новой союзницы Дианы Принс, чтобы сразиться с ещё более могущественным противником. Бэтмен и Чудо-женщина набирают команду сверхлюдей для борьбы с пробудившейся угрозой.


Видео: 1440x1080, ~9703 Кбит/сек
Аудио1: E-AC3, 6 ch, 320 Kbps - РусскийРусский, Дублированный (Мосфильм-Мастер)
Аудио2: AC3, 6 ch, 640 Kbps - РусскийРусский, Профессиональный многоголосый закадровый (HDRezka Studio)
Аудио3: AC3, 6 ch, 384 Kbps - РусскийРусский, Профессиональный многоголосый закадровый (TVShows)
Аудио4: AC3, 6 ch, 640 Kbps - УкраинскийУкраинский, Профессиональный многоголосый закадровый (Цікава Ідея)
Аудио5: AC3, 6 ch, 384 Kbps - УкраинскийУкраинский, Профессиональный многоголосый закадровый (HDRezka Studio)
Аудио6: AC3, 6 ch, 640 Kbps - АнглийскийАнглийский, Оригинал
Субтитры: русские (форс., полные), украинские (форс., полные х2), английские (форс., полные, SDH)

Как за пару секунд удалить ненужные аудиодорожки и субтитры (Внимание! После удаления вы не сможете поддержать раздачу)

Лог (x265 info)
x265 [info]: frame I: 3085, Avg QP:16.84 kb/s: 24182.58
x265 [info]: frame P: 69461, Avg QP:18.31 kb/s: 16264.64
x265 [info]: frame B: 275703, Avg QP:20.67 kb/s: 7886.77
x265 [info]: Weighted P-Frames: Y:9.9% UV:8.0%
x265 [info]: Weighted B-Frames: Y:10.6% UV:8.0%
x265 [info]: consecutive B-frames: 10.2% 4.0% 5.0% 39.8% 6.9% 11.6% 3.1% 17.2% 0.6% 0.4% 0.1% 1.0% 0.0% 0.0% 0.0% 0.0% 0.0%

encoded 348249 frames in 355769.68s (0.98 fps), 9702.16 kb/s, Avg QP:20.16
Медиаинфо
General
Unique ID : 126037723556891257504783200402137802561 (0x5ED1FB8B274279F5ADBDC42FC3DDE741)
Complete name : Zack Snyder's Justice League (2021) BDRip 1080p H.265 [3xRUS_2xUKR_ENG] [RIPS-CLUB].mkv
Format : Matroska
Format version : Version 4
File size : 21.5 GiB
Duration : 4 h 2 min
Overall bit rate : 12.7 Mb/s
Movie name : Лига справедливости Зака Снайдера / Ліга справедливості Зака Снайдера / Zack Snyder's Justice League (2021)
Encoded date : UTC 2021-08-28 06:55:12
Writing application : mkvmerge v20.0.0 ('I Am The Sun') 64-bit
Writing library : libebml v1.3.5 + libmatroska v1.4.8
Cover : Yes
Attachments : Cover.jpg

Video
ID : 1
Format : HEVC
Format/Info : High Efficiency Video Coding
Format profile : Main 10@L4.1@High
Codec ID : V_MPEGH/ISO/HEVC
Duration : 4 h 2 min
Bit rate : 9 703 kb/s
Width : 1 440 pixels
Height : 1 080 pixels
Display aspect ratio : 4:3
Frame rate mode : Constant
Frame rate : 23.976 (24000/1001) FPS
Color space : YUV
Chroma subsampling : 4:2:0
Bit depth : 10 bits
Bits/(Pixel*Frame) : 0.260
Stream size : 16.4 GiB (76%)
Title : Лига справедливости Зака Снайдера / Ліга справедливості Зака Снайдера / Zack Snyder's Justice League (2021)
Writing library : x265 3.5+1-ce882936d:[Windows][GCC 10.2.0][64 bit] 10bit
Encoding settings : cpuid=1111039 / frame-threads=3 / numa-pools=12 / wpp / no-pmode / no-pme / no-psnr / no-ssim / log-level=2 / input-csp=1 / input-res=1440x1080 / interlace=0 / total-frames=348249 / level-idc=41 / high-tier=1 / uhd-bd=0 / ref=5 / no-allow-non-conformance / no-repeat-headers / annexb / no-aud / no-hrd / info / hash=0 / no-temporal-layers / open-gop / min-keyint=23 / keyint=240 / gop-lookahead=0 / bframes=16 / b-adapt=2 / b-pyramid / bframe-bias=0 / rc-lookahead=60 / lookahead-slices=4 / scenecut=40 / hist-scenecut=0 / radl=0 / no-splice / no-intra-refresh / ctu=32 / min-cu-size=8 / rect / amp / max-tu-size=32 / tu-inter-depth=4 / tu-intra-depth=4 / limit-tu=1 / rdoq-level=2 / dynamic-rd=0.00 / no-ssim-rd / signhide / no-tskip / nr-intra=0 / nr-inter=0 / no-constrained-intra / no-strong-intra-smoothing / max-merge=5 / limit-refs=2 / limit-modes / me=3 / subme=7 / merange=57 / temporal-mvp / no-frame-dup / no-hme / weightp / weightb / no-analyze-src-pics / deblock=-3:-3 / no-sao / no-sao-non-deblock / rd=6 / selective-sao=0 / no-early-skip / no-rskip / no-fast-intra / no-tskip-fast / no-cu-lossless / no-b-intra / no-splitrd-skip / rdpenalty=0 / psy-rd=2.00 / psy-rdoq=1.00 / no-rd-refine / no-lossless / cbqpoffs=0 / crqpoffs=0 / rc=crf / crf=20.5 / qcomp=0.67 / qpstep=4 / stats-write=0 / stats-read=0 / vbv-maxrate=50000 / vbv-bufsize=50000 / vbv-init=0.9 / min-vbv-fullness=50.0 / max-vbv-fullness=80.0 / crf-max=0.0 / crf-min=0.0 / ipratio=1.40 / pbratio=1.30 / aq-mode=3 / aq-strength=1.00 / no-cutree / zone-count=0 / no-strict-cbr / qg-size=32 / no-rc-grain / qpmax=69 / qpmin=0 / no-const-vbv / sar=1 / overscan=0 / videoformat=5 / range=0 / colorprim=2 / transfer=2 / colormatrix=2 / chromaloc=0 / display-window=0 / cll=0,0 / min-luma=0 / max-luma=1023 / log2-max-poc-lsb=8 / vui-timing-info / vui-hrd-info / slices=1 / no-opt-qp-pps / no-opt-ref-list-length-pps / no-multi-pass-opt-rps / scenecut-bias=0.05 / hist-threshold=0.03 / no-opt-cu-delta-qp / no-aq-motion / no-hdr10 / no-hdr10-opt / no-dhdr10-opt / no-idr-recovery-sei / analysis-reuse-level=0 / analysis-save-reuse-level=0 / analysis-load-reuse-level=0 / scale-factor=0 / refine-intra=0 / refine-inter=0 / refine-mv=1 / refine-ctu-distortion=0 / no-limit-sao / ctu-info=0 / no-lowpass-dct / refine-analysis-type=0 / copy-pic=1 / max-ausize-factor=1.0 / no-dynamic-refine / no-single-sei / no-hevc-aq / no-svt / no-field / qp-adaptation-range=1.00 / scenecut-aware-qp=0conformance-window-offsets / right=0 / bottom=0 / decoder-max-rate=0 / no-vbv-live-multi-pass
Language : English
Default : Yes
Forced : Yes

Audio #1
ID : 2
Format : E-AC-3
Format/Info : Enhanced AC-3
Commercial name : Dolby Digital Plus
Codec ID : A_EAC3
Duration : 4 h 2 min
Bit rate mode : Constant
Bit rate : 320 kb/s
Channel(s) : 6 channels
Channel layout : L R C LFE Ls Rs
Sampling rate : 48.0 kHz
Frame rate : 31.250 FPS (1536 SPF)
Compression mode : Lossy
Stream size : 554 MiB (3%)
Title : E-AC-3 / 5.1 Ch / 320 kbps / DUB / Мосфильм-Мастер
Language : Russian
Service kind : Complete Main
Default : Yes
Forced : Yes

Audio #2
ID : 3
Format : AC-3
Format/Info : Audio Coding 3
Commercial name : Dolby Digital
Codec ID : A_AC3
Duration : 4 h 2 min
Bit rate mode : Constant
Bit rate : 640 kb/s
Channel(s) : 6 channels
Channel layout : L R C LFE Ls Rs
Sampling rate : 48.0 kHz
Frame rate : 31.250 FPS (1536 SPF)
Compression mode : Lossy
Stream size : 1.08 GiB (5%)
Title : AC-3 / 5.1 Ch / 640 kbps / MVO / HDRezka Studio
Language : Russian
Service kind : Complete Main
Default : No
Forced : No

Audio #3
ID : 4
Format : AC-3
Format/Info : Audio Coding 3
Commercial name : Dolby Digital
Codec ID : A_AC3
Duration : 4 h 2 min
Bit rate mode : Constant
Bit rate : 384 kb/s
Channel(s) : 6 channels
Channel layout : L R C LFE Ls Rs
Sampling rate : 48.0 kHz
Frame rate : 31.250 FPS (1536 SPF)
Compression mode : Lossy
Stream size : 665 MiB (3%)
Title : AC-3 / 5.1 Ch / 384 kbps / MVO / TVShows
Language : Russian
Service kind : Complete Main
Default : No
Forced : No

Audio #4
ID : 5
Format : AC-3
Format/Info : Audio Coding 3
Commercial name : Dolby Digital
Codec ID : A_AC3
Duration : 4 h 2 min
Bit rate mode : Constant
Bit rate : 640 kb/s
Channel(s) : 6 channels
Channel layout : L R C LFE Ls Rs
Sampling rate : 48.0 kHz
Frame rate : 31.250 FPS (1536 SPF)
Compression mode : Lossy
Stream size : 1.08 GiB (5%)
Title : AC-3 / 5.1 Ch / 640 kbps / MVO / Цікава Ідея
Language : Ukrainian
Service kind : Complete Main
Default : No
Forced : No

Audio #5
ID : 6
Format : AC-3
Format/Info : Audio Coding 3
Commercial name : Dolby Digital
Codec ID : A_AC3
Duration : 4 h 2 min
Bit rate mode : Constant
Bit rate : 384 kb/s
Channel(s) : 6 channels
Channel layout : L R C LFE Ls Rs
Sampling rate : 48.0 kHz
Frame rate : 31.250 FPS (1536 SPF)
Compression mode : Lossy
Stream size : 665 MiB (3%)
Title : AC-3 / 5.1 Ch / 384 kbps / MVO / HDRezka Studio
Language : Ukrainian
Service kind : Complete Main
Default : No
Forced : No

Audio #6
ID : 7
Format : AC-3
Format/Info : Audio Coding 3
Commercial name : Dolby Digital
Codec ID : A_AC3
Duration : 4 h 2 min
Bit rate mode : Constant
Bit rate : 640 kb/s
Channel(s) : 6 channels
Channel layout : L R C LFE Ls Rs
Sampling rate : 48.0 kHz
Frame rate : 31.250 FPS (1536 SPF)
Compression mode : Lossy
Stream size : 1.08 GiB (5%)
Title : AC-3 / 5.1 Ch / 640 kbps / Original
Language : English
Service kind : Complete Main
Default : No
Forced : No

Text #1
ID : 8
Format : UTF-8
Codec ID : S_TEXT/UTF8
Codec ID/Info : UTF-8 Plain Text
Duration : 3 h 44 min
Bit rate : 1 b/s
Count of elements : 51
Stream size : 2.33 KiB (0%)
Title : Forced
Language : Russian
Default : Yes
Forced : Yes

Text #2
ID : 9
Format : UTF-8
Codec ID : S_TEXT/UTF8
Codec ID/Info : UTF-8 Plain Text
Duration : 3 h 50 min
Bit rate : 55 b/s
Count of elements : 1767
Stream size : 93.6 KiB (0%)
Title : Full
Language : Russian
Default : No
Forced : No

Text #3
ID : 10
Format : UTF-8
Codec ID : S_TEXT/UTF8
Codec ID/Info : UTF-8 Plain Text
Duration : 3 h 52 min
Bit rate : 0 b/s
Count of elements : 26
Stream size : 1.47 KiB (0%)
Title : Forced
Language : Ukrainian
Default : No
Forced : No

Text #4
ID : 11
Format : UTF-8
Codec ID : S_TEXT/UTF8
Codec ID/Info : UTF-8 Plain Text
Duration : 3 h 50 min
Bit rate : 50 b/s
Count of elements : 2026
Stream size : 86.3 KiB (0%)
Title : Full by Цікава Ідея
Language : Ukrainian
Default : No
Forced : No

Text #5
ID : 12
Format : UTF-8
Codec ID : S_TEXT/UTF8
Codec ID/Info : UTF-8 Plain Text
Duration : 3 h 47 min
Bit rate : 58 b/s
Count of elements : 1896
Stream size : 96.8 KiB (0%)
Title : Full by Дмитро Восколович
Language : Ukrainian
Default : No
Forced : No

Text #6
ID : 13
Format : UTF-8
Codec ID : S_TEXT/UTF8
Codec ID/Info : UTF-8 Plain Text
Duration : 3 h 52 min
Bit rate : 0 b/s
Count of elements : 37
Stream size : 1.05 KiB (0%)
Title : Forced
Language : English
Default : No
Forced : No

Text #7
ID : 14
Format : UTF-8
Codec ID : S_TEXT/UTF8
Codec ID/Info : UTF-8 Plain Text
Duration : 3 h 56 min
Bit rate : 30 b/s
Count of elements : 2068
Stream size : 53.5 KiB (0%)
Title : Full
Language : English
Default : No
Forced : No

Text #8
ID : 15
Format : UTF-8
Codec ID : S_TEXT/UTF8
Codec ID/Info : UTF-8 Plain Text
Duration : 4 h 0 min
Bit rate : 40 b/s
Count of elements : 2799
Stream size : 71.5 KiB (0%)
Title : SDH
Language : English
Default : No
Forced : No

Menu
00:00:00.000 : :Chapter 01
00:08:55.033 : :Chapter 02
00:19:56.737 : :Chapter 03
00:36:54.711 : :Chapter 04
00:41:32.030 : :Chapter 05
00:50:18.639 : :Chapter 06
00:58:42.643 : :Chapter 07
01:08:35.694 : :Chapter 08
01:20:27.823 : :Chapter 09
01:30:05.315 : :Chapter 10
01:40:28.604 : :Chapter 11
01:51:24.176 : :Chapter 12
01:59:06.930 : :Chapter 13
02:07:56.292 : :Chapter 14
02:21:58.259 : :Chapter 15
02:29:40.105 : :Chapter 16
02:37:17.271 : :Chapter 17
02:48:26.355 : :Chapter 18
02:53:09.680 : :Chapter 19
03:09:44.091 : :Chapter 20
03:21:18.950 : :Chapter 21
03:34:02.463 : :Chapter 22
03:40:00.030 : :Chapter 23
03:50:37.458 : :Chapter 24
Загрузка...Cкриншот1 Лига справедливости Зака Снайдера / Zack Snyder's Justice League (2021) BDRip 1080p [HEVC] 10 bit от -Star-Lord- (RG RIPS CLUB)Загрузка...Cкриншот2 Лига справедливости Зака Снайдера / Zack Snyder's Justice League (2021) BDRip 1080p [HEVC] 10 bit от -Star-Lord- (RG RIPS CLUB)Загрузка...Cкриншот3 Лига справедливости Зака Снайдера / Zack Snyder's Justice League (2021) BDRip 1080p [HEVC] 10 bit от -Star-Lord- (RG RIPS CLUB)Загрузка...Cкриншот4 Лига справедливости Зака Снайдера / Zack Snyder's Justice League (2021) BDRip 1080p [HEVC] 10 bit от -Star-Lord- (RG RIPS CLUB)
Релиз-группа: RIPS CLUB
Сэмпл Торрент🧲 Магнет

Рейтинги КП и IMDB, кнопки "Позвать в чате" и "Спасибо", а также мультитрекерная статистика доступны только зарегистрированным/авторизованным пользователям!

Файлы: 1
  • Zack Snyder's Justice League (2021) BDRip 1080p H.265 [3xRUS_2xUKR_ENG] [RIPS-CLUB].mkv   21.5 ГБ
Поблагодарили: 9
and50, Brooklyn, Elico1977, GIS88, ko1ob, makss333, Nuclear70, Rezident, VIS
StarLord
020933921.5 ГБ

Добавление нового комментария

Добавление комментариев доступно только зарегистрированным/авторизованным пользователям.