💬 Мини-чат

OldGamerНасколько я помню, даже мой первый стик 2014 года тянул hevc, хотя и подтупливал на перемотке
OldGamerВыбирайте по цене и отзывам.
OldGamerСообщение удалено (удалил: OldGamer)
OldGamerЛюбой, всё что выпускалось за последние 3 года, вполне тянет hevc. Чуть раньше в чате ссылку давал на обсуждения на 4пда.
SAHA55Подскажите,пожалуйста какой купить медио плеер для просмотра видео в HEVC x265 с переносного жёсткого на 1 Тб. TV старый Panasonic
  • OldGamer
  • ADVOKAT69
  • HANNIBAL
  • Spartanec1308
  • abtr
  • Despise
  • solohin1006
Отправка сообщений доступна только зарегистрированным/авторизованным пользователям.
Онлайн (за 10 мин.): 7

Блэйд: Трилогия / Blade: Trilogy (1998-2004) BDRip 1080p [HEVC] 10 bit от OldGamer (RG RIPS CLUB)

HEVC
10 bit
Обложка Блэйд: Трилогия / Blade: Trilogy (1998-2004) BDRip 1080p [HEVC] 10 bit от OldGamer (RG RIPS CLUB) Год: 1998-2004
Страна: США, Германия
Жанр: Ужасы, Боевик, Фэнтези, Фантастика

1. Блэйд / Blade (1998) [NL Transfer] BDRip 1080p [HEVC] 10 bit от OldGamer
HEVC
10 bit
Обложка Блэйд / Blade (1998) [NL Transfer] BDRip 1080p [HEVC] 10 bit от OldGamer Год: 1998
Страна: США
Студия: Amen Ra Films, Imaginary Forces, Marvel Enterprises, New Line Cinema
Жанр: Ужасы, Боевик, Фэнтези
Продолжительность: 02:00:16

Режиссер: Стивен Норрингтон
В ролях: Уэсли Снайпс, Стивен Дорфф, Крис Кристофферсон, Н’Буш Райт, Донал Лог, Удо Кир, Арли Жовер, Трейси Лордс, Кевин Патрик Уоллс, Тим Гини

Описание: Получеловек-полувампир Блэйд намерен уничтожить виновника своей судьбы - Дьякона Фроста. Когда-то в кровь Блэйда попало совсем немного вампирского яда, но с течением времени он стал ощущать неизбежность своего превращения. Желая избавить людей от тайной и могущественной армии вампиров, заполонившей общество, он отправляется на решающий бой...


Исходник: Blu-Ray Remux 1080p (rutracker)
Видео: 1920x812 (2.35:1), 10,7 Мбит/сек, HEVC (Main10@L.4.1@High)
Аудио1: AC3, 6 ch, 384 Kbps - РусскийРусский, DUB
Аудио2: AC3, 6 ch, 384 Kbps - РусскийРусский, MVO (Киномания)
Аудио3: AC3, 6 ch, 640 Kbps - РусскийРусский, DVO (Пётр Гланц и Инна Королёва)
Аудио4: AC3, 6 ch, 640 Kbps - РусскийРусский, AVO (Андрей Гаврилов)
Аудио5: AC3, 6 ch, 640 Kbps - РусскийРусский, AVO (Юрий Живов)
Аудио6: AC3, 6 ch, 640 Kbps - РусскийРусский, AVO (Дмитрий Пучков)
Аудио7: AC3, 2 ch, 192 Kbps - УкраинскийУкраинский, MVO (ICTV)
Аудио8: AC3, 6 ch, 640 Kbps - EnglishEnglish, Original
Субтитры: Русские полные (SRT), English full (SRT, SDH)

Как за пару секунд удалить ненужные аудиодорожки и субтитры (Внимание! После удаления вы не сможете поддержать раздачу)

Лог (x265 info)
x265 [info]: frame I: 734, Avg QP:16.91 kb/s: 21076.73
x265 [info]: frame P: 37140, Avg QP:18.26 kb/s: 17198.72
x265 [info]: frame B: 135141, Avg QP:20.43 kb/s: 8835.05
x265 [info]: Weighted P-Frames: Y:8.5% UV:7.2%
x265 [info]: Weighted B-Frames: Y:9.4% UV:7.2%
x265 [info]: consecutive B-frames: 11.6% 7.6% 6.8% 21.6% 10.2% 32.8% 3.4% 4.1% 0.6% 0.4% 0.3% 0.3% 0.1%
x265 [info]: encoded 173015 frames in 133419.56s (1.30 fps), 10682.36 kb/s, Avg QP:19.95
Медиаинфо
Общее
Уникальный идентификатор : 180761320158549836421718524755363466826 (0x87FD5D2A6333340CA26A220E04B78E4A)
Полное имя : \\.\01.Блэйд.Blade.NL.Transfer.1998.BDRip-HEVC.1080p.mkv
Формат : Matroska
Версия формата : Version 4
Размер файла : 12,5 Гбайт
Продолжительность : 2 ч. 0 м.
Общий поток : 14,8 Мбит/сек
Название фильма : 01.Блэйд.Blade.NL.Transfer.1998.BDRip-HEVC.1080p
Дата кодирования : UTC 2021-08-24 15:52:55
Программа кодирования : mkvmerge v60.0.0 ('Are We Copies?') 64-bit
Библиотека кодирования : libebml v1.4.2 + libmatroska v1.6.4
Обложка : Yes
Attachments : cover.jpg

Видео
Идентификатор : 1
Формат : HEVC
Формат/Информация : High Efficiency Video Coding
Профиль формата : Main 10@L4.1@High
Идентификатор кодека : V_MPEGH/ISO/HEVC
Продолжительность : 2 ч. 0 м.
Битрейт : 10,7 Мбит/сек
Ширина : 1 920 пикселей
Высота : 812 пикселей
Соотношение сторон : 2,35:1
Режим частоты кадров : Постоянный
Частота кадров : 23,976 (24000/1001) кадра/сек
Цветовое пространство : YUV
Субдискретизация насыщенности : 4:2:0
Битовая глубина : 10 бит
Бит/(Пиксели*Кадры) : 0.286
Размер потока : 8,97 Гбайт (72%)
Заголовок : Blade / Rip by OldGamer
Библиотека кодирования : x265 3.5+9-bf91444e0:[Windows][GCC 10.2.1][64 bit] 10bit
Настройки программы : cpuid=1111039 / frame-threads=3 / numa-pools=8 / wpp / no-pmode / no-pme / no-psnr / no-ssim / log-level=2 / input-csp=1 / input-res=1920x812 / interlace=0 / total-frames=173015 / level-idc=41 / high-tier=1 / uhd-bd=0 / ref=5 / no-allow-non-conformance / no-repeat-headers / annexb / no-aud / no-eob / no-eos / no-hrd / info / hash=0 / no-temporal-layers / open-gop / min-keyint=23 / keyint=240 / gop-lookahead=0 / bframes=12 / b-adapt=2 / b-pyramid / bframe-bias=0 / rc-lookahead=40 / lookahead-slices=0 / scenecut=40 / hist-scenecut=0 / radl=0 / no-splice / no-intra-refresh / ctu=32 / min-cu-size=8 / rect / amp / max-tu-size=32 / tu-inter-depth=4 / tu-intra-depth=4 / limit-tu=1 / rdoq-level=2 / dynamic-rd=0.00 / no-ssim-rd / signhide / no-tskip / nr-intra=0 / nr-inter=0 / no-constrained-intra / no-strong-intra-smoothing / max-merge=5 / limit-refs=3 / no-limit-modes / me=3 / subme=7 / merange=57 / temporal-mvp / no-frame-dup / no-hme / weightp / weightb / no-analyze-src-pics / deblock=-2:-2 / no-sao / no-sao-non-deblock / rd=6 / selective-sao=0 / no-early-skip / no-rskip / no-fast-intra / no-tskip-fast / no-cu-lossless / b-intra / no-splitrd-skip / rdpenalty=0 / psy-rd=2.00 / psy-rdoq=1.00 / no-rd-refine / no-lossless / cbqpoffs=0 / crqpoffs=0 / rc=crf / crf=20.0 / qcomp=0.78 / qpstep=4 / stats-write=0 / stats-read=0 / vbv-maxrate=50000 / vbv-bufsize=50000 / vbv-init=0.9 / min-vbv-fullness=50.0 / max-vbv-fullness=80.0 / crf-max=0.0 / crf-min=0.0 / ipratio=1.40 / pbratio=1.30 / aq-mode=1 / aq-strength=1.00 / no-cutree / zone-count=1 / zones: / start-frame=165729 / end-frame=173015 / qp=36 / no-strict-cbr / qg-size=32 / no-rc-grain / qpmax=69 / qpmin=0 / no-const-vbv / sar=1 / overscan=0 / videoformat=5 / range=0 / colorprim=2 / transfer=2 / colormatrix=2 / chromaloc=0 / display-window=0 / cll=0,0 / min-luma=0 / max-luma=1023 / log2-max-poc-lsb=8 / vui-timing-info / vui-hrd-info / slices=1 / no-opt-qp-pps / no-opt-ref-list-length-pps / no-multi-pass-opt-rps / scenecut-bias=0.00 / hist-threshold=0.03 / no-opt-cu-delta-qp / no-aq-motion / no-hdr10 / no-hdr10-opt / no-dhdr10-opt / no-idr-recovery-sei / analysis-reuse-level=0 / analysis-save-reuse-level=0 / analysis-load-reuse-level=0 / scale-factor=0 / refine-intra=0 / refine-inter=0 / refine-mv=1 / refine-ctu-distortion=0 / no-limit-sao / ctu-info=0 / no-lowpass-dct / refine-analysis-type=0 / copy-pic=1 / max-ausize-factor=1.0 / no-dynamic-refine / no-single-sei / no-hevc-aq / no-svt / no-field / qp-adaptation-range=1.00 / scenecut-aware-qp=0conformance-window-offsets / right=0 / bottom=0 / decoder-max-rate=0 / no-vbv-live-multi-pass
Язык : English
Default : Да
Forced : Нет

Аудио #1
Идентификатор : 2
ID in the original source medium : 4352 (0x1100)
Формат : AC-3
Формат/Информация : Audio Coding 3
Коммерческое название : Dolby Digital
Идентификатор кодека : A_AC3
Продолжительность : 2 ч. 0 м.
Вид битрейта : Постоянный
Битрейт : 384 Кбит/сек
Каналы : 6 каналов
Channel layout : L R C LFE Ls Rs
Частота : 48,0 КГц
Частота кадров : 31,250 кадров/сек (1536 SPF)
Метод сжатия : С потерями
Задержка видео : 900 мс.
Размер потока : 330 Мбайт (3%)
Заголовок : DUB
Язык : Russian
Service kind : Complete Main
Default : Да
Forced : Нет
Носитель оригинала : Blu-ray

Аудио #2
Идентификатор : 3
ID in the original source medium : 4353 (0x1101)
Формат : AC-3
Формат/Информация : Audio Coding 3
Коммерческое название : Dolby Digital
Идентификатор кодека : A_AC3
Продолжительность : 2 ч. 0 м.
Вид битрейта : Постоянный
Битрейт : 384 Кбит/сек
Каналы : 6 каналов
Channel layout : L R C LFE Ls Rs
Частота : 48,0 КГц
Частота кадров : 31,250 кадров/сек (1536 SPF)
Метод сжатия : С потерями
Задержка видео : 900 мс.
Размер потока : 330 Мбайт (3%)
Заголовок : MVO (Киномания)
Язык : Russian
Service kind : Complete Main
Default : Нет
Forced : Нет
Носитель оригинала : Blu-ray

Аудио #3
Идентификатор : 4
Формат : AC-3
Формат/Информация : Audio Coding 3
Коммерческое название : Dolby Digital
Идентификатор кодека : A_AC3
Продолжительность : 2 ч. 0 м.
Вид битрейта : Постоянный
Битрейт : 640 Кбит/сек
Каналы : 6 каналов
Channel layout : L R C LFE Ls Rs
Частота : 48,0 КГц
Частота кадров : 31,250 кадров/сек (1536 SPF)
Метод сжатия : С потерями
Размер потока : 550 Мбайт (4%)
Заголовок : DVO (Пётр Гланц и Инна Королёва)
Язык : Russian
Service kind : Complete Main
Default : Нет
Forced : Нет

Аудио #4
Идентификатор : 5
Формат : AC-3
Формат/Информация : Audio Coding 3
Коммерческое название : Dolby Digital
Идентификатор кодека : A_AC3
Продолжительность : 2 ч. 0 м.
Вид битрейта : Постоянный
Битрейт : 640 Кбит/сек
Каналы : 6 каналов
Channel layout : L R C LFE Ls Rs
Частота : 48,0 КГц
Частота кадров : 31,250 кадров/сек (1536 SPF)
Метод сжатия : С потерями
Размер потока : 550 Мбайт (4%)
Заголовок : AVO (Андрей Гаврилов)
Язык : Russian
Service kind : Complete Main
Default : Нет
Forced : Нет

Аудио #5
Идентификатор : 6
Формат : AC-3
Формат/Информация : Audio Coding 3
Коммерческое название : Dolby Digital
Идентификатор кодека : A_AC3
Продолжительность : 2 ч. 0 м.
Вид битрейта : Постоянный
Битрейт : 640 Кбит/сек
Каналы : 6 каналов
Channel layout : L R C LFE Ls Rs
Частота : 48,0 КГц
Частота кадров : 31,250 кадров/сек (1536 SPF)
Метод сжатия : С потерями
Размер потока : 550 Мбайт (4%)
Заголовок : AVO (Юрий Живов)
Язык : Russian
Service kind : Complete Main
Default : Нет
Forced : Нет

Аудио #6
Идентификатор : 7
Формат : AC-3
Формат/Информация : Audio Coding 3
Коммерческое название : Dolby Digital
Идентификатор кодека : A_AC3
Продолжительность : 2 ч. 0 м.
Вид битрейта : Постоянный
Битрейт : 640 Кбит/сек
Каналы : 6 каналов
Channel layout : L R C LFE Ls Rs
Частота : 48,0 КГц
Частота кадров : 31,250 кадров/сек (1536 SPF)
Метод сжатия : С потерями
Размер потока : 550 Мбайт (4%)
Заголовок : AVO (Дмитрий Пучков)
Язык : Russian
Service kind : Complete Main
Default : Нет
Forced : Нет

Аудио #7
Идентификатор : 8
Формат : AC-3
Формат/Информация : Audio Coding 3
Коммерческое название : Dolby Digital
Идентификатор кодека : A_AC3
Продолжительность : 2 ч. 0 м.
Вид битрейта : Постоянный
Битрейт : 192 Кбит/сек
Каналы : 2 канала
Channel layout : L R
Частота : 48,0 КГц
Частота кадров : 31,250 кадров/сек (1536 SPF)
Метод сжатия : С потерями
Размер потока : 165 Мбайт (1%)
Заголовок : MVO (ICTV)
Язык : Ukrainian
Service kind : Complete Main
Default : Нет
Forced : Нет

Аудио #8
Идентификатор : 9
Формат : AC-3
Формат/Информация : Audio Coding 3
Коммерческое название : Dolby Digital
Идентификатор кодека : A_AC3
Продолжительность : 2 ч. 0 м.
Вид битрейта : Постоянный
Битрейт : 640 Кбит/сек
Каналы : 6 каналов
Channel layout : L R C LFE Ls Rs
Частота : 48,0 КГц
Частота кадров : 31,250 кадров/сек (1536 SPF)
Метод сжатия : С потерями
Размер потока : 550 Мбайт (4%)
Язык : English
Service kind : Complete Main
Default : Нет
Forced : Нет

Текст #1
Идентификатор : 10
Формат : UTF-8
Идентификатор кодека : S_TEXT/UTF8
Идентификатор кодека/Информация : UTF-8 Plain Text
Продолжительность : 1 ч. 52 м.
Битрейт : 53 бит/сек
Count of elements : 1075
Размер потока : 44,5 Кбайт (0%)
Заголовок : Full
Язык : Russian
Default : Нет
Forced : Нет

Текст #2
Идентификатор : 11
Формат : UTF-8
Идентификатор кодека : S_TEXT/UTF8
Идентификатор кодека/Информация : UTF-8 Plain Text
Продолжительность : 1 ч. 52 м.
Битрейт : 34 бит/сек
Count of elements : 1129
Размер потока : 28,5 Кбайт (0%)
Заголовок : Full
Язык : English
Default : Нет
Forced : Нет

Текст #3
Идентификатор : 12
Формат : UTF-8
Идентификатор кодека : S_TEXT/UTF8
Идентификатор кодека/Информация : UTF-8 Plain Text
Продолжительность : 1 ч. 54 м.
Битрейт : 37 бит/сек
Count of elements : 1417
Размер потока : 31,1 Кбайт (0%)
Заголовок : SDH
Язык : English
Default : Нет
Forced : Нет

Меню
00:00:00.000 : 1. Opening Titles - The Birth of the Daywalker
00:02:04.332 : 2. Blind Date
00:03:06.227 : 3. Club Blood
00:06:49.534 : 4. The Daywalker
00:09:49.547 : 5. "Put Him Out."
00:11:00.618 : 6. The Mighty Quinn
00:13:47.201 : 7. Saving Karen
00:16:58.058 : 8. Blade's Lair
00:19:33.338 : 9. The House of Erebus
00:22:50.452 : 10. The Herbalist
00:23:44.798 : 11. The Injection
00:27:28.063 : 12. Rules of Encounter
00:31:04.404 : 13. In the Archives
00:33:02.814 : 14. The Glyphs
00:35:01.599 : 15. Cops and Robbers
00:39:19.982 : 16. Waiting for Prey
00:41:47.254 : 17. Schoolgirl Rap
00:44:31.627 : 18. Rooftop Party
00:47:35.143 : 19. Pearl Before Swine
00:50:10.966 : 20. Pages From the Book
00:54:01.363 : 21. Company Calls
00:57:10.093 : 22. "No. I'm Something Else."
00:58:08.485 : 23. The Story of Blade
01:01:33.064 : 24. First Dawn and Last
01:05:21.626 : 25. Secrets of the Blood
01:08:59.552 : 26. Spf 36
01:12:45.652 : 27. The Raid
01:14:50.777 : 28. "You're the Chosen One."
01:19:15.459 : 29. Cutting Off Roots
01:22:38.995 : 30. The Gate Crasher
01:25:00.345 : 31. A Mother's Love
01:27:56.980 : 32. The Temple of the Night
01:31:32.945 : 33. Everyone to Their Places
01:34:34.877 : 34. The Sarcophagus of the Daywalker
01:37:00.439 : 35. The Ceremony
01:40:33.444 : 36. Frost vs. the Daywalker
01:54:02.835 : 37. Moscow Nights
01:55:13.489 : 38. End Credits
Загрузка...Cкриншот1 Блэйд / Blade (1998) [NL Transfer] BDRip 1080p [HEVC] 10 bit от OldGamerЗагрузка...Cкриншот2 Блэйд / Blade (1998) [NL Transfer] BDRip 1080p [HEVC] 10 bit от OldGamerЗагрузка...Cкриншот3 Блэйд / Blade (1998) [NL Transfer] BDRip 1080p [HEVC] 10 bit от OldGamerЗагрузка...Cкриншот4 Блэйд / Blade (1998) [NL Transfer] BDRip 1080p [HEVC] 10 bit от OldGamer
Сэмпл
2. Блэйд 2 / Blade II (2002) [NL Transfer] BDRip 1080p [HEVC] 10 bit от OldGamer
HEVC
10 bit
Обложка Блэйд 2 / Blade II (2002) [NL Transfer] BDRip 1080p [HEVC] 10 bit от OldGamer Год: 2002
Страна: Германия, США
Студия: Amen Ra Films, Imaginary Forces, Justin Pictures, Linovo Productions GmbH & Co. KG, Marvel Enterprises, Milk & Honey, New Line Cinema
Жанр: Ужасы, Боевик, Триллер, Фэнтези
Продолжительность: 01:56:53

Режиссер: Гильермо дель Торо
В ролях: Уэсли Снайпс, Крис Кристофферсон, Рон Перлман, Леонор Варела, Норман Ридус, Томас Кречман, Люк Госс, Мэтт Шульце, Дэнни Джон-Джулс, Донни Йен

Описание: Мир вампиров в ужасе от появления новой расы суперкровососов. Именно благодаря этому легендарный Блэйд и его учитель Уистлер вынуждены объединиться со своими кровными врагами - Кровавой Стаей, элитным отрядом вампиров-воинов.


Исходник: Blu-Ray Remux 1080p (rutracker)
Видео: 1920x1080 (16:9), 9509 Кбит/сек, HEVC (Main10@L.4.1@High)
Аудио1: AC3, 6 ch, 448 Kbps - РусскийРусский, DUB
Аудио2: AC3, 6 ch, 640 Kbps - РусскийРусский, DVO (Пётр Гланц и Инна Королёва)
Аудио3: AC3, 6 ch, 640 Kbps - РусскийРусский, AVO (Юрий Живов)
Аудио4: AC3, 6 ch, 640 Kbps - РусскийРусский, AVO (Дмитрий Пучков)
Аудио5: AC3, 2 ch, 192 Kbps - УкраинскийУкраинский, MVO (ICTV)
Аудио6: AC3, 2 ch, 192 Kbps - УкраинскийУкраинский, DVO (1+1)
Аудио7: AC3, 6 ch, 640 Kbps - EnglishEnglish, Original
Субтитры: Русские полные (SRT), English full (SRT)

Как за пару секунд удалить ненужные аудиодорожки и субтитры (Внимание! После удаления вы не сможете поддержать раздачу)

Лог (x265 info)
x265 [info]: frame I: 706, Avg QP:16.56 kb/s: 16289.97
x265 [info]: frame P: 34315, Avg QP:17.73 kb/s: 15112.84
x265 [info]: frame B: 133123, Avg QP:20.53 kb/s: 8027.88
x265 [info]: Weighted P-Frames: Y:13.7% UV:11.8%
x265 [info]: Weighted B-Frames: Y:21.3% UV:16.0%
x265 [info]: consecutive B-frames: 7.9% 7.7% 8.4% 22.8% 11.1% 28.4% 5.4% 4.4% 1.9% 0.8% 0.3% 0.3% 0.1% 0.1% 0.1% 0.1% 0.2%
x265 [info]: encoded 168144 frames in 155141.43s (1.08 fps), 9508.48 kb/s, Avg QP:19.94
Медиаинфо
Общее
Уникальный идентификатор : 42729299957396239480766626519633834005 (0x20255D23E6D114A90D2E034DC90B3015)
Полное имя : \\.\02.Блэйд.2.Blade.II.NL.Transfer.2002.BDRip-HEVC.1080p.mkv
Формат : Matroska
Версия формата : Version 4
Размер файла : 10,5 Гбайт
Продолжительность : 1 ч. 56 м.
Общий поток : 12,9 Мбит/сек
Название фильма : 02.Блэйд.2.Blade.II.NL.Transfer.2002.BDRip-HEVC.1080p
Дата кодирования : UTC 2021-08-26 13:20:39
Программа кодирования : mkvmerge v60.0.0 ('Are We Copies?') 64-bit
Библиотека кодирования : libebml v1.4.2 + libmatroska v1.6.4
Обложка : Yes
Attachments : cover.jpg

Видео
Идентификатор : 1
Формат : HEVC
Формат/Информация : High Efficiency Video Coding
Профиль формата : Main 10@L4.1@High
Идентификатор кодека : V_MPEGH/ISO/HEVC
Продолжительность : 1 ч. 56 м.
Битрейт : 9 509 Кбит/сек
Ширина : 1 920 пикселей
Высота : 1 080 пикселей
Соотношение сторон : 16:9
Режим частоты кадров : Постоянный
Частота кадров : 23,976 (24000/1001) кадра/сек
Цветовое пространство : YUV
Субдискретизация насыщенности : 4:2:0
Битовая глубина : 10 бит
Бит/(Пиксели*Кадры) : 0.191
Размер потока : 7,76 Гбайт (74%)
Заголовок : Blade II / Rip by OldGamer
Библиотека кодирования : x265 3.5+9-bf91444e0:[Windows][GCC 10.2.1][64 bit] 10bit
Настройки программы : cpuid=1111039 / frame-threads=3 / numa-pools=8 / wpp / no-pmode / no-pme / no-psnr / no-ssim / log-level=2 / input-csp=1 / input-res=1920x1080 / interlace=0 / total-frames=168144 / level-idc=41 / high-tier=1 / uhd-bd=0 / ref=5 / no-allow-non-conformance / no-repeat-headers / annexb / no-aud / no-eob / no-eos / no-hrd / info / hash=0 / no-temporal-layers / open-gop / min-keyint=23 / keyint=240 / gop-lookahead=0 / bframes=16 / b-adapt=2 / b-pyramid / bframe-bias=0 / rc-lookahead=40 / lookahead-slices=0 / scenecut=40 / hist-scenecut=0 / radl=0 / no-splice / no-intra-refresh / ctu=32 / min-cu-size=8 / rect / amp / max-tu-size=32 / tu-inter-depth=4 / tu-intra-depth=4 / limit-tu=1 / rdoq-level=2 / dynamic-rd=0.00 / no-ssim-rd / signhide / no-tskip / nr-intra=0 / nr-inter=0 / no-constrained-intra / no-strong-intra-smoothing / max-merge=5 / limit-refs=3 / no-limit-modes / me=3 / subme=7 / merange=57 / temporal-mvp / no-frame-dup / no-hme / weightp / weightb / no-analyze-src-pics / deblock=-2:-2 / no-sao / no-sao-non-deblock / rd=6 / selective-sao=0 / no-early-skip / no-rskip / no-fast-intra / no-tskip-fast / no-cu-lossless / b-intra / no-splitrd-skip / rdpenalty=0 / psy-rd=2.00 / psy-rdoq=1.00 / no-rd-refine / no-lossless / cbqpoffs=0 / crqpoffs=0 / rc=crf / crf=21.0 / qcomp=0.78 / qpstep=4 / stats-write=0 / stats-read=0 / vbv-maxrate=50000 / vbv-bufsize=50000 / vbv-init=0.9 / min-vbv-fullness=50.0 / max-vbv-fullness=80.0 / crf-max=0.0 / crf-min=0.0 / ipratio=1.40 / pbratio=1.30 / aq-mode=3 / aq-strength=1.00 / no-cutree / zone-count=1 / zones: / start-frame=157104 / end-frame=168144 / qp=36 / no-strict-cbr / qg-size=32 / no-rc-grain / qpmax=69 / qpmin=0 / no-const-vbv / sar=1 / overscan=0 / videoformat=5 / range=0 / colorprim=2 / transfer=2 / colormatrix=2 / chromaloc=0 / display-window=0 / cll=0,0 / min-luma=0 / max-luma=1023 / log2-max-poc-lsb=8 / vui-timing-info / vui-hrd-info / slices=1 / no-opt-qp-pps / no-opt-ref-list-length-pps / no-multi-pass-opt-rps / scenecut-bias=0.00 / hist-threshold=0.03 / no-opt-cu-delta-qp / no-aq-motion / no-hdr10 / no-hdr10-opt / no-dhdr10-opt / no-idr-recovery-sei / analysis-reuse-level=0 / analysis-save-reuse-level=0 / analysis-load-reuse-level=0 / scale-factor=0 / refine-intra=0 / refine-inter=0 / refine-mv=1 / refine-ctu-distortion=0 / no-limit-sao / ctu-info=0 / no-lowpass-dct / refine-analysis-type=0 / copy-pic=1 / max-ausize-factor=1.0 / no-dynamic-refine / no-single-sei / no-hevc-aq / no-svt / no-field / qp-adaptation-range=1.00 / scenecut-aware-qp=0conformance-window-offsets / right=0 / bottom=0 / decoder-max-rate=0 / no-vbv-live-multi-pass
Язык : English
Default : Да
Forced : Нет

Аудио #1
Идентификатор : 2
ID in the original source medium : 4352 (0x1100)
Формат : AC-3
Формат/Информация : Audio Coding 3
Коммерческое название : Dolby Digital
Идентификатор кодека : A_AC3
Продолжительность : 1 ч. 56 м.
Вид битрейта : Постоянный
Битрейт : 448 Кбит/сек
Каналы : 6 каналов
Channel layout : L R C LFE Ls Rs
Частота : 48,0 КГц
Частота кадров : 31,250 кадров/сек (1536 SPF)
Метод сжатия : С потерями
Задержка видео : 750 мс.
Размер потока : 374 Мбайт (3%)
Заголовок : DUB
Язык : Russian
Service kind : Complete Main
Default : Да
Forced : Нет
Носитель оригинала : Blu-ray

Аудио #2
Идентификатор : 3
Формат : AC-3
Формат/Информация : Audio Coding 3
Коммерческое название : Dolby Digital
Идентификатор кодека : A_AC3
Продолжительность : 1 ч. 56 м.
Вид битрейта : Постоянный
Битрейт : 640 Кбит/сек
Каналы : 6 каналов
Channel layout : L R C LFE Ls Rs
Частота : 48,0 КГц
Частота кадров : 31,250 кадров/сек (1536 SPF)
Метод сжатия : С потерями
Размер потока : 535 Мбайт (5%)
Заголовок : DVO (Пётр Гланц и Инна Королёва)
Язык : Russian
Service kind : Complete Main
Default : Нет
Forced : Нет

Аудио #3
Идентификатор : 4
Формат : AC-3
Формат/Информация : Audio Coding 3
Коммерческое название : Dolby Digital
Идентификатор кодека : A_AC3
Продолжительность : 1 ч. 56 м.
Вид битрейта : Постоянный
Битрейт : 640 Кбит/сек
Каналы : 6 каналов
Channel layout : L R C LFE Ls Rs
Частота : 48,0 КГц
Частота кадров : 31,250 кадров/сек (1536 SPF)
Метод сжатия : С потерями
Размер потока : 535 Мбайт (5%)
Заголовок : AVO (Юрий Живов)
Язык : Russian
Service kind : Complete Main
Default : Нет
Forced : Нет

Аудио #4
Идентификатор : 5
Формат : AC-3
Формат/Информация : Audio Coding 3
Коммерческое название : Dolby Digital
Идентификатор кодека : A_AC3
Продолжительность : 1 ч. 56 м.
Вид битрейта : Постоянный
Битрейт : 640 Кбит/сек
Каналы : 6 каналов
Channel layout : L R C LFE Ls Rs
Частота : 48,0 КГц
Частота кадров : 31,250 кадров/сек (1536 SPF)
Метод сжатия : С потерями
Размер потока : 535 Мбайт (5%)
Заголовок : AVO (Дмитрий Пучков)
Язык : Russian
Service kind : Complete Main
Default : Нет
Forced : Нет

Аудио #5
Идентификатор : 6
Формат : AC-3
Формат/Информация : Audio Coding 3
Коммерческое название : Dolby Digital
Идентификатор кодека : A_AC3
Продолжительность : 1 ч. 56 м.
Вид битрейта : Постоянный
Битрейт : 192 Кбит/сек
Каналы : 2 канала
Channel layout : L R
Частота : 48,0 КГц
Частота кадров : 31,250 кадров/сек (1536 SPF)
Метод сжатия : С потерями
Задержка видео : 16 мс.
Размер потока : 160 Мбайт (1%)
Заголовок : MVO (ICTV)
Язык : Ukrainian
Service kind : Complete Main
Default : Нет
Forced : Нет

Аудио #6
Идентификатор : 7
Формат : AC-3
Формат/Информация : Audio Coding 3
Коммерческое название : Dolby Digital
Идентификатор кодека : A_AC3
Продолжительность : 1 ч. 56 м.
Вид битрейта : Постоянный
Битрейт : 192 Кбит/сек
Каналы : 2 канала
Channel layout : L R
Частота : 48,0 КГц
Частота кадров : 31,250 кадров/сек (1536 SPF)
Метод сжатия : С потерями
Задержка видео : 16 мс.
Размер потока : 160 Мбайт (1%)
Заголовок : DVO (1+1)
Язык : Ukrainian
Service kind : Complete Main
Default : Нет
Forced : Нет

Аудио #7
Идентификатор : 8
Формат : AC-3
Формат/Информация : Audio Coding 3
Коммерческое название : Dolby Digital
Идентификатор кодека : A_AC3
Продолжительность : 1 ч. 56 м.
Вид битрейта : Постоянный
Битрейт : 640 Кбит/сек
Каналы : 6 каналов
Channel layout : L R C LFE Ls Rs
Частота : 48,0 КГц
Частота кадров : 31,250 кадров/сек (1536 SPF)
Метод сжатия : С потерями
Размер потока : 535 Мбайт (5%)
Язык : English
Service kind : Complete Main
Default : Нет
Forced : Нет

Текст #1
Идентификатор : 9
Формат : UTF-8
Идентификатор кодека : S_TEXT/UTF8
Идентификатор кодека/Информация : UTF-8 Plain Text
Продолжительность : 1 ч. 48 м.
Битрейт : 52 бит/сек
Count of elements : 817
Размер потока : 41,9 Кбайт (0%)
Язык : Russian
Default : Нет
Forced : Нет

Текст #2
Идентификатор : 10
Формат : UTF-8
Идентификатор кодека : S_TEXT/UTF8
Идентификатор кодека/Информация : UTF-8 Plain Text
Продолжительность : 1 ч. 48 м.
Битрейт : 27 бит/сек
Count of elements : 867
Размер потока : 21,9 Кбайт (0%)
Язык : English
Default : Нет
Forced : Нет

Меню
00:00:00.000 : Blood Donors / Main Title
00:05:03.136 : Bike the Bullet
00:08:45.358 : Blood Lines
00:10:58.658 : "Detox"
00:17:00.644 : Suspicious Activity
00:23:12.891 : "Cancer with a Purpose"
00:27:50.377 : Healthy Skepticism
00:28:37.090 : Dealer Frenzy
00:30:03.885 : Leadership Training
00:33:27.630 : "the House of Pain"
00:52:03.537 : Immunity Challenge
00:55:23.445 : Mutant Misery
00:58:13.615 : Blood Bath
00:59:13.883 : Carrier Autopsy
01:03:29.764 : "Keep Your Enemies Closer"
01:08:14.423 : Daylight Hunting
01:14:30.257 : "Regroup"
01:18:51.727 : Collateral Damage
01:22:00.790 : Designing Vermin
01:32:09.232 : Thirst Quenching
01:38:02.751 : Prodigal Son
01:46:24.378 : Romantic Sunrise
01:48:28.460 : Loose End
01:49:13.964 : End Credits
Загрузка...Cкриншот1 Блэйд 2 / Blade II (2002) [NL Transfer] BDRip 1080p [HEVC] 10 bit от OldGamerЗагрузка...Cкриншот2 Блэйд 2 / Blade II (2002) [NL Transfer] BDRip 1080p [HEVC] 10 bit от OldGamerЗагрузка...Cкриншот3 Блэйд 2 / Blade II (2002) [NL Transfer] BDRip 1080p [HEVC] 10 bit от OldGamerЗагрузка...Cкриншот4 Блэйд 2 / Blade II (2002) [NL Transfer] BDRip 1080p [HEVC] 10 bit от OldGamer
Сэмпл
3. Блэйд 3: Троица / Blade: Trinity (2004) [NL Transfer] BDRip 1080p [HEVC] 10 bit от OldGamer
HEVC
10 bit
Обложка Блэйд 3: Троица / Blade: Trinity (2004) [NL Transfer] BDRip 1080p [HEVC] 10 bit от OldGamer Год: 2004
Страна: США
Студия: Amen Ra Films, Millennium Films, New Line Cinema, Shawn Danielle Productions Ltd.
Жанр: Ужасы, Фантастика, Фэнтези, Боевик
Продолжительность: 01:52:55

Режиссер: Дэвид С. Гойер
В ролях: Уэсли Снайпс, Крис Кристофферсон, Доминик Пёрселл, Джессика Бил, Райан Рейнольдс, Паркер Поузи, Марк Берри, Джон Майкл Хиггинс, Каллум Кит Ренни, Пол Левески

Описание: Ужасные события могут привести к захвату власти в мире вампирами. Блэйд - единственный, кто может предотвратить страшные перемены и воспрепятствовать превращению мира в планету вампиров. Стремясь помешать Блэйду, группа могущественных вампиров во главе с Даникой Талос натравливают на него людей. Полиция начинает охоту на того, кого теперь все считают чудовищем.


Исходник: Blu-Ray Remux 1080p (rutracker)
Видео: 1920x816 (2.35:1), 7789 Кбит/сек, HEVC (Main10@L.4.1@High)
Аудио1: AC3, 6 ch, 384 Kbps - РусскийРусский, DUB
Аудио2: AC3, 2 ch, 192 Kbps - УкраинскийУкраинский, MVO (ICTV)
Аудио3: AC3, 6 ch, 640 Kbps - EnglishEnglish, Original
Субтитры: Русские полные (SRT), English full (SRT)

Как за пару секунд удалить ненужные аудиодорожки и субтитры (Внимание! После удаления вы не сможете поддержать раздачу)

Лог (x265 info)
x265 [info]: frame I: 682, Avg QP:15.88 kb/s: 16592.55
x265 [info]: frame P: 37078, Avg QP:17.74 kb/s: 13254.08
x265 [info]: frame B: 124697, Avg QP:19.47 kb/s: 6114.49
x265 [info]: Weighted P-Frames: Y:8.5% UV:6.3%
x265 [info]: Weighted B-Frames: Y:9.7% UV:6.8%
x265 [info]: consecutive B-frames: 8.3% 8.7% 11.6% 29.4% 10.3% 25.4% 3.0% 2.2% 0.5% 0.2% 0.2%
x265 [info]: encoded 162457 frames in 115627.58s (1.41 fps), 7787.97 kb/s, Avg QP:19.06
Медиаинфо
Общее
Уникальный идентификатор : 32006591632124279790730130560414669370 (0x18143ECD913B2BEBE537406900245A3A)
Полное имя : \\.\03.Блэйд.3.Троица.Blade.Trinity.NL.Transfer.2004.BDRip-HEVC.1080p.mkv
Формат : Matroska
Версия формата : Version 4
Размер файла : 7,10 Гбайт
Продолжительность : 1 ч. 52 м.
Общий поток : 9 007 Кбит/сек
Название фильма : 03.Блэйд.3.Троица.Blade.Trinity.NL.Transfer.2004.BDRip-HEVC.1080p
Дата кодирования : UTC 2021-08-27 19:01:54
Программа кодирования : mkvmerge v60.0.0 ('Are We Copies?') 64-bit
Библиотека кодирования : libebml v1.4.2 + libmatroska v1.6.4
Обложка : Yes
Attachments : cover.jpg

Видео
Идентификатор : 1
Формат : HEVC
Формат/Информация : High Efficiency Video Coding
Профиль формата : Main 10@L4.1@High
Идентификатор кодека : V_MPEGH/ISO/HEVC
Продолжительность : 1 ч. 52 м.
Битрейт : 7 789 Кбит/сек
Ширина : 1 920 пикселей
Высота : 816 пикселей
Соотношение сторон : 2,35:1
Режим частоты кадров : Постоянный
Частота кадров : 23,976 (24000/1001) кадра/сек
Цветовое пространство : YUV
Субдискретизация насыщенности : 4:2:0
Битовая глубина : 10 бит
Бит/(Пиксели*Кадры) : 0.207
Размер потока : 6,14 Гбайт (86%)
Заголовок : Blade: Trinity / Rip by OldGamer
Библиотека кодирования : x265 3.5+9-bf91444e0:[Windows][GCC 10.2.1][64 bit] 10bit
Настройки программы : cpuid=1111039 / frame-threads=3 / numa-pools=8 / wpp / no-pmode / no-pme / no-psnr / no-ssim / log-level=2 / input-csp=1 / input-res=1920x816 / interlace=0 / total-frames=162457 / level-idc=41 / high-tier=1 / uhd-bd=0 / ref=5 / no-allow-non-conformance / no-repeat-headers / annexb / no-aud / no-eob / no-eos / no-hrd / info / hash=0 / no-temporal-layers / open-gop / min-keyint=23 / keyint=240 / gop-lookahead=0 / bframes=10 / b-adapt=2 / b-pyramid / bframe-bias=0 / rc-lookahead=40 / lookahead-slices=0 / scenecut=40 / hist-scenecut=0 / radl=0 / no-splice / no-intra-refresh / ctu=32 / min-cu-size=8 / rect / amp / max-tu-size=32 / tu-inter-depth=4 / tu-intra-depth=4 / limit-tu=1 / rdoq-level=2 / dynamic-rd=0.00 / no-ssim-rd / signhide / no-tskip / nr-intra=0 / nr-inter=0 / no-constrained-intra / no-strong-intra-smoothing / max-merge=5 / limit-refs=3 / no-limit-modes / me=3 / subme=7 / merange=57 / temporal-mvp / no-frame-dup / no-hme / weightp / weightb / no-analyze-src-pics / deblock=-2:-2 / no-sao / no-sao-non-deblock / rd=6 / selective-sao=0 / no-early-skip / no-rskip / no-fast-intra / no-tskip-fast / no-cu-lossless / b-intra / no-splitrd-skip / rdpenalty=0 / psy-rd=2.00 / psy-rdoq=1.00 / no-rd-refine / no-lossless / cbqpoffs=0 / crqpoffs=0 / rc=crf / crf=20.0 / qcomp=0.78 / qpstep=4 / stats-write=0 / stats-read=0 / vbv-maxrate=50000 / vbv-bufsize=50000 / vbv-init=0.9 / min-vbv-fullness=50.0 / max-vbv-fullness=80.0 / crf-max=0.0 / crf-min=0.0 / ipratio=1.40 / pbratio=1.30 / aq-mode=3 / aq-strength=1.00 / no-cutree / zone-count=1 / zones: / start-frame=153270 / end-frame=162457 / qp=36 / no-strict-cbr / qg-size=32 / no-rc-grain / qpmax=69 / qpmin=0 / no-const-vbv / sar=1 / overscan=0 / videoformat=5 / range=0 / colorprim=2 / transfer=2 / colormatrix=2 / chromaloc=0 / display-window=0 / cll=0,0 / min-luma=0 / max-luma=1023 / log2-max-poc-lsb=8 / vui-timing-info / vui-hrd-info / slices=1 / no-opt-qp-pps / no-opt-ref-list-length-pps / no-multi-pass-opt-rps / scenecut-bias=0.00 / hist-threshold=0.03 / no-opt-cu-delta-qp / no-aq-motion / no-hdr10 / no-hdr10-opt / no-dhdr10-opt / no-idr-recovery-sei / analysis-reuse-level=0 / analysis-save-reuse-level=0 / analysis-load-reuse-level=0 / scale-factor=0 / refine-intra=0 / refine-inter=0 / refine-mv=1 / refine-ctu-distortion=0 / no-limit-sao / ctu-info=0 / no-lowpass-dct / refine-analysis-type=0 / copy-pic=1 / max-ausize-factor=1.0 / no-dynamic-refine / no-single-sei / no-hevc-aq / no-svt / no-field / qp-adaptation-range=1.00 / scenecut-aware-qp=0conformance-window-offsets / right=0 / bottom=0 / decoder-max-rate=0 / no-vbv-live-multi-pass
Язык : English
Default : Да
Forced : Нет

Аудио #1
Идентификатор : 2
ID in the original source medium : 4352 (0x1100)
Формат : AC-3
Формат/Информация : Audio Coding 3
Коммерческое название : Dolby Digital
Идентификатор кодека : A_AC3
Продолжительность : 1 ч. 52 м.
Вид битрейта : Постоянный
Битрейт : 384 Кбит/сек
Каналы : 6 каналов
Channel layout : L R C LFE Ls Rs
Частота : 48,0 КГц
Частота кадров : 31,250 кадров/сек (1536 SPF)
Метод сжатия : С потерями
Задержка видео : 250 мс.
Размер потока : 310 Мбайт (4%)
Заголовок : DUB
Язык : Russian
Service kind : Complete Main
Default : Да
Forced : Нет
Носитель оригинала : Blu-ray

Аудио #2
Идентификатор : 3
Формат : AC-3
Формат/Информация : Audio Coding 3
Коммерческое название : Dolby Digital
Идентификатор кодека : A_AC3
Продолжительность : 1 ч. 52 м.
Вид битрейта : Постоянный
Битрейт : 192 Кбит/сек
Каналы : 2 канала
Channel layout : L R
Частота : 48,0 КГц
Частота кадров : 31,250 кадров/сек (1536 SPF)
Метод сжатия : С потерями
Размер потока : 155 Мбайт (2%)
Заголовок : MVO (ICTV)
Язык : Ukrainian
Service kind : Complete Main
Default : Нет
Forced : Нет

Аудио #3
Идентификатор : 4
Формат : AC-3
Формат/Информация : Audio Coding 3
Коммерческое название : Dolby Digital
Идентификатор кодека : A_AC3
Продолжительность : 1 ч. 52 м.
Вид битрейта : Постоянный
Битрейт : 640 Кбит/сек
Каналы : 6 каналов
Channel layout : L R C LFE Ls Rs
Частота : 48,0 КГц
Частота кадров : 31,250 кадров/сек (1536 SPF)
Метод сжатия : С потерями
Размер потока : 517 Мбайт (7%)
Язык : English
Service kind : Complete Main
Default : Нет
Forced : Нет

Текст #1
Идентификатор : 5
Формат : UTF-8
Идентификатор кодека : S_TEXT/UTF8
Идентификатор кодека/Информация : UTF-8 Plain Text
Продолжительность : 1 ч. 52 м.
Битрейт : 57 бит/сек
Count of elements : 857
Размер потока : 47,1 Кбайт (0%)
Язык : Russian
Default : Нет
Forced : Нет

Текст #2
Идентификатор : 6
Формат : UTF-8
Идентификатор кодека : S_TEXT/UTF8
Идентификатор кодека/Информация : UTF-8 Plain Text
Продолжительность : 1 ч. 43 м.
Битрейт : 34 бит/сек
Count of elements : 954
Размер потока : 26,5 Кбайт (0%)
Язык : English
Default : Нет
Forced : Нет

Меню
00:00:00.000 : Syrian Desert
00:06:47.407 : Main Titles/Human
00:12:59.361 : New Junter
00:17:16.076 : Losing the War
00:18:48.418 : Abigail
00:22:48.283 : Shoot to Kill
00:27:05.623 : Dr Vance
00:34:22.894 : A Rescue
00:41:07.673 : The Nightstalkers
00:45:40.904 : Dracula
00:50:55.886 : Daystar
00:54:10.747 : Hunting
00:58:08.026 : It's Drake
01:08:05.164 : The Final Solution
01:17:54.711 : Use It
01:21:59.915 : Target Practice
01:28:32.056 : Friends Are Coming
01:33:30.229 : The Fat Lady Sings
01:41:31.710 : Drake vs Blade
01:46:13.158 : Thirst Always Wins
01:50:45.013 : The War Never Ends
01:53:51.991 : End Credits
Загрузка...Cкриншот1 Блэйд 3: Троица / Blade: Trinity (2004) [NL Transfer] BDRip 1080p [HEVC] 10 bit от OldGamerЗагрузка...Cкриншот2 Блэйд 3: Троица / Blade: Trinity (2004) [NL Transfer] BDRip 1080p [HEVC] 10 bit от OldGamerЗагрузка...Cкриншот3 Блэйд 3: Троица / Blade: Trinity (2004) [NL Transfer] BDRip 1080p [HEVC] 10 bit от OldGamerЗагрузка...Cкриншот4 Блэйд 3: Троица / Blade: Trinity (2004) [NL Transfer] BDRip 1080p [HEVC] 10 bit от OldGamer
Сэмпл
Релиз-группа: RIPS CLUB
Торрент🧲 Магнет

Рейтинги КП и IMDB, кнопки "Позвать в чате" и "Спасибо", а также мультитрекерная статистика доступны только зарегистрированным/авторизованным пользователям!

Файлы: 3
  • Блэйд.Трилогия.Blade.Trilogy.1998-2004
    • 01.Блэйд.Blade.NL.Transfer.1998.BDRip-HEVC.1080p.mkv   12.47 ГБ
    • 02.Блэйд.2.Blade.II.NL.Transfer.2002.BDRip-HEVC.1080p.mkv   10.54 ГБ
    • 03.Блэйд.3.Троица.Blade.Trinity.NL.Transfer.2004.BDRip-HEVC.1080p.mkv   7.1 ГБ
Поблагодарили: 12
alexyak, and50, Brooklyn, donadar, Giggalo, GIS88, Kiran, makss333, medved2018, Nuclear70, StarLord, torrentzulu
OldGamer
0124114 (3)  30.11 ГБ

Добавление нового комментария

Добавление комментариев доступно только зарегистрированным/авторизованным пользователям.