Чат

⚫︎
Список изменений сайта - https://rips.club/changelog.html (обновлен 24.05.2024)
  • arwis
  • Roman1312
  • Slava307
  • z1M4p9i0
Онлайн (за 10 мин.): 4
  • Tastod: Раздайте, пожалуйста, Загадочная история Бенджамина Баттона / The Curious Case of Benjamin Button (2008) BDRip 1080p [HEVC] 10 bit от Spartanec1308
  • Гл. Админ: Исправил баг, когда после анонса коллекции все анонсы показывались в спойлере, даже если не являлись коллекцией.
  • Гл. Админ: Исправил баг, когда в ЛС не возможно было удалить сообщение.
  • bronsonw200: Гл. Админ, Как по мне, так смотрится приятнее.
  • Гл. Админ: В светлой теме задний фон сделал чуть потемнее, чтобы было не слишком ярко. В темной теме поисковую строку сделал черной (как в светлой теме), чтобы выделялась. Убрал рамки вокруг элементов форм. Прокрутку страницы в начало сделал плавной. ( отредактировано: )
  • Гл. Админ: В ближайшие дни по вечерам начну подправлять дизайн.
  • Гл. Админ: Готово.
  • Гл. Админ: Управление релизами закончил, но не буду выкладывать на ночь глядя. Утром протестирую на локальном компе, и днем выложу.
  • Гл. Админ: Фон баннера релиз-группы сделал прозрачным и перезалил на внешнем хостинге.
  • OldGamer: было бы неплохо
  • Гл. Админ: Управление релизами наверно сегодня закончу.
  • HANNIBAL: Сообщение удалено (удалил: HANNIBAL)
  • HANNIBAL: Гл. Админ, не привычно
  • Гл. Админ: HANNIBAL, хорошего или плохого?
  • HANNIBAL: эт чей-то вы тут натворили с сайтом ;)
  • Гл. Админ: ExoticDeer, просто в будущем будет несколько новостных строчек и они будут автоматически переключаться по кругу, поэтому не хочется статичную. Могу ещё уменьшить частоту, если всё равно будет отвлекать. ( отредактировано: )
  • Гл. Админ: ExoticDeer, уменьшил частоту мигания с 5 сек. до 10 сек.
  • ExoticDeer: Гл. Админ, про мигание, скорее отвлекает, особенно на тёмной теме. статичная хорошо смотрелась
  • Гл. Админ: Winsent, Исправил. Теперь, при просмотре комментариев конкретного пользователя, эта галочка не играет роли. Спасибо, что сообщили.
  • Гл. Админ: Winsent, сначала не поверил своим глазам. Это было оооочень странно. Но кажется теперь понял в чем проблема. Ошибка появляется, если в настройках не установлена галочка "Получать уведомления о всех комментариях". Причем у разных пользователей проявляется по разному - у кого-то ничего не показывается, а у кого-то показывается часть комментариев. Поэтому мне долго не удавалось воспроизвести ошибку. Сейчас исправлю.
Отправка сообщений доступна только зарегистрированным/авторизованным пользователям.

🎥︎🎥︎Блэйд: Трилогия / Blade: Trilogy (1998-2004) BDRip 1080p [HEVC] 10 bit от OldGamer (RG RIPS CLUB)


Обложка Блэйд: Трилогия / Blade: Trilogy (1998-2004) BDRip 1080p [HEVC] 10 bit от OldGamer (RG RIPS CLUB)
HEVC
10 bit
⤓︎Торрент🧲︎Магнет$Пожертвования

При перезаливке на другие сайты просьба указать автора и релиз-группу.


Год: 1998-2004
Страна: США, Германия
Жанр: Ужасы, Боевик, Фэнтези, Фантастика


Релиз-группа: RIPS CLUB
1. Блэйд / Blade (1998) [NL Transfer] BDRip 1080p [HEVC] 10 bit от OldGamer
Обложка Блэйд / Blade (1998) [NL Transfer] BDRip 1080p [HEVC] 10 bit от OldGamer
HEVC
10 bit
✂︎Сэмпл
Год: 1998
Страна: США
Студия: Amen Ra Films, Imaginary Forces, Marvel Enterprises, New Line Cinema
Жанр: Ужасы, Боевик, Фэнтези
Длительность: 02:00:16

Режиссер: Стивен Норрингтон
В ролях: Уэсли Снайпс, Стивен Дорфф, Крис Кристофферсон, Н’Буш Райт, Донал Лог, Удо Кир, Арли Жовер, Трейси Лордс, Кевин Патрик Уоллс, Тим Гини

Описание: Получеловек-полувампир Блэйд намерен уничтожить виновника своей судьбы - Дьякона Фроста. Когда-то в кровь Блэйда попало совсем немного вампирского яда, но с течением времени он стал ощущать неизбежность своего превращения. Желая избавить людей от тайной и могущественной армии вампиров, заполонившей общество, он отправляется на решающий бой...


Исходник: Blu-Ray Remux 1080p (rutracker)
Видео: 1920x812, 10.7 Mbps
Аудио1: AC3, 6 ch, 384 Kbps - РусскийРусский, DUB
Аудио2: AC3, 6 ch, 384 Kbps - РусскийРусский, MVO (Киномания)
Аудио3: AC3, 2 ch, 192 Kbps - РусскийРусский, MVO (ОРТ)
Аудио4: AC3, 6 ch, 640 Kbps - РусскийРусский, DVO (Пётр Гланц и Инна Королёва)
Аудио5: AC3, 2 ch, 192 Kbps - РусскийРусский, DVO (SDI Media / TV1000)
Аудио6: AC3, 2 ch, 192 Kbps - РусскийРусский, DVO (РЕН ТВ)
Аудио7: AC3, 6 ch, 640 Kbps - РусскийРусский, AVO (Андрей Гаврилов)
Аудио8: AC3, 6 ch, 640 Kbps - РусскийРусский, AVO (Юрий Живов)
Аудио9: AC3, 6 ch, 640 Kbps - РусскийРусский, AVO (Дмитрий Пучков)
Аудио10: AC3, 2 ch, 192 Kbps - РусскийРусский, VO (Неизвестный)
Аудио11: AC3, 2 ch, 192 Kbps - УкраинскийУкраинский, MVO (ICTV)
Аудио12: AC3, 6 ch, 640 Kbps - АнглийскийАнглийский
Субтитры: русские, английские (SDH)

Как за несколько секунд удалить ненужные аудиодорожки и субтитры (Внимание! После удаления вы не сможете поддержать раздачу)


Лог (x265 info)x265 [info]: frame I: 734, Avg QP:16.91 kb/s: 21076.73
x265 [info]: frame P: 37140, Avg QP:18.26 kb/s: 17198.72
x265 [info]: frame B: 135141, Avg QP:20.43 kb/s: 8835.05
x265 [info]: Weighted P-Frames: Y:8.5% UV:7.2%
x265 [info]: Weighted B-Frames: Y:9.4% UV:7.2%
x265 [info]: consecutive B-frames: 11.6% 7.6% 6.8% 21.6% 10.2% 32.8% 3.4% 4.1% 0.6% 0.4% 0.3% 0.3% 0.1%
x265 [info]: encoded 173015 frames in 133419.56s (1.30 fps), 10682.36 kb/s, Avg QP:19.95
МедиаинфоОбщее
Уникальный идентификатор : 106127312989529355425457982606075079809 (0x4FD7608318F5C86FC9A93CCF8A4DAC81)
Полное имя : \\.\01.Блэйд.Blade.1998.NL.Transfer.BDRip-HEVC.1080p.mkv
Формат : Matroska
Версия формата : Version 4
Размер файла : 13,1 Гбайт
Продолжительность : 2 ч. 0 м.
Общий поток : 15,6 Мбит/сек
Частота кадров : 23,976 кадра/сек
Название фильма : Блэйд / Блэйд
Кодирование произвёл : OldGamer
Тип содержимого : Movie
Дата выпуска : 1998-08-21
Дата записи : 1998-08-21
Программа кодирования : mkvmerge v82.0 ('I'm The President') 64-bit
Библиотека кодирования : libebml v1.4.5 + libmatroska v1.7.1 / xvid4psp5
Обложка : Yes
Attachments : cover.jpg
ACTOR : Wesley Snipes, Stephen Dorff, Kris Kristofferson, N'Bushe Wright, Donal Logue, Udo Kier, Arly Jover, Traci Lords, Kevin Patrick Walls, Tim Guinee, Sanaa Lathan, Eric Edwards, Donna Wong, Carmen Thomas, Shannon Lee, Kenny Johnson, Clint Curtis, Judson...
ARTIST : Wesley Snipes, Stephen Dorff, Kris Kristofferson, N'Bushe Wright, Donal Logue, Udo Kier, Arly Jover, Traci Lords, Kevin Patrick Walls, Tim Guinee, Sanaa Lathan, Eric Edwards, Donna Wong, Carmen Thomas, Shannon Lee, Kenny Johnson, Clint Curtis, Judson...
DIRECTOR : Stephen Norrington
GENRE : ужасы, боевик
LAW_RATING : R
PRODUCER : Peter Frankfurt, Wesley Snipes, Robert Engelman
PRODUCTION_STUDIO : Imaginary Forces
RATING : R
SYNOPSIS : Получеловек-полувампир Блэйд (Уэсли Снайпс) намерен уничтожить виновника своей судьбы - Дьякона Фроста (Стивен Дорф). Когда-то в кровь Блэйда попало совсем немного вампирского яда, но с течением времени он стал ощущать неизбежность своего превращения. Желая избавить людей от тайной и могущественной армии вампиров, заполонивших общество, он отправляется на решающий бой...

Видео
Идентификатор : 1
Формат : HEVC
Формат/Информация : High Efficiency Video Coding
Профиль формата : Main 10@L4.1@High
Идентификатор кодека : V_MPEGH/ISO/HEVC
Продолжительность : 2 ч. 0 м.
Битрейт : 10,7 Мбит/сек
Ширина : 1 920 пикселей
Высота : 812 пикселей
Соотношение сторон : 2,35:1
Режим частоты кадров : Постоянный
Частота кадров : 23,976 (24000/1001) кадра/сек
Цветовое пространство : YUV
Субдискретизация насыщенности : 4:2:0
Битовая глубина : 10 бит
Бит/(Пиксели*Кадры) : 0.286
Размер потока : 8,97 Гбайт (68%)
Заголовок : Blade / Rip by OldGamer
Библиотека кодирования : x265 3.5+9-bf91444e0:[Windows][GCC 10.2.1][64 bit] 10bit
Настройки программы : cpuid=1111039 / frame-threads=3 / numa-pools=8 / wpp / no-pmode / no-pme / no-psnr / no-ssim / log-level=2 / input-csp=1 / input-res=1920x812 / interlace=0 / total-frames=173015 / level-idc=41 / high-tier=1 / uhd-bd=0 / ref=5 / no-allow-non-conformance / no-repeat-headers / annexb / no-aud / no-eob / no-eos / no-hrd / info / hash=0 / no-temporal-layers / open-gop / min-keyint=23 / keyint=240 / gop-lookahead=0 / bframes=12 / b-adapt=2 / b-pyramid / bframe-bias=0 / rc-lookahead=40 / lookahead-slices=0 / scenecut=40 / hist-scenecut=0 / radl=0 / no-splice / no-intra-refresh / ctu=32 / min-cu-size=8 / rect / amp / max-tu-size=32 / tu-inter-depth=4 / tu-intra-depth=4 / limit-tu=1 / rdoq-level=2 / dynamic-rd=0.00 / no-ssim-rd / signhide / no-tskip / nr-intra=0 / nr-inter=0 / no-constrained-intra / no-strong-intra-smoothing / max-merge=5 / limit-refs=3 / no-limit-modes / me=3 / subme=7 / merange=57 / temporal-mvp / no-frame-dup / no-hme / weightp / weightb / no-analyze-src-pics / deblock=-2:-2 / no-sao / no-sao-non-deblock / rd=6 / selective-sao=0 / no-early-skip / no-rskip / no-fast-intra / no-tskip-fast / no-cu-lossless / b-intra / no-splitrd-skip / rdpenalty=0 / psy-rd=2.00 / psy-rdoq=1.00 / no-rd-refine / no-lossless / cbqpoffs=0 / crqpoffs=0 / rc=crf / crf=20.0 / qcomp=0.78 / qpstep=4 / stats-write=0 / stats-read=0 / vbv-maxrate=50000 / vbv-bufsize=50000 / vbv-init=0.9 / min-vbv-fullness=50.0 / max-vbv-fullness=80.0 / crf-max=0.0 / crf-min=0.0 / ipratio=1.40 / pbratio=1.30 / aq-mode=1 / aq-strength=1.00 / no-cutree / zone-count=1 / zones: / start-frame=165729 / end-frame=173015 / qp=36 / no-strict-cbr / qg-size=32 / no-rc-grain / qpmax=69 / qpmin=0 / no-const-vbv / sar=1 / overscan=0 / videoformat=5 / range=0 / colorprim=2 / transfer=2 / colormatrix=2 / chromaloc=0 / display-window=0 / cll=0,0 / min-luma=0 / max-luma=1023 / log2-max-poc-lsb=8 / vui-timing-info / vui-hrd-info / slices=1 / no-opt-qp-pps / no-opt-ref-list-length-pps / no-multi-pass-opt-rps / scenecut-bias=0.00 / hist-threshold=0.03 / no-opt-cu-delta-qp / no-aq-motion / no-hdr10 / no-hdr10-opt / no-dhdr10-opt / no-idr-recovery-sei / analysis-reuse-level=0 / analysis-save-reuse-level=0 / analysis-load-reuse-level=0 / scale-factor=0 / refine-intra=0 / refine-inter=0 / refine-mv=1 / refine-ctu-distortion=0 / no-limit-sao / ctu-info=0 / no-lowpass-dct / refine-analysis-type=0 / copy-pic=1 / max-ausize-factor=1.0 / no-dynamic-refine / no-single-sei / no-hevc-aq / no-svt / no-field / qp-adaptation-range=1.00 / scenecut-aware-qp=0conformance-window-offsets / right=0 / bottom=0 / decoder-max-rate=0 / no-vbv-live-multi-pass
Язык : English
Default : Да
Forced : Нет

Аудио #1
Идентификатор : 2
ID in the original source medium : 4352 (0x1100)
Формат : AC-3
Формат/Информация : Audio Coding 3
Коммерческое название : Dolby Digital
Идентификатор кодека : A_AC3
Продолжительность : 2 ч. 0 м.
Вид битрейта : Постоянный
Битрейт : 384 Кбит/сек
Каналы : 6 каналов
Channel layout : L R C LFE Ls Rs
Частота : 48,0 КГц
Частота кадров : 31,250 кадров/сек (1536 SPF)
Метод сжатия : С потерями
Задержка видео : 900 мс.
Размер потока : 330 Мбайт (2%)
Заголовок : DUB
Язык : Russian
Service kind : Complete Main
Default : Да
Forced : Нет
Носитель оригинала : Blu-ray

Аудио #2
Идентификатор : 3
ID in the original source medium : 4353 (0x1101)
Формат : AC-3
Формат/Информация : Audio Coding 3
Коммерческое название : Dolby Digital
Идентификатор кодека : A_AC3
Продолжительность : 2 ч. 0 м.
Вид битрейта : Постоянный
Битрейт : 384 Кбит/сек
Каналы : 6 каналов
Channel layout : L R C LFE Ls Rs
Частота : 48,0 КГц
Частота кадров : 31,250 кадров/сек (1536 SPF)
Метод сжатия : С потерями
Задержка видео : 900 мс.
Размер потока : 330 Мбайт (2%)
Заголовок : MVO (Киномания)
Язык : Russian
Service kind : Complete Main
Default : Нет
Forced : Нет
Носитель оригинала : Blu-ray

Аудио #3
Идентификатор : 4
Формат : AC-3
Формат/Информация : Audio Coding 3
Коммерческое название : Dolby Digital
Идентификатор кодека : A_AC3
Продолжительность : 2 ч. 0 м.
Вид битрейта : Постоянный
Битрейт : 192 Кбит/сек
Каналы : 2 канала
Channel layout : L R
Частота : 48,0 КГц
Частота кадров : 31,250 кадров/сек (1536 SPF)
Метод сжатия : С потерями
Размер потока : 165 Мбайт (1%)
Заголовок : MVO (ОРТ)
Язык : Russian
Service kind : Complete Main
Default : Нет
Forced : Нет

Аудио #4
Идентификатор : 5
Формат : AC-3
Формат/Информация : Audio Coding 3
Коммерческое название : Dolby Digital
Идентификатор кодека : A_AC3
Продолжительность : 2 ч. 0 м.
Вид битрейта : Постоянный
Битрейт : 640 Кбит/сек
Каналы : 6 каналов
Channel layout : L R C LFE Ls Rs
Частота : 48,0 КГц
Частота кадров : 31,250 кадров/сек (1536 SPF)
Метод сжатия : С потерями
Размер потока : 550 Мбайт (4%)
Заголовок : DVO (Пётр Гланц и Инна Королёва)
Язык : Russian
Service kind : Complete Main
Default : Нет
Forced : Нет

Аудио #5
Идентификатор : 6
Формат : AC-3
Формат/Информация : Audio Coding 3
Коммерческое название : Dolby Digital
Идентификатор кодека : A_AC3
Продолжительность : 2 ч. 0 м.
Вид битрейта : Постоянный
Битрейт : 192 Кбит/сек
Каналы : 2 канала
Channel layout : L R
Частота : 48,0 КГц
Частота кадров : 31,250 кадров/сек (1536 SPF)
Метод сжатия : С потерями
Размер потока : 165 Мбайт (1%)
Заголовок : DVO (SDI Media / TV1000)
Язык : Russian
Service kind : Complete Main
Default : Нет
Forced : Нет

Аудио #6
Идентификатор : 7
Формат : AC-3
Формат/Информация : Audio Coding 3
Коммерческое название : Dolby Digital
Идентификатор кодека : A_AC3
Продолжительность : 2 ч. 0 м.
Вид битрейта : Постоянный
Битрейт : 192 Кбит/сек
Каналы : 2 канала
Channel layout : L R
Частота : 48,0 КГц
Частота кадров : 31,250 кадров/сек (1536 SPF)
Метод сжатия : С потерями
Размер потока : 165 Мбайт (1%)
Заголовок : DVO (РЕН ТВ)
Язык : Russian
Service kind : Complete Main
Default : Нет
Forced : Нет

Аудио #7
Идентификатор : 8
Формат : AC-3
Формат/Информация : Audio Coding 3
Коммерческое название : Dolby Digital
Идентификатор кодека : A_AC3
Продолжительность : 2 ч. 0 м.
Вид битрейта : Постоянный
Битрейт : 640 Кбит/сек
Каналы : 6 каналов
Channel layout : L R C LFE Ls Rs
Частота : 48,0 КГц
Частота кадров : 31,250 кадров/сек (1536 SPF)
Метод сжатия : С потерями
Размер потока : 550 Мбайт (4%)
Заголовок : AVO (Андрей Гаврилов)
Язык : Russian
Service kind : Complete Main
Default : Нет
Forced : Нет

Аудио #8
Идентификатор : 9
Формат : AC-3
Формат/Информация : Audio Coding 3
Коммерческое название : Dolby Digital
Идентификатор кодека : A_AC3
Продолжительность : 2 ч. 0 м.
Вид битрейта : Постоянный
Битрейт : 640 Кбит/сек
Каналы : 6 каналов
Channel layout : L R C LFE Ls Rs
Частота : 48,0 КГц
Частота кадров : 31,250 кадров/сек (1536 SPF)
Метод сжатия : С потерями
Размер потока : 550 Мбайт (4%)
Заголовок : AVO (Юрий Живов)
Язык : Russian
Service kind : Complete Main
Default : Нет
Forced : Нет

Аудио #9
Идентификатор : 10
Формат : AC-3
Формат/Информация : Audio Coding 3
Коммерческое название : Dolby Digital
Идентификатор кодека : A_AC3
Продолжительность : 2 ч. 0 м.
Вид битрейта : Постоянный
Битрейт : 640 Кбит/сек
Каналы : 6 каналов
Channel layout : L R C LFE Ls Rs
Частота : 48,0 КГц
Частота кадров : 31,250 кадров/сек (1536 SPF)
Метод сжатия : С потерями
Размер потока : 550 Мбайт (4%)
Заголовок : AVO (Дмитрий Пучков)
Язык : Russian
Service kind : Complete Main
Default : Нет
Forced : Нет

Аудио #10
Идентификатор : 11
Формат : AC-3
Формат/Информация : Audio Coding 3
Коммерческое название : Dolby Digital
Идентификатор кодека : A_AC3
Продолжительность : 2 ч. 0 м.
Вид битрейта : Постоянный
Битрейт : 192 Кбит/сек
Каналы : 2 канала
Channel layout : L R
Частота : 48,0 КГц
Частота кадров : 31,250 кадров/сек (1536 SPF)
Метод сжатия : С потерями
Размер потока : 165 Мбайт (1%)
Заголовок : VO (Неизвестный)
Язык : Russian
Service kind : Complete Main
Default : Нет
Forced : Нет

Аудио #11
Идентификатор : 12
Формат : AC-3
Формат/Информация : Audio Coding 3
Коммерческое название : Dolby Digital
Идентификатор кодека : A_AC3
Продолжительность : 2 ч. 0 м.
Вид битрейта : Постоянный
Битрейт : 192 Кбит/сек
Каналы : 2 канала
Channel layout : L R
Частота : 48,0 КГц
Частота кадров : 31,250 кадров/сек (1536 SPF)
Метод сжатия : С потерями
Размер потока : 165 Мбайт (1%)
Заголовок : MVO (ICTV)
Язык : Ukrainian
Service kind : Complete Main
Default : Нет
Forced : Нет

Аудио #12
Идентификатор : 13
Формат : AC-3
Формат/Информация : Audio Coding 3
Коммерческое название : Dolby Digital
Идентификатор кодека : A_AC3
Продолжительность : 2 ч. 0 м.
Вид битрейта : Постоянный
Битрейт : 640 Кбит/сек
Каналы : 6 каналов
Channel layout : L R C LFE Ls Rs
Частота : 48,0 КГц
Частота кадров : 31,250 кадров/сек (1536 SPF)
Метод сжатия : С потерями
Размер потока : 550 Мбайт (4%)
Язык : English
Service kind : Complete Main
Default : Нет
Forced : Нет

Текст #1
Идентификатор : 14
Формат : UTF-8
Идентификатор кодека : S_TEXT/UTF8
Идентификатор кодека/Информация : UTF-8 Plain Text
Продолжительность : 1 ч. 52 м.
Битрейт : 53 бит/сек
Частота кадров : 0,159 кадр/сек
Count of elements : 1075
Размер потока : 44,5 Кбайт (0%)
Заголовок : Full
Язык : Russian
Default : Нет
Forced : Нет

Текст #2
Идентификатор : 15
Формат : UTF-8
Идентификатор кодека : S_TEXT/UTF8
Идентификатор кодека/Информация : UTF-8 Plain Text
Продолжительность : 1 ч. 52 м.
Битрейт : 34 бит/сек
Частота кадров : 0,167 кадр/сек
Count of elements : 1129
Размер потока : 28,5 Кбайт (0%)
Заголовок : Full
Язык : English
Default : Нет
Forced : Нет

Текст #3
Идентификатор : 16
Формат : UTF-8
Идентификатор кодека : S_TEXT/UTF8
Идентификатор кодека/Информация : UTF-8 Plain Text
Продолжительность : 1 ч. 54 м.
Битрейт : 37 бит/сек
Частота кадров : 0,206 кадр/сек
Count of elements : 1417
Размер потока : 31,1 Кбайт (0%)
Заголовок : SDH
Язык : English
Default : Нет
Forced : Нет

Меню
00:00:00.000 : en:1. Opening Titles - The Birth of the Daywalker
00:02:04.332 : en:2. Blind Date
00:03:06.227 : en:3. Club Blood
00:06:49.534 : en:4. The Daywalker
00:09:49.547 : en:5. "Put Him Out."
00:11:00.618 : en:6. The Mighty Quinn
00:13:47.201 : en:7. Saving Karen
00:16:58.058 : en:8. Blade's Lair
00:19:33.338 : en:9. The House of Erebus
00:22:50.452 : en:10. The Herbalist
00:23:44.798 : en:11. The Injection
00:27:28.063 : en:12. Rules of Encounter
00:31:04.404 : en:13. In the Archives
00:33:02.814 : en:14. The Glyphs
00:35:01.599 : en:15. Cops and Robbers
00:39:19.982 : en:16. Waiting for Prey
00:41:47.254 : en:17. Schoolgirl Rap
00:44:31.627 : en:18. Rooftop Party
00:47:35.143 : en:19. Pearl Before Swine
00:50:10.966 : en:20. Pages From the Book
00:54:01.363 : en:21. Company Calls
00:57:10.093 : en:22. "No. I'm Something Else."
00:58:08.485 : en:23. The Story of Blade
01:01:33.064 : en:24. First Dawn and Last
01:05:21.626 : en:25. Secrets of the Blood
01:08:59.552 : en:26. Spf 36
01:12:45.652 : en:27. The Raid
01:14:50.777 : en:28. "You're the Chosen One."
01:19:15.459 : en:29. Cutting Off Roots
01:22:38.995 : en:30. The Gate Crasher
01:25:00.345 : en:31. A Mother's Love
01:27:56.980 : en:32. The Temple of the Night
01:31:32.945 : en:33. Everyone to Their Places
01:34:34.877 : en:34. The Sarcophagus of the Daywalker
01:37:00.439 : en:35. The Ceremony
01:40:33.444 : en:36. Frost vs. the Daywalker
01:54:02.835 : en:37. Moscow Nights
01:55:13.489 : en:38. End Credits
Загрузка...Cкриншот1 Блэйд / Blade (1998) [NL Transfer] BDRip 1080p [HEVC] 10 bit от OldGamerЗагрузка...Cкриншот2 Блэйд / Blade (1998) [NL Transfer] BDRip 1080p [HEVC] 10 bit от OldGamerЗагрузка...Cкриншот3 Блэйд / Blade (1998) [NL Transfer] BDRip 1080p [HEVC] 10 bit от OldGamerЗагрузка...Cкриншот4 Блэйд / Blade (1998) [NL Transfer] BDRip 1080p [HEVC] 10 bit от OldGamer
2. Блэйд 2 / Blade II (2002) [NL Transfer] BDRip 1080p [HEVC] 10 bit от OldGamer
Обложка Блэйд 2 / Blade II (2002) [NL Transfer] BDRip 1080p [HEVC] 10 bit от OldGamer
HEVC
10 bit
✂︎Сэмпл
Год: 2002
Страна: Германия, США
Студия: Amen Ra Films, Imaginary Forces, Justin Pictures, Linovo Productions GmbH & Co. KG, Marvel Enterprises, Milk & Honey, New Line Cinema
Жанр: Ужасы, Боевик, Триллер, Фэнтези
Длительность: 01:56:53

Режиссер: Гильермо дель Торо
В ролях: Уэсли Снайпс, Крис Кристофферсон, Рон Перлман, Леонор Варела, Норман Ридус, Томас Кречман, Люк Госс, Мэтт Шульце, Дэнни Джон-Джулс, Донни Йен

Описание: Мир вампиров в ужасе от появления новой расы суперкровососов. Именно благодаря этому легендарный Блэйд и его учитель Уистлер вынуждены объединиться со своими кровными врагами - Кровавой Стаей, элитным отрядом вампиров-воинов.


Исходник: Blu-Ray Remux 1080p (rutracker)
Видео: 1920x1080, 9509 Kbps
Аудио1: AC3, 6 ch, 448 Kbps - РусскийРусский, DUB
Аудио2: AC3, 2 ch, 192 Kbps - РусскийРусский, MVO (НТВ)
Аудио3: AC3, 6 ch, 640 Kbps - РусскийРусский, DVO (Пётр Гланц и Инна Королёва)
Аудио4: AC3, 6 ch, 640 Kbps - РусскийРусский, AVO (Юрий Живов)
Аудио5: AC3, 6 ch, 640 Kbps - РусскийРусский, AVO (Дмитрий Пучков)
Аудио6: AC3, 6 ch, 448 Kbps - РусскийРусский, AVO (Андрей Гаврилов)
Аудио7: AC3, 2 ch, 192 Kbps - РусскийРусский, AVO (Андрей Дольский)
Аудио8: AC3, 2 ch, 192 Kbps - РусскийРусский, AVO (Сергей Визгунов)
Аудио9: AC3, 2 ch, 192 Kbps - УкраинскийУкраинский, MVO (ICTV)
Аудио10: AC3, 2 ch, 192 Kbps - УкраинскийУкраинский, DVO (1+1)
Аудио11: AC3, 6 ch, 640 Kbps - АнглийскийАнглийский
Субтитры: русские, английские

Как за несколько секунд удалить ненужные аудиодорожки и субтитры (Внимание! После удаления вы не сможете поддержать раздачу)


Лог (x265 info)x265 [info]: frame I: 706, Avg QP:16.56 kb/s: 16289.97
x265 [info]: frame P: 34315, Avg QP:17.73 kb/s: 15112.84
x265 [info]: frame B: 133123, Avg QP:20.53 kb/s: 8027.88
x265 [info]: Weighted P-Frames: Y:13.7% UV:11.8%
x265 [info]: Weighted B-Frames: Y:21.3% UV:16.0%
x265 [info]: consecutive B-frames: 7.9% 7.7% 8.4% 22.8% 11.1% 28.4% 5.4% 4.4% 1.9% 0.8% 0.3% 0.3% 0.1% 0.1% 0.1% 0.1% 0.2%
x265 [info]: encoded 168144 frames in 155141.43s (1.08 fps), 9508.48 kb/s, Avg QP:19.94
МедиаинфоОбщее
Уникальный идентификатор : 295405442851835768000803193370042474402 (0xDE3D04D0E28FEBCD69BBA3F90E549FA2)
Полное имя : \\.\02.Блэйд.2.Blade.II.2002.NL.Transfer.BDRip-HEVC.1080p.mkv
Формат : Matroska
Версия формата : Version 4
Размер файла : 11,4 Гбайт
Продолжительность : 1 ч. 56 м.
Общий поток : 13,9 Мбит/сек
Частота кадров : 23,976 кадра/сек
Название фильма : Блэйд 2 / Блэйд 2
Кодирование произвёл : OldGamer
Тип содержимого : Movie
Дата выпуска : 2002-03-22
Дата записи : 2002-03-22
Программа кодирования : mkvmerge v82.0 ('I'm The President') 64-bit
Библиотека кодирования : libebml v1.4.5 + libmatroska v1.7.1 / xvid4psp5
Обложка : Yes
Attachments : cover.jpg
ACTOR : Wesley Snipes, Kris Kristofferson, Ron Perlman, Leonor Varela, Norman Reedus, Thomas Kretschmann, Luke Goss, Matt Schulze, Danny John-Jules, Donnie Yen, Karel Roden, Marit Velle Kile, Tony Curran, Daz Crawford, Santiago Segura, Samuel Le, Marek Vašut...
ARTIST : Wesley Snipes, Kris Kristofferson, Ron Perlman, Leonor Varela, Norman Reedus, Thomas Kretschmann, Luke Goss, Matt Schulze, Danny John-Jules, Donnie Yen, Karel Roden, Marit Velle Kile, Tony Curran, Daz Crawford, Santiago Segura, Samuel Le, Marek Vašut...
DIRECTOR : Guillermo del Toro
GENRE : фэнтези, ужасы, боевик, триллер
LAW_RATING : R
PRODUCER : Peter Frankfurt, Patrick J. Palmer, Wesley Snipes
PRODUCTION_STUDIO : Imaginary Forces
RATING : R
SYNOPSIS : Мир вампиров в ужасе от появления новой расы супер-кровососов! Именно благодаря этому, легендарный Блэйд и его учитель Уистлер вынуждены объединиться со своими кровными врагами Кровавой Стаей, — элитным отрядом вампиров-воинов.

Видео
Идентификатор : 1
Формат : HEVC
Формат/Информация : High Efficiency Video Coding
Профиль формата : Main 10@L4.1@High
Идентификатор кодека : V_MPEGH/ISO/HEVC
Продолжительность : 1 ч. 56 м.
Битрейт : 9 509 Кбит/сек
Ширина : 1 920 пикселей
Высота : 1 080 пикселей
Соотношение сторон : 16:9
Режим частоты кадров : Постоянный
Частота кадров : 23,976 (24000/1001) кадра/сек
Цветовое пространство : YUV
Субдискретизация насыщенности : 4:2:0
Битовая глубина : 10 бит
Бит/(Пиксели*Кадры) : 0.191
Размер потока : 7,76 Гбайт (68%)
Заголовок : Blade II / Rip by OldGamer
Библиотека кодирования : x265 3.5+9-bf91444e0:[Windows][GCC 10.2.1][64 bit] 10bit
Настройки программы : cpuid=1111039 / frame-threads=3 / numa-pools=8 / wpp / no-pmode / no-pme / no-psnr / no-ssim / log-level=2 / input-csp=1 / input-res=1920x1080 / interlace=0 / total-frames=168144 / level-idc=41 / high-tier=1 / uhd-bd=0 / ref=5 / no-allow-non-conformance / no-repeat-headers / annexb / no-aud / no-eob / no-eos / no-hrd / info / hash=0 / no-temporal-layers / open-gop / min-keyint=23 / keyint=240 / gop-lookahead=0 / bframes=16 / b-adapt=2 / b-pyramid / bframe-bias=0 / rc-lookahead=40 / lookahead-slices=0 / scenecut=40 / hist-scenecut=0 / radl=0 / no-splice / no-intra-refresh / ctu=32 / min-cu-size=8 / rect / amp / max-tu-size=32 / tu-inter-depth=4 / tu-intra-depth=4 / limit-tu=1 / rdoq-level=2 / dynamic-rd=0.00 / no-ssim-rd / signhide / no-tskip / nr-intra=0 / nr-inter=0 / no-constrained-intra / no-strong-intra-smoothing / max-merge=5 / limit-refs=3 / no-limit-modes / me=3 / subme=7 / merange=57 / temporal-mvp / no-frame-dup / no-hme / weightp / weightb / no-analyze-src-pics / deblock=-2:-2 / no-sao / no-sao-non-deblock / rd=6 / selective-sao=0 / no-early-skip / no-rskip / no-fast-intra / no-tskip-fast / no-cu-lossless / b-intra / no-splitrd-skip / rdpenalty=0 / psy-rd=2.00 / psy-rdoq=1.00 / no-rd-refine / no-lossless / cbqpoffs=0 / crqpoffs=0 / rc=crf / crf=21.0 / qcomp=0.78 / qpstep=4 / stats-write=0 / stats-read=0 / vbv-maxrate=50000 / vbv-bufsize=50000 / vbv-init=0.9 / min-vbv-fullness=50.0 / max-vbv-fullness=80.0 / crf-max=0.0 / crf-min=0.0 / ipratio=1.40 / pbratio=1.30 / aq-mode=3 / aq-strength=1.00 / no-cutree / zone-count=1 / zones: / start-frame=157104 / end-frame=168144 / qp=36 / no-strict-cbr / qg-size=32 / no-rc-grain / qpmax=69 / qpmin=0 / no-const-vbv / sar=1 / overscan=0 / videoformat=5 / range=0 / colorprim=2 / transfer=2 / colormatrix=2 / chromaloc=0 / display-window=0 / cll=0,0 / min-luma=0 / max-luma=1023 / log2-max-poc-lsb=8 / vui-timing-info / vui-hrd-info / slices=1 / no-opt-qp-pps / no-opt-ref-list-length-pps / no-multi-pass-opt-rps / scenecut-bias=0.00 / hist-threshold=0.03 / no-opt-cu-delta-qp / no-aq-motion / no-hdr10 / no-hdr10-opt / no-dhdr10-opt / no-idr-recovery-sei / analysis-reuse-level=0 / analysis-save-reuse-level=0 / analysis-load-reuse-level=0 / scale-factor=0 / refine-intra=0 / refine-inter=0 / refine-mv=1 / refine-ctu-distortion=0 / no-limit-sao / ctu-info=0 / no-lowpass-dct / refine-analysis-type=0 / copy-pic=1 / max-ausize-factor=1.0 / no-dynamic-refine / no-single-sei / no-hevc-aq / no-svt / no-field / qp-adaptation-range=1.00 / scenecut-aware-qp=0conformance-window-offsets / right=0 / bottom=0 / decoder-max-rate=0 / no-vbv-live-multi-pass
Язык : English
Default : Да
Forced : Нет

Аудио #1
Идентификатор : 2
ID in the original source medium : 4352 (0x1100)
Формат : AC-3
Формат/Информация : Audio Coding 3
Коммерческое название : Dolby Digital
Идентификатор кодека : A_AC3
Продолжительность : 1 ч. 56 м.
Вид битрейта : Постоянный
Битрейт : 448 Кбит/сек
Каналы : 6 каналов
Channel layout : L R C LFE Ls Rs
Частота : 48,0 КГц
Частота кадров : 31,250 кадров/сек (1536 SPF)
Метод сжатия : С потерями
Задержка видео : 750 мс.
Размер потока : 374 Мбайт (3%)
Заголовок : DUB
Язык : Russian
Service kind : Complete Main
Default : Да
Forced : Нет
Носитель оригинала : Blu-ray

Аудио #2
Идентификатор : 3
Формат : AC-3
Формат/Информация : Audio Coding 3
Коммерческое название : Dolby Digital
Идентификатор кодека : A_AC3
Продолжительность : 1 ч. 56 м.
Вид битрейта : Постоянный
Битрейт : 192 Кбит/сек
Каналы : 2 канала
Channel layout : L R
Частота : 48,0 КГц
Частота кадров : 31,250 кадров/сек (1536 SPF)
Метод сжатия : С потерями
Размер потока : 160 Мбайт (1%)
Заголовок : MVO (НТВ)
Язык : Russian
Service kind : Complete Main
Default : Нет
Forced : Нет

Аудио #3
Идентификатор : 4
Формат : AC-3
Формат/Информация : Audio Coding 3
Коммерческое название : Dolby Digital
Идентификатор кодека : A_AC3
Продолжительность : 1 ч. 56 м.
Вид битрейта : Постоянный
Битрейт : 640 Кбит/сек
Каналы : 6 каналов
Channel layout : L R C LFE Ls Rs
Частота : 48,0 КГц
Частота кадров : 31,250 кадров/сек (1536 SPF)
Метод сжатия : С потерями
Размер потока : 535 Мбайт (5%)
Заголовок : DVO (Пётр Гланц и Инна Королёва)
Язык : Russian
Service kind : Complete Main
Default : Нет
Forced : Нет

Аудио #4
Идентификатор : 5
Формат : AC-3
Формат/Информация : Audio Coding 3
Коммерческое название : Dolby Digital
Идентификатор кодека : A_AC3
Продолжительность : 1 ч. 56 м.
Вид битрейта : Постоянный
Битрейт : 640 Кбит/сек
Каналы : 6 каналов
Channel layout : L R C LFE Ls Rs
Частота : 48,0 КГц
Частота кадров : 31,250 кадров/сек (1536 SPF)
Метод сжатия : С потерями
Размер потока : 535 Мбайт (5%)
Заголовок : AVO (Юрий Живов)
Язык : Russian
Service kind : Complete Main
Default : Нет
Forced : Нет

Аудио #5
Идентификатор : 6
Формат : AC-3
Формат/Информация : Audio Coding 3
Коммерческое название : Dolby Digital
Идентификатор кодека : A_AC3
Продолжительность : 1 ч. 56 м.
Вид битрейта : Постоянный
Битрейт : 640 Кбит/сек
Каналы : 6 каналов
Channel layout : L R C LFE Ls Rs
Частота : 48,0 КГц
Частота кадров : 31,250 кадров/сек (1536 SPF)
Метод сжатия : С потерями
Размер потока : 535 Мбайт (5%)
Заголовок : AVO (Дмитрий Пучков)
Язык : Russian
Service kind : Complete Main
Default : Нет
Forced : Нет

Аудио #6
Идентификатор : 7
Формат : AC-3
Формат/Информация : Audio Coding 3
Коммерческое название : Dolby Digital
Идентификатор кодека : A_AC3
Продолжительность : 1 ч. 56 м.
Вид битрейта : Постоянный
Битрейт : 448 Кбит/сек
Каналы : 6 каналов
Channel layout : L R C LFE Ls Rs
Частота : 48,0 КГц
Частота кадров : 31,250 кадров/сек (1536 SPF)
Метод сжатия : С потерями
Размер потока : 375 Мбайт (3%)
Заголовок : AVO (Андрей Гаврилов)
Язык : Russian
Service kind : Complete Main
Default : Нет
Forced : Нет

Аудио #7
Идентификатор : 8
Формат : AC-3
Формат/Информация : Audio Coding 3
Коммерческое название : Dolby Digital
Идентификатор кодека : A_AC3
Продолжительность : 1 ч. 56 м.
Вид битрейта : Постоянный
Битрейт : 192 Кбит/сек
Каналы : 2 канала
Channel layout : L R
Частота : 48,0 КГц
Частота кадров : 31,250 кадров/сек (1536 SPF)
Метод сжатия : С потерями
Размер потока : 160 Мбайт (1%)
Заголовок : AVO (Андрей Дольский)
Язык : Russian
Service kind : Complete Main
Default : Нет
Forced : Нет

Аудио #8
Идентификатор : 9
Формат : AC-3
Формат/Информация : Audio Coding 3
Коммерческое название : Dolby Digital
Идентификатор кодека : A_AC3
Продолжительность : 1 ч. 56 м.
Вид битрейта : Постоянный
Битрейт : 192 Кбит/сек
Каналы : 2 канала
Channel layout : L R
Частота : 48,0 КГц
Частота кадров : 31,250 кадров/сек (1536 SPF)
Метод сжатия : С потерями
Размер потока : 160 Мбайт (1%)
Заголовок : AVO (Сергей Визгунов)
Язык : Russian
Service kind : Complete Main
Default : Нет
Forced : Нет

Аудио #9
Идентификатор : 10
Формат : AC-3
Формат/Информация : Audio Coding 3
Коммерческое название : Dolby Digital
Идентификатор кодека : A_AC3
Продолжительность : 1 ч. 56 м.
Вид битрейта : Постоянный
Битрейт : 192 Кбит/сек
Каналы : 2 канала
Channel layout : L R
Частота : 48,0 КГц
Частота кадров : 31,250 кадров/сек (1536 SPF)
Метод сжатия : С потерями
Задержка видео : 16 мс.
Размер потока : 160 Мбайт (1%)
Заголовок : MVO (ICTV)
Язык : Ukrainian
Service kind : Complete Main
Default : Нет
Forced : Нет

Аудио #10
Идентификатор : 11
Формат : AC-3
Формат/Информация : Audio Coding 3
Коммерческое название : Dolby Digital
Идентификатор кодека : A_AC3
Продолжительность : 1 ч. 56 м.
Вид битрейта : Постоянный
Битрейт : 192 Кбит/сек
Каналы : 2 канала
Channel layout : L R
Частота : 48,0 КГц
Частота кадров : 31,250 кадров/сек (1536 SPF)
Метод сжатия : С потерями
Задержка видео : 16 мс.
Размер потока : 160 Мбайт (1%)
Заголовок : DVO (1+1)
Язык : Ukrainian
Service kind : Complete Main
Default : Нет
Forced : Нет

Аудио #11
Идентификатор : 12
Формат : AC-3
Формат/Информация : Audio Coding 3
Коммерческое название : Dolby Digital
Идентификатор кодека : A_AC3
Продолжительность : 1 ч. 56 м.
Вид битрейта : Постоянный
Битрейт : 640 Кбит/сек
Каналы : 6 каналов
Channel layout : L R C LFE Ls Rs
Частота : 48,0 КГц
Частота кадров : 31,250 кадров/сек (1536 SPF)
Метод сжатия : С потерями
Размер потока : 535 Мбайт (5%)
Язык : English
Service kind : Complete Main
Default : Нет
Forced : Нет

Текст #1
Идентификатор : 13
Формат : UTF-8
Идентификатор кодека : S_TEXT/UTF8
Идентификатор кодека/Информация : UTF-8 Plain Text
Продолжительность : 1 ч. 48 м.
Битрейт : 52 бит/сек
Частота кадров : 0,125 кадр/сек
Count of elements : 817
Размер потока : 41,9 Кбайт (0%)
Язык : Russian
Default : Нет
Forced : Нет

Текст #2
Идентификатор : 14
Формат : UTF-8
Идентификатор кодека : S_TEXT/UTF8
Идентификатор кодека/Информация : UTF-8 Plain Text
Продолжительность : 1 ч. 48 м.
Битрейт : 27 бит/сек
Частота кадров : 0,133 кадр/сек
Count of elements : 867
Размер потока : 21,9 Кбайт (0%)
Язык : English
Default : Нет
Forced : Нет

Меню
00:00:00.000 : en:Blood Donors / Main Title
00:05:03.136 : en:Bike the Bullet
00:08:45.358 : en:Blood Lines
00:10:58.658 : en:"Detox"
00:17:00.644 : en:Suspicious Activity
00:23:12.891 : en:"Cancer with a Purpose"
00:27:50.377 : en:Healthy Skepticism
00:28:37.090 : en:Dealer Frenzy
00:30:03.885 : en:Leadership Training
00:33:27.630 : en:"the House of Pain"
00:52:03.537 : en:Immunity Challenge
00:55:23.445 : en:Mutant Misery
00:58:13.615 : en:Blood Bath
00:59:13.883 : en:Carrier Autopsy
01:03:29.764 : en:"Keep Your Enemies Closer"
01:08:14.423 : en:Daylight Hunting
01:14:30.257 : en:"Regroup"
01:18:51.727 : en:Collateral Damage
01:22:00.790 : en:Designing Vermin
01:32:09.232 : en:Thirst Quenching
01:38:02.751 : en:Prodigal Son
01:46:24.378 : en:Romantic Sunrise
01:48:28.460 : en:Loose End
01:49:13.964 : en:End Credits
Загрузка...Cкриншот1 Блэйд 2 / Blade II (2002) [NL Transfer] BDRip 1080p [HEVC] 10 bit от OldGamerЗагрузка...Cкриншот2 Блэйд 2 / Blade II (2002) [NL Transfer] BDRip 1080p [HEVC] 10 bit от OldGamerЗагрузка...Cкриншот3 Блэйд 2 / Blade II (2002) [NL Transfer] BDRip 1080p [HEVC] 10 bit от OldGamerЗагрузка...Cкриншот4 Блэйд 2 / Blade II (2002) [NL Transfer] BDRip 1080p [HEVC] 10 bit от OldGamer
3. Блэйд 3: Троица / Blade: Trinity (2004) [NL Transfer | Theatrical Version] BDRip 1080p [HEVC] 10 bit от OldGamer
Обложка Блэйд 3: Троица / Blade: Trinity (2004) [NL Transfer | Theatrical Version] BDRip 1080p [HEVC] 10 bit от OldGamer
HEVC
10 bit
✂︎Сэмпл
Год: 2004
Страна: США
Студия: Amen Ra Films, Millennium Films, New Line Cinema, Shawn Danielle Productions Ltd.
Жанр: Ужасы, Фантастика, Фэнтези, Боевик
Длительность: 01:52:55

Режиссер: Дэвид С. Гойер
В ролях: Уэсли Снайпс, Крис Кристофферсон, Доминик Пёрселл, Джессика Бил, Райан Рейнольдс, Паркер Поузи, Марк Берри, Джон Майкл Хиггинс, Каллум Кит Ренни, Пол Левески

Описание: Ужасные события могут привести к захвату власти в мире вампирами. Блэйд - единственный, кто может предотвратить страшные перемены и воспрепятствовать превращению мира в планету вампиров. Стремясь помешать Блэйду, группа могущественных вампиров во главе с Даникой Талос натравливают на него людей. Полиция начинает охоту на того, кого теперь все считают чудовищем.


Исходник: Blu-Ray Remux 1080p (rutracker)
Видео: 1920x816, 7789 Kbps
Аудио1: AC3, 6 ch, 384 Kbps - РусскийРусский, DUB
Аудио2: AC3, 2 ch, 192 Kbps - РусскийРусский, MVO (Россия)
Аудио3: AC3, 6 ch, 384 Kbps - РусскийРусский, DVO (Пётр Гланц и Инна Королёва) + вставка VO (Владислав Галинский 01:42:23-01:44:11)
Аудио4: AC3, 6 ch, 384 Kbps - РусскийРусский, AVO (Сергей Визгунов)
Аудио5: AC3, 2 ch, 192 Kbps - УкраинскийУкраинский, MVO (ICTV)
Аудио6: AC3, 6 ch, 640 Kbps - АнглийскийАнглийский
Субтитры: русские, английские

Как за несколько секунд удалить ненужные аудиодорожки и субтитры (Внимание! После удаления вы не сможете поддержать раздачу)


Лог (x265 info)x265 [info]: frame I: 682, Avg QP:15.88 kb/s: 16592.55
x265 [info]: frame P: 37078, Avg QP:17.74 kb/s: 13254.08
x265 [info]: frame B: 124697, Avg QP:19.47 kb/s: 6114.49
x265 [info]: Weighted P-Frames: Y:8.5% UV:6.3%
x265 [info]: Weighted B-Frames: Y:9.7% UV:6.8%
x265 [info]: consecutive B-frames: 8.3% 8.7% 11.6% 29.4% 10.3% 25.4% 3.0% 2.2% 0.5% 0.2% 0.2%
x265 [info]: encoded 162457 frames in 115627.58s (1.41 fps), 7787.97 kb/s, Avg QP:19.06
МедиаинфоОбщее
Уникальный идентификатор : 30779128391211179545577152380592209432 (0x1727D8315A8A59462406502A533C3E18)
Полное имя : \\.\03.Блэйд.3.Троица.Blade.Trinity.2004.NL.Transfer.Theatrical.Version.BDRip-HEVC.1080p.mkv
Формат : Matroska
Версия формата : Version 4
Размер файла : 7,86 Гбайт
Продолжительность : 1 ч. 52 м.
Общий поток : 9 968 Кбит/сек
Частота кадров : 23,976 кадра/сек
Название фильма : Блэйд 3: Троица / Блэйд 3: Троица
Кодирование произвёл : OldGamer
Тип содержимого : Movie
Дата выпуска : 2004-12-08
Дата записи : 2004-12-08
Программа кодирования : mkvmerge v82.0 ('I'm The President') 64-bit
Библиотека кодирования : libebml v1.4.5 + libmatroska v1.7.1 / xvid4psp5
Обложка : Yes
Attachments : cover.jpg
ACTOR : Wesley Snipes, Jessica Biel, Ryan Reynolds, Kris Kristofferson, Dominic Purcell, Parker Posey, Natasha Lyonne, James Remar, John Michael Higgins, Patton Oswalt, Callum Keith Rennie, Paul Michael Lévesque, Françoise Yip, Mark Berry, Paul Anthony, Mich...
ARTIST : Wesley Snipes, Jessica Biel, Ryan Reynolds, Kris Kristofferson, Dominic Purcell, Parker Posey, Natasha Lyonne, James Remar, John Michael Higgins, Patton Oswalt, Callum Keith Rennie, Paul Michael Lévesque, Françoise Yip, Mark Berry, Paul Anthony, Mich...
DIRECTOR : David S. Goyer
GENRE : боевик, ужасы, фэнтези
LAW_RATING : R
PRODUCER : David S. Goyer, Lynn Harris, Peter Frankfurt, Wesley Snipes
PRODUCTION_STUDIO : Peter Frankfurt Productions
RATING : R
SYNOPSIS : Фатальные события могут привести к захвату власти в мире вампирами, объявившими войну Блэйду (Уэсли Снайпс). Их вернувшийся мессия Дракула разворачивает широкую успешную кампанию по дискредитации Блэйда, который становится для людей врагом номер один. Беглец, отверженный людьми, открывшими на него охоту, Блэйд находит неожиданную помощь в лице бывшего вампира Короля Ганнибала (Райан Рейнолдс), связанного с группировкой «Ночных охотников».

Видео
Идентификатор : 1
Формат : HEVC
Формат/Информация : High Efficiency Video Coding
Профиль формата : Main 10@L4.1@High
Идентификатор кодека : V_MPEGH/ISO/HEVC
Продолжительность : 1 ч. 52 м.
Битрейт : 7 789 Кбит/сек
Ширина : 1 920 пикселей
Высота : 816 пикселей
Соотношение сторон : 2,35:1
Режим частоты кадров : Постоянный
Частота кадров : 23,976 (24000/1001) кадра/сек
Цветовое пространство : YUV
Субдискретизация насыщенности : 4:2:0
Битовая глубина : 10 бит
Бит/(Пиксели*Кадры) : 0.207
Размер потока : 6,14 Гбайт (78%)
Заголовок : Blade: Trinity / Rip by OldGamer
Библиотека кодирования : x265 3.5+9-bf91444e0:[Windows][GCC 10.2.1][64 bit] 10bit
Настройки программы : cpuid=1111039 / frame-threads=3 / numa-pools=8 / wpp / no-pmode / no-pme / no-psnr / no-ssim / log-level=2 / input-csp=1 / input-res=1920x816 / interlace=0 / total-frames=162457 / level-idc=41 / high-tier=1 / uhd-bd=0 / ref=5 / no-allow-non-conformance / no-repeat-headers / annexb / no-aud / no-eob / no-eos / no-hrd / info / hash=0 / no-temporal-layers / open-gop / min-keyint=23 / keyint=240 / gop-lookahead=0 / bframes=10 / b-adapt=2 / b-pyramid / bframe-bias=0 / rc-lookahead=40 / lookahead-slices=0 / scenecut=40 / hist-scenecut=0 / radl=0 / no-splice / no-intra-refresh / ctu=32 / min-cu-size=8 / rect / amp / max-tu-size=32 / tu-inter-depth=4 / tu-intra-depth=4 / limit-tu=1 / rdoq-level=2 / dynamic-rd=0.00 / no-ssim-rd / signhide / no-tskip / nr-intra=0 / nr-inter=0 / no-constrained-intra / no-strong-intra-smoothing / max-merge=5 / limit-refs=3 / no-limit-modes / me=3 / subme=7 / merange=57 / temporal-mvp / no-frame-dup / no-hme / weightp / weightb / no-analyze-src-pics / deblock=-2:-2 / no-sao / no-sao-non-deblock / rd=6 / selective-sao=0 / no-early-skip / no-rskip / no-fast-intra / no-tskip-fast / no-cu-lossless / b-intra / no-splitrd-skip / rdpenalty=0 / psy-rd=2.00 / psy-rdoq=1.00 / no-rd-refine / no-lossless / cbqpoffs=0 / crqpoffs=0 / rc=crf / crf=20.0 / qcomp=0.78 / qpstep=4 / stats-write=0 / stats-read=0 / vbv-maxrate=50000 / vbv-bufsize=50000 / vbv-init=0.9 / min-vbv-fullness=50.0 / max-vbv-fullness=80.0 / crf-max=0.0 / crf-min=0.0 / ipratio=1.40 / pbratio=1.30 / aq-mode=3 / aq-strength=1.00 / no-cutree / zone-count=1 / zones: / start-frame=153270 / end-frame=162457 / qp=36 / no-strict-cbr / qg-size=32 / no-rc-grain / qpmax=69 / qpmin=0 / no-const-vbv / sar=1 / overscan=0 / videoformat=5 / range=0 / colorprim=2 / transfer=2 / colormatrix=2 / chromaloc=0 / display-window=0 / cll=0,0 / min-luma=0 / max-luma=1023 / log2-max-poc-lsb=8 / vui-timing-info / vui-hrd-info / slices=1 / no-opt-qp-pps / no-opt-ref-list-length-pps / no-multi-pass-opt-rps / scenecut-bias=0.00 / hist-threshold=0.03 / no-opt-cu-delta-qp / no-aq-motion / no-hdr10 / no-hdr10-opt / no-dhdr10-opt / no-idr-recovery-sei / analysis-reuse-level=0 / analysis-save-reuse-level=0 / analysis-load-reuse-level=0 / scale-factor=0 / refine-intra=0 / refine-inter=0 / refine-mv=1 / refine-ctu-distortion=0 / no-limit-sao / ctu-info=0 / no-lowpass-dct / refine-analysis-type=0 / copy-pic=1 / max-ausize-factor=1.0 / no-dynamic-refine / no-single-sei / no-hevc-aq / no-svt / no-field / qp-adaptation-range=1.00 / scenecut-aware-qp=0conformance-window-offsets / right=0 / bottom=0 / decoder-max-rate=0 / no-vbv-live-multi-pass
Язык : English
Default : Да
Forced : Нет

Аудио #1
Идентификатор : 2
ID in the original source medium : 4352 (0x1100)
Формат : AC-3
Формат/Информация : Audio Coding 3
Коммерческое название : Dolby Digital
Идентификатор кодека : A_AC3
Продолжительность : 1 ч. 52 м.
Вид битрейта : Постоянный
Битрейт : 384 Кбит/сек
Каналы : 6 каналов
Channel layout : L R C LFE Ls Rs
Частота : 48,0 КГц
Частота кадров : 31,250 кадров/сек (1536 SPF)
Метод сжатия : С потерями
Задержка видео : 250 мс.
Размер потока : 310 Мбайт (4%)
Заголовок : DUB
Язык : Russian
Service kind : Complete Main
Default : Да
Forced : Нет
Носитель оригинала : Blu-ray

Аудио #2
Идентификатор : 3
Формат : AC-3
Формат/Информация : Audio Coding 3
Коммерческое название : Dolby Digital
Идентификатор кодека : A_AC3
Продолжительность : 1 ч. 52 м.
Вид битрейта : Постоянный
Битрейт : 192 Кбит/сек
Каналы : 2 канала
Channel layout : L R
Частота : 48,0 КГц
Частота кадров : 31,250 кадров/сек (1536 SPF)
Метод сжатия : С потерями
Размер потока : 155 Мбайт (2%)
Заголовок : MVO (Россия)
Язык : Russian
Service kind : Complete Main
Default : Нет
Forced : Нет

Аудио #3
Идентификатор : 4
Формат : AC-3
Формат/Информация : Audio Coding 3
Коммерческое название : Dolby Digital
Идентификатор кодека : A_AC3
Продолжительность : 1 ч. 52 м.
Вид битрейта : Постоянный
Битрейт : 384 Кбит/сек
Каналы : 6 каналов
Channel layout : L R C LFE Ls Rs
Частота : 48,0 КГц
Частота кадров : 31,250 кадров/сек (1536 SPF)
Метод сжатия : С потерями
Размер потока : 310 Мбайт (4%)
Заголовок : DVO (Пётр Гланц и Инна Королёва) + вставка VO (Владислав Галинский 01:42:23-01:44:11)
Язык : Russian
Service kind : Complete Main
Default : Нет
Forced : Нет

Аудио #4
Идентификатор : 5
Формат : AC-3
Формат/Информация : Audio Coding 3
Коммерческое название : Dolby Digital
Идентификатор кодека : A_AC3
Продолжительность : 1 ч. 52 м.
Вид битрейта : Постоянный
Битрейт : 384 Кбит/сек
Каналы : 6 каналов
Channel layout : L R C LFE Ls Rs
Частота : 48,0 КГц
Частота кадров : 31,250 кадров/сек (1536 SPF)
Метод сжатия : С потерями
Размер потока : 310 Мбайт (4%)
Заголовок : AVO (Сергей Визгунов)
Язык : Russian
Service kind : Complete Main
Default : Нет
Forced : Нет

Аудио #5
Идентификатор : 6
Формат : AC-3
Формат/Информация : Audio Coding 3
Коммерческое название : Dolby Digital
Идентификатор кодека : A_AC3
Продолжительность : 1 ч. 52 м.
Вид битрейта : Постоянный
Битрейт : 192 Кбит/сек
Каналы : 2 канала
Channel layout : L R
Частота : 48,0 КГц
Частота кадров : 31,250 кадров/сек (1536 SPF)
Метод сжатия : С потерями
Размер потока : 155 Мбайт (2%)
Заголовок : MVO (ICTV)
Язык : Ukrainian
Service kind : Complete Main
Default : Нет
Forced : Нет

Аудио #6
Идентификатор : 7
Формат : AC-3
Формат/Информация : Audio Coding 3
Коммерческое название : Dolby Digital
Идентификатор кодека : A_AC3
Продолжительность : 1 ч. 52 м.
Вид битрейта : Постоянный
Битрейт : 640 Кбит/сек
Каналы : 6 каналов
Channel layout : L R C LFE Ls Rs
Частота : 48,0 КГц
Частота кадров : 31,250 кадров/сек (1536 SPF)
Метод сжатия : С потерями
Размер потока : 517 Мбайт (6%)
Язык : English
Service kind : Complete Main
Default : Нет
Forced : Нет

Текст #1
Идентификатор : 8
Формат : UTF-8
Идентификатор кодека : S_TEXT/UTF8
Идентификатор кодека/Информация : UTF-8 Plain Text
Продолжительность : 1 ч. 52 м.
Битрейт : 57 бит/сек
Частота кадров : 0,127 кадр/сек
Count of elements : 857
Размер потока : 47,1 Кбайт (0%)
Язык : Russian
Default : Нет
Forced : Нет

Текст #2
Идентификатор : 9
Формат : UTF-8
Идентификатор кодека : S_TEXT/UTF8
Идентификатор кодека/Информация : UTF-8 Plain Text
Продолжительность : 1 ч. 43 м.
Битрейт : 34 бит/сек
Частота кадров : 0,153 кадр/сек
Count of elements : 954
Размер потока : 26,5 Кбайт (0%)
Язык : English
Default : Нет
Forced : Нет

Меню
00:00:00.000 : en:Syrian Desert
00:06:47.407 : en:Main Titles/Human
00:12:59.361 : en:New Junter
00:17:16.076 : en:Losing the War
00:18:48.418 : en:Abigail
00:22:48.283 : en:Shoot to Kill
00:27:05.623 : en:Dr Vance
00:34:22.894 : en:A Rescue
00:41:07.673 : en:The Nightstalkers
00:45:40.904 : en:Dracula
00:50:55.886 : en:Daystar
00:54:10.747 : en:Hunting
00:58:08.026 : en:It's Drake
01:08:05.164 : en:The Final Solution
01:17:54.711 : en:Use It
01:21:59.915 : en:Target Practice
01:28:32.056 : en:Friends Are Coming
01:33:30.229 : en:The Fat Lady Sings
01:41:31.710 : en:Drake vs Blade
01:46:13.158 : en:Thirst Always Wins
01:50:45.013 : en:The War Never Ends
01:53:51.991 : en:End Credits
Загрузка...Cкриншот1 Блэйд 3: Троица / Blade: Trinity (2004) [NL Transfer | Theatrical Version] BDRip 1080p [HEVC] 10 bit от OldGamerЗагрузка...Cкриншот2 Блэйд 3: Троица / Blade: Trinity (2004) [NL Transfer | Theatrical Version] BDRip 1080p [HEVC] 10 bit от OldGamerЗагрузка...Cкриншот3 Блэйд 3: Троица / Blade: Trinity (2004) [NL Transfer | Theatrical Version] BDRip 1080p [HEVC] 10 bit от OldGamerЗагрузка...Cкриншот4 Блэйд 3: Троица / Blade: Trinity (2004) [NL Transfer | Theatrical Version] BDRip 1080p [HEVC] 10 bit от OldGamer

История обновленийВидеоряд без изменений. Добавлены переводы (список в комментарии к раздаче).
Поблагодарили: 31alexyak, AMKaliostro, and50, AndresUA, Antilord90, BalU, Brooklyn, Elico1977, ExoticDeer, FijiMAX, Giggalo, GIS88, han-nik, ilyich05, Kiran, makss333, matyashev, maximka, medved2018, MIGRANT, Niflung, Nuclear70, qq, Rexfire, SergKote, serg_98, sharkey71, StarLord, torrentzulu, z1M4p9i0, Странник
Файлы: 3
  • Blade
    • 13.12 ГБ01.Блэйд.Blade.1998.NL.Transfer.BDRip-HEVC.1080p.mkv
    • 11.37 ГБ02.Блэйд.2.Blade.II.2002.NL.Transfer.BDRip-HEVC.1080p.mkv
    • 7.86 ГБ03.Блэйд.3.Троица.Blade.Trinity.2004.NL.Transfer.Theatrical.Version.BDRip-HEVC.1080p.mkv

Рейтинги КП и IMDB, кнопки "Раздайте, пожалуйста" и "Спасибо", а также мультитрекерная статистика доступны только зарегистрированным/авторизованным пользователям!

OldGamer
1042111(3) 32.35 ГБ

💬︎ Комментарии

Добавление комментариев доступно только зарегистрированным/авторизованным пользователям.

Всего: 1
Аватар OldGamer
OldGamer
01. Добавлены переводы: ОРТ, SDI Media / TV1000, РЕН ТВ, неизвестная одноголоска
02. Добавлены переводы: НТВ, Андрей Гаврилов, Андрей Дольский, Сергей Визгунов
03. Добавлены переводы: Россия, Пётр Гланц и Инна Королёва, Сергей Визгунов
В третьем фильме дорожки Гланца/Королёвой и Визгунова с выделением и наложением голосов выполнил Данис Нурмухаметов.