💬 Мини-чат

OldGamerНасколько я помню, даже мой первый стик 2014 года тянул hevc, хотя и подтупливал на перемотке
OldGamerВыбирайте по цене и отзывам.
OldGamerСообщение удалено (удалил: OldGamer)
OldGamerЛюбой, всё что выпускалось за последние 3 года, вполне тянет hevc. Чуть раньше в чате ссылку давал на обсуждения на 4пда.
SAHA55Подскажите,пожалуйста какой купить медио плеер для просмотра видео в HEVC x265 с переносного жёсткого на 1 Тб. TV старый Panasonic
  • A1eksandr1
  • Blaster
  • nazarpavluwun
Отправка сообщений доступна только зарегистрированным/авторизованным пользователям.
Онлайн (за 10 мин.): 3

Механик / The Mechanic (2011) [US Transfer] BDRip 1080p [HEVC] 10 bit от Spartanec1308

HEVC
10 bit
Обложка Механик / The Mechanic (2011) [US Transfer] BDRip 1080p [HEVC] 10 bit от Spartanec1308 Год: 2011
Страна: США
Студия: Millennium Films, Nu Image Entertainment GmbH
Жанр: Боевик, Триллер, Криминал
Продолжительность: 01:32:44

Режиссер: Саймон Уэст
В ролях: Джейсон Стэтхэм, Бен Фостер, Тони Голдуин, Дональд Сазерленд, Джефф Чейз, Мини Анден, Джеймс Логан, Эдди Дж. Фернандез, Джошуа Бриджуотер, Джон МакКоннелл, Криста Кэмпбелл

Описание: Артур Бишоп — «Механик», высокопрофессиональный безукоризненный киллер, который всегда работает по правилам — «чисто» и без следов. Такая работа требует полного самообладания и беспристрастности, и в своём деле ему нет равных. Бишоп всегда работал один, но ему пришлось стать наставником молодого и отчаянного Стива. Методичный профессионал и импульсивный ученик теперь на пару «устраняют проблемы», но рано или поздно они сойдутся в смертельной схватке…


Видео: 1920x800, 9724 Кбит/сек, 0.264 бит/(Пиксели*Кадры), 23,976 кадр/сек, HEVC (Main10@L.4.1@High) 10 бит
Аудио1: AC3, 6 ch, 640 Kbps - РусскийРусский, Дублированный ("Пифагор")
Аудио2: AC3, 6 ch, 448 Kbps - РусскийРусский, Одноголосый (Андрей Гаврилов)
Аудио3: AC3, 6 ch, 640 Kbps - АнглийскийАнглийский, Оригинал
Субтитры: Русские , английские

Как за пару секунд удалить ненужные аудиодорожки и субтитры (Внимание! После удаления вы не сможете поддержать раздачу)

Лог (x265 info)
x265 [info]: frame I: 1708, Avg QP:17.26 kb/s: 31351.13
x265 [info]: frame P: 26306, Avg QP:18.70 kb/s: 18034.67
x265 [info]: frame B: 105402, Avg QP:21.16 kb/s: 7298.13
x265 [info]: Weighted P-Frames: Y:5.5% UV:4.3%
x265 [info]: Weighted B-Frames: Y:5.0% UV:3.3%
x265 [info]: consecutive B-frames: 10.2% 4.3% 7.8% 28.9% 7.9% 22.9% 5.3% 11.2% 0.6% 0.4% 0.1% 0.2% 0.1%

encoded 133416 frames in 174816.94s (0.76 fps), 9723.01 kb/s, Avg QP:20.63
Медиаинфо
Формат : Matroska
Версия формата : Version 4
Размер файла : 7,42 Гбайт
Продолжительность : 1 ч. 32 м.
Общий поток : 11,5 Мбит/сек
Название фильма : by Spartanec
Дата кодирования : UTC 2021-08-27 08:26:14
Программа кодирования : mkvmerge v7.0.0 ('Where We Going') 64bit built on Jun 9 2014 15:16:27
Библиотека кодирования : libebml v1.3.0 + libmatroska v1.4.1
Обложка : Yes
Attachments : cover.jpg

Видео
Идентификатор : 1
Формат : HEVC
Формат/Информация : High Efficiency Video Coding
Профиль формата : Main 10@L4.1@High
Идентификатор кодека : V_MPEGH/ISO/HEVC
Продолжительность : 1 ч. 32 м.
Битрейт : 9724 Кбит/сек
Ширина : 1920 пикселей
Высота : 800 пикселей
Соотношение сторон : 2,40:1
Режим частоты кадров : Постоянный
Частота кадров : 23,976 (23976/1000) кадра/сек
Частота кадров в оригинале : 23,976 (24000/1001) кадра/сек
Цветовое пространство : YUV
Субдискретизация насыщенности : 4:2:0
Битовая глубина : 10 бит
Бит/(Пиксели*Кадры) : 0.264
Размер потока : 6,30 Гбайт (85%)
Заголовок : Spartanec
Библиотека кодирования : x265 3.5+10-82786fccc:[Windows][GCC 11.1.0][64 bit] 10bit
Настройки программы : cpuid=1111039 / frame-threads=4 / numa-pools=16 / wpp / no-pmode / no-pme / no-psnr / no-ssim / log-level=2 / input-csp=1 / input-res=1920x800 / interlace=0 / total-frames=133416 / level-idc=41 / high-tier=1 / uhd-bd=0 / ref=5 / no-allow-non-conformance / no-repeat-headers / annexb / no-aud / no-eob / no-eos / no-hrd / info / hash=0 / no-temporal-layers / open-gop / min-keyint=23 / keyint=240 / gop-lookahead=0 / bframes=12 / b-adapt=2 / b-pyramid / bframe-bias=0 / rc-lookahead=60 / lookahead-slices=1 / scenecut=40 / hist-scenecut=0 / radl=0 / no-splice / no-intra-refresh / ctu=32 / min-cu-size=8 / rect / amp / max-tu-size=32 / tu-inter-depth=4 / tu-intra-depth=4 / limit-tu=1 / rdoq-level=1 / dynamic-rd=0.00 / no-ssim-rd / signhide / no-tskip / nr-intra=0 / nr-inter=0 / no-constrained-intra / no-strong-intra-smoothing / max-merge=5 / limit-refs=0 / no-limit-modes / me=3 / subme=7 / merange=57 / temporal-mvp / no-frame-dup / no-hme / weightp / weightb / no-analyze-src-pics / deblock=-2:-2 / no-sao / no-sao-non-deblock / rd=6 / selective-sao=0 / no-early-skip / no-rskip / no-fast-intra / no-tskip-fast / no-cu-lossless / b-intra / no-splitrd-skip / rdpenalty=0 / psy-rd=2.00 / psy-rdoq=1.00 / no-rd-refine / no-lossless / cbqpoffs=0 / crqpoffs=0 / rc=crf / crf=20.0 / qcomp=0.70 / qpstep=4 / stats-write=0 / stats-read=0 / vbv-maxrate=50000 / vbv-bufsize=50000 / vbv-init=0.9 / min-vbv-fullness=50.0 / max-vbv-fullness=80.0 / crf-max=0.0 / crf-min=0.0 / ipratio=1.40 / pbratio=1.30 / aq-mode=2 / aq-strength=1.00 / no-cutree / zone-count=0 / no-strict-cbr / qg-size=32 / no-rc-grain / qpmax=69 / qpmin=0 / no-const-vbv / sar=1 / overscan=0 / videoformat=5 / range=0 / colorprim=1 / transfer=1 / colormatrix=1 / chromaloc=0 / display-window=0 / cll=0,0 / min-luma=0 / max-luma=1023 / log2-max-poc-lsb=8 / vui-timing-info / vui-hrd-info / slices=1 / no-opt-qp-pps / no-opt-ref-list-length-pps / no-multi-pass-opt-rps / scenecut-bias=0.05 / hist-threshold=0.03 / no-opt-cu-delta-qp / no-aq-motion / no-hdr10 / no-hdr10-opt / no-dhdr10-opt / no-idr-recovery-sei / analysis-reuse-level=0 / analysis-save-reuse-level=0 / analysis-load-reuse-level=0 / scale-factor=0 / refine-intra=0 / refine-inter=0 / refine-mv=0 / refine-ctu-distortion=0 / no-limit-sao / ctu-info=0 / no-lowpass-dct / refine-analysis-type=0 / copy-pic=1 / max-ausize-factor=1.0 / no-dynamic-refine / no-single-sei / no-hevc-aq / no-svt / no-field / qp-adaptation-range=1.00 / scenecut-aware-qp=0conformance-window-offsets / right=0 / bottom=0 / decoder-max-rate=0 / no-vbv-live-multi-pass
Default : Да
Forced : Нет
Цветовой диапазон : Limited
Основные цвета : BT.709
Характеристики трансфера : BT.709
Коэффициенты матрицы : BT.709

Аудио #1
Идентификатор : 2
Формат : AC-3
Формат/Информация : Audio Coding 3
Коммерческое название : Dolby Digital
Идентификатор кодека : A_AC3
Продолжительность : 1 ч. 32 м.
Вид битрейта : Постоянный
Битрейт : 640 Кбит/сек
Каналы : 6 каналов
ChannelLayout : L R C LFE Ls Rs
Частота : 48,0 КГц
Частота кадров : 31,250 кадров/сек (1536 SPF)
Битовая глубина : 16 бит
Метод сжатия : С потерями
Размер потока : 425 Мбайт (6%)
Заголовок : Дубляж
ServiceKind/ : Complete Main
Default : Да
Forced : Нет

Аудио #2
Идентификатор : 3
Формат : AC-3
Формат/Информация : Audio Coding 3
Коммерческое название : Dolby Digital
Идентификатор кодека : A_AC3
Продолжительность : 1 ч. 32 м.
Вид битрейта : Постоянный
Битрейт : 448 Кбит/сек
Каналы : 6 каналов
ChannelLayout : L R C LFE Ls Rs
Частота : 48,0 КГц
Частота кадров : 31,250 кадров/сек (1536 SPF)
Битовая глубина : 16 бит
Метод сжатия : С потерями
Размер потока : 297 Мбайт (4%)
Заголовок : Авторский А.Гаврилов
ServiceKind/ : Complete Main
Default : Нет
Forced : Нет

Аудио #3
Идентификатор : 4
Формат : AC-3
Формат/Информация : Audio Coding 3
Коммерческое название : Dolby Digital
Идентификатор кодека : A_AC3
Продолжительность : 1 ч. 32 м.
Вид битрейта : Постоянный
Битрейт : 640 Кбит/сек
Каналы : 6 каналов
ChannelLayout : L R C LFE Ls Rs
Частота : 48,0 КГц
Частота кадров : 31,250 кадров/сек (1536 SPF)
Битовая глубина : 16 бит
Метод сжатия : С потерями
Размер потока : 425 Мбайт (6%)
Заголовок : Оригинал
ServiceKind/ : Complete Main
Default : Нет
Forced : Нет

Текст #1
Идентификатор : 5
Формат : UTF-8
Идентификатор кодека : S_TEXT/UTF8
Идентификатор кодека/Информация : UTF-8 Plain Text
Продолжительность : 1 ч. 19 м.
Битрейт : 59 бит/сек
ElementCount : 576
Размер потока : 34,6 Кбайт (0%)
Default : Да
Forced : Нет

Текст #2
Идентификатор : 6
Формат : UTF-8
Идентификатор кодека : S_TEXT/UTF8
Идентификатор кодека/Информация : UTF-8 Plain Text
Продолжительность : 1 ч. 19 м.
Битрейт : 39 бит/сек
ElementCount : 699
Размер потока : 23,3 Кбайт (0%)
Default : Нет
Forced : Нет

Меню
00:00:00.000 : :00:00:00.000
00:07:03.464 : :00:07:03.464
00:12:50.936 : :00:12:50.936
00:17:09.403 : :00:17:09.403
00:22:30.140 : :00:22:30.140
00:31:38.938 : :00:31:38.938
00:36:59.967 : :00:36:59.967
00:39:56.018 : :00:39:56.018
00:48:35.537 : :00:48:35.537
00:54:08.828 : :00:54:08.828
01:03:33.392 : :01:03:33.392
01:07:18.993 : :01:07:18.993
01:12:54.953 : :01:12:54.953
01:16:58.530 : :01:16:58.530
01:19:37.022 : :01:19:37.022
01:23:10.986 : :01:23:10.986
Загрузка...Cкриншот1 Механик / The Mechanic (2011) [US Transfer] BDRip 1080p [HEVC] 10 bit от Spartanec1308Загрузка...Cкриншот2 Механик / The Mechanic (2011) [US Transfer] BDRip 1080p [HEVC] 10 bit от Spartanec1308Загрузка...Cкриншот3 Механик / The Mechanic (2011) [US Transfer] BDRip 1080p [HEVC] 10 bit от Spartanec1308Загрузка...Cкриншот4 Механик / The Mechanic (2011) [US Transfer] BDRip 1080p [HEVC] 10 bit от Spartanec1308
Сэмпл Торрент🧲 Магнет

Рейтинги КП и IMDB, кнопки "Позвать в чате" и "Спасибо", а также мультитрекерная статистика доступны только зарегистрированным/авторизованным пользователям!

Файлы: 1
  • Механик (2011) BDRip 1080p [HEVC] 10bit by Spartanec.mkv   7.42 ГБ
Поблагодарили: 12
and50, Andrey_alex, D16T, diesel0000, donadar, GIS88, Kiran, Nuclear70, OldGamer, Rezident, sharkey71, StarLord
Spartanec1308
048207.42 ГБ

Добавление нового комментария

Добавление комментариев доступно только зарегистрированным/авторизованным пользователям.