💬 Мини-чат

OldGamerНасколько я помню, даже мой первый стик 2014 года тянул hevc, хотя и подтупливал на перемотке
OldGamerВыбирайте по цене и отзывам.
OldGamerСообщение удалено (удалил: OldGamer)
OldGamerЛюбой, всё что выпускалось за последние 3 года, вполне тянет hevc. Чуть раньше в чате ссылку давал на обсуждения на 4пда.
SAHA55Подскажите,пожалуйста какой купить медио плеер для просмотра видео в HEVC x265 с переносного жёсткого на 1 Тб. TV старый Panasonic
  • A1eksandr1
  • Blaster
  • pusia
Отправка сообщений доступна только зарегистрированным/авторизованным пользователям.
Онлайн (за 10 мин.): 3

Агент 117 / OSS 117: Le Caire, nid d'espions (2006) [GER Transfer] BDRip 1080p [HEVC] 10 bit от OldGamer (RG RIPS CLUB)

HEVC
10 bit
Обложка Агент 117 / OSS 117: Le Caire, nid d'espions (2006) [GER Transfer] BDRip 1080p [HEVC] 10 bit от OldGamer (RG RIPS CLUB) Год: 2006
Страна: Франция
Студия: Artémis, Belga Films, Canal+ [fr], Ciné Cinémas, Gaumont, M6 Films, Mandarin Films
Жанр: Боевик, Комедия, Криминал, Приключения
Продолжительность: 01:39:02

Режиссер: Мишель Хазанавичус
В ролях: Жан Дюжарден, Франсуа Дамиенс, Халид Маадур, Юсеф Хамид, Арсен Моска, Константин Александров, Клод Броссе, Лоран Бато, Саид Амади, Эрик Пра

Описание: Египет, 1955-й год. Каир буквально переполнен шпионами всех мастей. Никто никому не доверяет, все плетут интриги: англичане, французы, русские, семья свергнутого короля Фарука, мечтающего вновь взобраться на трон, и «Орлы Хеопса» – религиозная секта, которая рвётся к власти… Чтобы удержать ситуацию под контролем и навести порядок, президент Французской республики Рене Коти посылает туда своего лучшего сотрудника – Юбера Бониссёра де ля Бат, известного как агент 117.


Исходник: Blu-Ray Remux 1080p
Видео: 1920x818 (2.35:1), 6682 Кбит/сек, HEVC (Main10@L.4.1@High)
Аудио1: AC3, 6 ch, 448 Kbps - РусскийРусский, DUB
Аудио2: AC3, 6 ch, 640 Kbps - FrenchFrench
Субтитры: Русские полные (SRT), French forced and full (SRT)

Как за пару секунд удалить ненужные аудиодорожки и субтитры (Внимание! После удаления вы не сможете поддержать раздачу)

Лог (x265 info)
x265 [info]: frame I: 597, Avg QP:18.03 kb/s: 18964.92
x265 [info]: frame P: 23010, Avg QP:19.17 kb/s: 13959.59
x265 [info]: frame B: 118869, Avg QP:21.01 kb/s: 5210.91
x265 [info]: Weighted P-Frames: Y:6.5% UV:4.5%
x265 [info]: Weighted B-Frames: Y:6.5% UV:3.7%
x265 [info]: consecutive B-frames: 1.6% 1.5% 3.2% 17.4% 12.2% 33.2% 10.4% 10.5% 4.4% 2.6% 1.0% 1.2% 0.5% 0.4%
x265 [info]: encoded 142476 frames in 101084.46s (1.41 fps), 6681.46 kb/s, Avg QP:20.70
Медиаинфо
Общее
Уникальный идентификатор : 285969970480405391156702905638481615938 (0xD723D01C7798F92BB0F2C50878A0DC42)
Полное имя : \\.\Агент.117.OSS.117.Le.Caire.nid.d'espions.GER.Transfer.2006.BDRip-HEVC.1080p.mkv
Формат : Matroska
Версия формата : Version 4
Размер файла : 5,38 Гбайт
Продолжительность : 1 ч. 39 м.
Общий поток : 7 772 Кбит/сек
Название фильма : Агент.117.OSS.117.Le.Caire.nid.d'espions.GER.Transfer.2006.BDRip-HEVC.1080p
Дата кодирования : UTC 2021-08-30 01:19:06
Программа кодирования : mkvmerge v60.0.0 ('Are We Copies?') 64-bit
Библиотека кодирования : libebml v1.4.2 + libmatroska v1.6.4
Обложка : Yes
Attachments : cover.jpg

Видео
Идентификатор : 1
Формат : HEVC
Формат/Информация : High Efficiency Video Coding
Профиль формата : Main 10@L4.1@High
Идентификатор кодека : V_MPEGH/ISO/HEVC
Продолжительность : 1 ч. 39 м.
Битрейт : 6 682 Кбит/сек
Ширина : 1 920 пикселей
Высота : 818 пикселей
Соотношение сторон : 2,35:1
Режим частоты кадров : Постоянный
Частота кадров : 23,976 (24000/1001) кадра/сек
Цветовое пространство : YUV
Субдискретизация насыщенности : 4:2:0
Битовая глубина : 10 бит
Бит/(Пиксели*Кадры) : 0.177
Размер потока : 4,62 Гбайт (86%)
Заголовок : OSS 117: Le Caire, nid d'espions / Rip by OldGamer
Библиотека кодирования : x265 3.5+13-4c6880de4:[Windows][GCC 11.2.0][64 bit] 10bit
Настройки программы : cpuid=1111039 / frame-threads=3 / numa-pools=8 / wpp / no-pmode / no-pme / no-psnr / no-ssim / log-level=2 / input-csp=1 / input-res=1920x818 / interlace=0 / total-frames=142476 / level-idc=41 / high-tier=1 / uhd-bd=0 / ref=5 / no-allow-non-conformance / no-repeat-headers / annexb / no-aud / no-eob / no-eos / no-hrd / info / hash=0 / no-temporal-layers / open-gop / min-keyint=23 / keyint=240 / gop-lookahead=0 / bframes=13 / b-adapt=2 / b-pyramid / bframe-bias=0 / rc-lookahead=40 / lookahead-slices=0 / scenecut=40 / no-hist-scenecut / radl=0 / no-splice / no-intra-refresh / ctu=32 / min-cu-size=8 / rect / amp / max-tu-size=32 / tu-inter-depth=4 / tu-intra-depth=4 / limit-tu=1 / rdoq-level=2 / dynamic-rd=0.00 / no-ssim-rd / signhide / no-tskip / nr-intra=0 / nr-inter=0 / no-constrained-intra / no-strong-intra-smoothing / max-merge=5 / limit-refs=3 / no-limit-modes / me=3 / subme=7 / merange=57 / temporal-mvp / no-frame-dup / no-hme / weightp / weightb / no-analyze-src-pics / deblock=-3:-3 / no-sao / no-sao-non-deblock / rd=6 / selective-sao=0 / no-early-skip / no-rskip / no-fast-intra / no-tskip-fast / no-cu-lossless / b-intra / no-splitrd-skip / rdpenalty=0 / psy-rd=2.00 / psy-rdoq=1.00 / no-rd-refine / no-lossless / cbqpoffs=0 / crqpoffs=0 / rc=crf / crf=19.8 / qcomp=0.60 / qpstep=4 / stats-write=0 / stats-read=0 / vbv-maxrate=50000 / vbv-bufsize=50000 / vbv-init=0.9 / min-vbv-fullness=50.0 / max-vbv-fullness=80.0 / crf-max=0.0 / crf-min=0.0 / ipratio=1.40 / pbratio=1.30 / aq-mode=1 / aq-strength=1.00 / no-cutree / zone-count=1 / zones: / start-frame=135802 / end-frame=142476 / qp=36 / no-strict-cbr / qg-size=32 / no-rc-grain / qpmax=69 / qpmin=0 / no-const-vbv / sar=1 / overscan=0 / videoformat=5 / range=0 / colorprim=2 / transfer=2 / colormatrix=2 / chromaloc=0 / display-window=0 / cll=0,0 / min-luma=0 / max-luma=1023 / log2-max-poc-lsb=8 / vui-timing-info / vui-hrd-info / slices=1 / no-opt-qp-pps / no-opt-ref-list-length-pps / no-multi-pass-opt-rps / scenecut-bias=0.00 / hist-threshold=0.03 / no-opt-cu-delta-qp / no-aq-motion / no-hdr10 / no-hdr10-opt / no-dhdr10-opt / no-idr-recovery-sei / analysis-reuse-level=0 / analysis-save-reuse-level=0 / analysis-load-reuse-level=0 / scale-factor=0 / refine-intra=0 / refine-inter=0 / refine-mv=1 / refine-ctu-distortion=0 / no-limit-sao / ctu-info=0 / no-lowpass-dct / refine-analysis-type=0 / copy-pic=1 / max-ausize-factor=1.0 / no-dynamic-refine / no-single-sei / no-hevc-aq / no-svt / no-field / qp-adaptation-range=1.00 / scenecut-aware-qp=0conformance-window-offsets / right=0 / bottom=0 / decoder-max-rate=0 / no-vbv-live-multi-pass
Язык : French
Default : Да
Forced : Нет

Аудио #1
Идентификатор : 2
Формат : AC-3
Формат/Информация : Audio Coding 3
Коммерческое название : Dolby Digital
Идентификатор кодека : A_AC3
Продолжительность : 1 ч. 39 м.
Вид битрейта : Постоянный
Битрейт : 448 Кбит/сек
Каналы : 6 каналов
Channel layout : L R C LFE Ls Rs
Частота : 48,0 КГц
Частота кадров : 31,250 кадров/сек (1536 SPF)
Метод сжатия : С потерями
Размер потока : 317 Мбайт (6%)
Заголовок : DUB
Язык : Russian
Service kind : Complete Main
Default : Да
Forced : Нет

Аудио #2
Идентификатор : 3
Формат : AC-3
Формат/Информация : Audio Coding 3
Коммерческое название : Dolby Digital
Идентификатор кодека : A_AC3
Продолжительность : 1 ч. 39 м.
Вид битрейта : Постоянный
Битрейт : 640 Кбит/сек
Каналы : 6 каналов
Channel layout : L R C LFE Ls Rs
Частота : 48,0 КГц
Частота кадров : 31,250 кадров/сек (1536 SPF)
Метод сжатия : С потерями
Размер потока : 453 Мбайт (8%)
Язык : French
Service kind : Complete Main
Default : Нет
Forced : Нет

Текст #1
Идентификатор : 4
Формат : UTF-8
Идентификатор кодека : S_TEXT/UTF8
Идентификатор кодека/Информация : UTF-8 Plain Text
Продолжительность : 1 ч. 32 м.
Битрейт : 92 бит/сек
Count of elements : 1059
Размер потока : 62,5 Кбайт (0%)
Заголовок : full
Язык : Russian
Default : Нет
Forced : Нет

Текст #2
Идентификатор : 5
Формат : UTF-8
Идентификатор кодека : S_TEXT/UTF8
Идентификатор кодека/Информация : UTF-8 Plain Text
Продолжительность : 1 ч. 16 м.
Битрейт : 2 бит/сек
Count of elements : 57
Размер потока : 1,48 Кбайт (0%)
Заголовок : forced
Язык : French
Default : Нет
Forced : Нет

Текст #3
Идентификатор : 6
Формат : UTF-8
Идентификатор кодека : S_TEXT/UTF8
Идентификатор кодека/Информация : UTF-8 Plain Text
Продолжительность : 1 ч. 32 м.
Битрейт : 64 бит/сек
Count of elements : 1090
Размер потока : 43,5 Кбайт (0%)
Заголовок : full
Язык : French
Default : Нет
Forced : Нет

Меню
00:00:00.000 : Chapter 01
00:03:16.446 : Chapter 02
00:04:49.539 : Chapter 03
00:09:55.386 : Chapter 04
00:15:57.998 : Chapter 05
00:20:06.622 : Chapter 06
00:25:45.377 : Chapter 07
00:38:45.406 : Chapter 08
00:45:38.068 : Chapter 09
00:51:22.037 : Chapter 10
00:54:54.207 : Chapter 11
01:04:54.599 : Chapter 12
01:13:10.469 : Chapter 13
01:19:56.666 : Chapter 14
01:24:49.250 : Chapter 15
01:33:21.220 : Chapter 16
Загрузка...Cкриншот1 Агент 117 / OSS 117: Le Caire, nid d'espions (2006) [GER Transfer] BDRip 1080p [HEVC] 10 bit от OldGamer (RG RIPS CLUB)Загрузка...Cкриншот2 Агент 117 / OSS 117: Le Caire, nid d'espions (2006) [GER Transfer] BDRip 1080p [HEVC] 10 bit от OldGamer (RG RIPS CLUB)Загрузка...Cкриншот3 Агент 117 / OSS 117: Le Caire, nid d'espions (2006) [GER Transfer] BDRip 1080p [HEVC] 10 bit от OldGamer (RG RIPS CLUB)Загрузка...Cкриншот4 Агент 117 / OSS 117: Le Caire, nid d'espions (2006) [GER Transfer] BDRip 1080p [HEVC] 10 bit от OldGamer (RG RIPS CLUB)
Релиз-группа: RIPS CLUB
Сэмпл Торрент🧲 Магнет

Рейтинги КП и IMDB, кнопки "Позвать в чате" и "Спасибо", а также мультитрекерная статистика доступны только зарегистрированным/авторизованным пользователям!

Файлы: 1
  • Агент.117.OSS.117.Le.Caire.nid.d'espions.GER.Transfer.2006.BDRip-HEVC.1080p.mkv   5.38 ГБ
Поблагодарили: 8
and50, donadar, Elico1977, ivan_1965, Kilop77, ko1ob, makss333, StarLord
OldGamer
01721535.38 ГБ

Добавление нового комментария

Добавление комментариев доступно только зарегистрированным/авторизованным пользователям.