💬 Мини-чат

OldGamerНасколько я помню, даже мой первый стик 2014 года тянул hevc, хотя и подтупливал на перемотке
OldGamerВыбирайте по цене и отзывам.
OldGamerСообщение удалено (удалил: OldGamer)
OldGamerЛюбой, всё что выпускалось за последние 3 года, вполне тянет hevc. Чуть раньше в чате ссылку давал на обсуждения на 4пда.
SAHA55Подскажите,пожалуйста какой купить медио плеер для просмотра видео в HEVC x265 с переносного жёсткого на 1 Тб. TV старый Panasonic
  • ADVOKAT69
  • Beebo
  • Chestnoc
Отправка сообщений доступна только зарегистрированным/авторизованным пользователям.
Онлайн (за 10 мин.): 3

Заклятие 3: По воле дьявола / The Conjuring: The Devil Made Me Do It (2021) BDRip 1080p [HEVC] 10 bit от -Star-Lord- (RG RIPS CLUB)

HEVC
10 bit
Обложка Заклятие 3: По воле дьявола / The Conjuring: The Devil Made Me Do It (2021) BDRip 1080p [HEVC] 10 bit от -Star-Lord- (RG RIPS CLUB) Год: 2021
Страна: США, Великобритания
Студия: Atomic Monster, New Line Cinema, The Safran Company
Жанр: Ужасы, Детектив
Продолжительность: 01:51:53

Режиссер: Майкл Чавес
В ролях: Вера Фармига, Патрик Уилсон, Джулиан Хиллиард, Шарлин Амойа, Стерлинг Джеринс, Эжени Бондюран, Ингрид Бису, Руайри О'Коннор, Линдсей Эйлифф, Шэннон Кук-Чан, Ронни Джин Блевинс, Стив Култер, Джеймс Уильям Баллард, Эшли ЛеКонте-Кэмпбелл, Кэйт Артур Болден, Марк Роу

Описание: 18 июля 1981 года Эд и Лоррейн Уоррены присутствовали при проведении экзорцизма над маленьким Дэвидом Глатцелом. Священник и семья мальчика безуспешно пытались изгнать злобную сущность, Эд заработал сердечный приступ, и тогда Арни — парень старшей сестры Дэвида — предложил демону свою душу. Некоторое время спустя Арни убивает своего домовладельца и после говорит, что не помнит произошедшего. Впервые в истории США подозреваемый в убийстве заявлет, что был одержим демоном, и теперь судьба парня зависит от того, смогут ли Уоррены найти этому доказательства.


Видео: 1920x804, ~5850 Кбит/сек
Аудио1: E-AC3, 6 ch, 448 Kbps - РусскийРусский, Дублированный (Пифагор)
Аудио2: AC3, 6 ch, 448 Kbps - РусскийРусский, Профессиональный многоголосый закадровый (HDRezka Studio)
Аудио3: AC3, 6 ch, 448 Kbps - РусскийРусский, Любительский двухголосый закадровый (Pazl Voice)
Аудио4: AC3, 6 ch, 384 Kbps - УкраинскийУкраинский, Дублированный (iTunes)
Аудио5: AC3, 6 ch, 384 Kbps - УкраинскийУкраинский, Профессиональный многоголосый закадровый (HDRezka)
Аудио6: AC3, 6 ch, 640 Kbps - АнглийскийАнглийский, Оригинал
Субтитры: русские (форс. х2, полные х3), украинские (форс.), английские (полные, SDH)

Как за пару секунд удалить ненужные аудиодорожки и субтитры (Внимание! После удаления вы не сможете поддержать раздачу)

Лог (x265 info)
x265 [info]: frame I: 1530, Avg QP:15.39 kb/s: 17420.93
x265 [info]: frame P: 26480, Avg QP:16.94 kb/s: 11895.35
x265 [info]: frame B: 132944, Avg QP:19.42 kb/s: 4512.37
x265 [info]: Weighted P-Frames: Y:12.6% UV:10.0%
x265 [info]: Weighted B-Frames: Y:12.0% UV:8.8%
x265 [info]: consecutive B-frames: 8.7% 3.3% 8.5% 21.5% 6.6% 12.7% 4.3% 24.7% 1.8% 1.5% 0.6% 4.4% 0.2% 0.2% 0.1% 0.6% 0.1%

encoded 160954 frames in 134864.15s (1.19 fps), 5849.72 kb/s, Avg QP:18.97
Медиаинфо
General
Unique ID : 123223260216383203217701730188887905252 (0x5CB3EFC993C8FBCA0AFADD4A9878D3E4)
Complete name : The Conjuring. The Devil Made Me Do It (2021) BDRip 1080p H.265 [3xRUS_2xUKR_ENG] [RIPS-CLUB].mkv
Format : Matroska
Format version : Version 4
File size : 6.73 GiB
Duration : 1 h 51 min
Overall bit rate : 8 609 kb/s
Movie name : Заклятие 3: По воле дьявола / Закляття 3: За велінням диявола / The Conjuring: The Devil Made Me Do It (2021)
Encoded date : UTC 2021-08-30 12:19:46
Writing application : mkvmerge v20.0.0 ('I Am The Sun') 64-bit
Writing library : libebml v1.3.5 + libmatroska v1.4.8
Cover : Yes
Attachments : Cover.jpg

Video
ID : 1
Format : HEVC
Format/Info : High Efficiency Video Coding
Format profile : Main 10@L4.1@High
Codec ID : V_MPEGH/ISO/HEVC
Duration : 1 h 51 min
Bit rate : 5 850 kb/s
Width : 1 920 pixels
Height : 804 pixels
Display aspect ratio : 2.40:1
Frame rate mode : Constant
Frame rate : 23.976 (24000/1001) FPS
Color space : YUV
Chroma subsampling : 4:2:0
Bit depth : 10 bits
Bits/(Pixel*Frame) : 0.158
Stream size : 4.57 GiB (68%)
Title : Заклятие 3: По воле дьявола / Закляття 3: За велінням диявола / The Conjuring: The Devil Made Me Do It (2021)
Writing library : x265 3.5+1-ce882936d:[Windows][GCC 10.2.0][64 bit] 10bit
Encoding settings : cpuid=1111039 / frame-threads=3 / numa-pools=12 / wpp / no-pmode / no-pme / no-psnr / no-ssim / log-level=2 / input-csp=1 / input-res=1920x804 / interlace=0 / total-frames=160954 / level-idc=41 / high-tier=1 / uhd-bd=0 / ref=5 / no-allow-non-conformance / no-repeat-headers / annexb / no-aud / no-hrd / info / hash=0 / no-temporal-layers / open-gop / min-keyint=23 / keyint=240 / gop-lookahead=0 / bframes=16 / b-adapt=2 / b-pyramid / bframe-bias=0 / rc-lookahead=60 / lookahead-slices=4 / scenecut=40 / hist-scenecut=0 / radl=0 / no-splice / no-intra-refresh / ctu=32 / min-cu-size=8 / rect / amp / max-tu-size=32 / tu-inter-depth=4 / tu-intra-depth=4 / limit-tu=1 / rdoq-level=2 / dynamic-rd=0.00 / no-ssim-rd / signhide / no-tskip / nr-intra=0 / nr-inter=0 / no-constrained-intra / no-strong-intra-smoothing / max-merge=5 / limit-refs=2 / limit-modes / me=3 / subme=7 / merange=57 / temporal-mvp / no-frame-dup / no-hme / weightp / weightb / no-analyze-src-pics / deblock=-3:-3 / no-sao / no-sao-non-deblock / rd=6 / selective-sao=0 / no-early-skip / no-rskip / no-fast-intra / no-tskip-fast / no-cu-lossless / no-b-intra / no-splitrd-skip / rdpenalty=0 / psy-rd=2.00 / psy-rdoq=1.00 / no-rd-refine / no-lossless / cbqpoffs=0 / crqpoffs=0 / rc=crf / crf=20.5 / qcomp=0.70 / qpstep=4 / stats-write=0 / stats-read=0 / vbv-maxrate=50000 / vbv-bufsize=50000 / vbv-init=0.9 / min-vbv-fullness=50.0 / max-vbv-fullness=80.0 / crf-max=0.0 / crf-min=0.0 / ipratio=1.40 / pbratio=1.30 / aq-mode=3 / aq-strength=1.00 / no-cutree / zone-count=0 / no-strict-cbr / qg-size=32 / no-rc-grain / qpmax=69 / qpmin=0 / no-const-vbv / sar=1 / overscan=0 / videoformat=5 / range=0 / colorprim=2 / transfer=2 / colormatrix=2 / chromaloc=0 / display-window=0 / cll=0,0 / min-luma=0 / max-luma=1023 / log2-max-poc-lsb=8 / vui-timing-info / vui-hrd-info / slices=1 / no-opt-qp-pps / no-opt-ref-list-length-pps / no-multi-pass-opt-rps / scenecut-bias=0.05 / hist-threshold=0.03 / no-opt-cu-delta-qp / no-aq-motion / no-hdr10 / no-hdr10-opt / no-dhdr10-opt / no-idr-recovery-sei / analysis-reuse-level=0 / analysis-save-reuse-level=0 / analysis-load-reuse-level=0 / scale-factor=0 / refine-intra=0 / refine-inter=0 / refine-mv=1 / refine-ctu-distortion=0 / no-limit-sao / ctu-info=0 / no-lowpass-dct / refine-analysis-type=0 / copy-pic=1 / max-ausize-factor=1.0 / no-dynamic-refine / no-single-sei / no-hevc-aq / no-svt / no-field / qp-adaptation-range=1.00 / scenecut-aware-qp=0conformance-window-offsets / right=0 / bottom=0 / decoder-max-rate=0 / no-vbv-live-multi-pass
Language : English
Default : Yes
Forced : Yes

Audio #1
ID : 2
Format : E-AC-3
Format/Info : Enhanced AC-3
Commercial name : Dolby Digital Plus
Codec ID : A_EAC3
Duration : 1 h 51 min
Bit rate mode : Constant
Bit rate : 448 kb/s
Channel(s) : 6 channels
Channel layout : L R C LFE Ls Rs
Sampling rate : 48.0 kHz
Frame rate : 31.250 FPS (1536 SPF)
Compression mode : Lossy
Stream size : 358 MiB (5%)
Title : E-AC3 / 5.1 Ch / 448 kbps / DUB / Пифагор
Language : Russian
Service kind : Complete Main
Default : Yes
Forced : Yes

Audio #2
ID : 3
Format : AC-3
Format/Info : Audio Coding 3
Commercial name : Dolby Digital
Codec ID : A_AC3
Duration : 1 h 51 min
Bit rate mode : Constant
Bit rate : 448 kb/s
Channel(s) : 6 channels
Channel layout : L R C LFE Ls Rs
Sampling rate : 48.0 kHz
Frame rate : 31.250 FPS (1536 SPF)
Compression mode : Lossy
Stream size : 359 MiB (5%)
Title : AC-3 / 5.1 Ch / 448 kbps / MVO / HDRezka Studio
Language : Russian
Service kind : Complete Main
Default : No
Forced : No

Audio #3
ID : 4
Format : AC-3
Format/Info : Audio Coding 3
Commercial name : Dolby Digital
Codec ID : A_AC3
Duration : 1 h 51 min
Bit rate mode : Constant
Bit rate : 448 kb/s
Channel(s) : 6 channels
Channel layout : L R C LFE Ls Rs
Sampling rate : 48.0 kHz
Frame rate : 31.250 FPS (1536 SPF)
Compression mode : Lossy
Stream size : 358 MiB (5%)
Title : AC-3 / 5.1 Ch / 448 kbps / DVO / Pazl Voice
Language : Russian
Service kind : Complete Main
Default : No
Forced : No

Audio #4
ID : 5
Format : AC-3
Format/Info : Audio Coding 3
Commercial name : Dolby Digital
Codec ID : A_AC3
Duration : 1 h 51 min
Bit rate mode : Constant
Bit rate : 384 kb/s
Channel(s) : 6 channels
Channel layout : L R C LFE Ls Rs
Sampling rate : 48.0 kHz
Frame rate : 31.250 FPS (1536 SPF)
Compression mode : Lossy
Stream size : 307 MiB (4%)
Title : AC-3 / 5.1 Ch / 384 kbps / DUB / iTunes / Студія "Postmodern"
Language : Ukrainian
Service kind : Complete Main
Default : No
Forced : No

Audio #5
ID : 6
Format : AC-3
Format/Info : Audio Coding 3
Commercial name : Dolby Digital
Codec ID : A_AC3
Duration : 1 h 51 min
Bit rate mode : Constant
Bit rate : 384 kb/s
Channel(s) : 6 channels
Channel layout : L R C LFE Ls Rs
Sampling rate : 48.0 kHz
Frame rate : 31.250 FPS (1536 SPF)
Compression mode : Lossy
Stream size : 307 MiB (4%)
Title : AC-3 / 5.1 Ch / 384 kbps / MVO / HDRezka / Студія "DniproFilm"
Language : Ukrainian
Service kind : Complete Main
Default : No
Forced : No

Audio #6
ID : 7
Format : AC-3
Format/Info : Audio Coding 3
Commercial name : Dolby Digital
Codec ID : A_AC3
Duration : 1 h 51 min
Bit rate mode : Constant
Bit rate : 640 kb/s
Channel(s) : 6 channels
Channel layout : L R C LFE Ls Rs
Sampling rate : 48.0 kHz
Frame rate : 31.250 FPS (1536 SPF)
Compression mode : Lossy
Stream size : 512 MiB (7%)
Title : AC-3 / 5.1 Ch / 640 kbps / Original
Language : English
Service kind : Complete Main
Default : No
Forced : No

Text #1
ID : 8
Format : UTF-8
Codec ID : S_TEXT/UTF8
Codec ID/Info : UTF-8 Plain Text
Duration : 1 h 45 min
Bit rate : 5 b/s
Count of elements : 64
Stream size : 3.94 KiB (0%)
Title : Forced
Language : Russian
Default : Yes
Forced : Yes

Text #2
ID : 9
Format : UTF-8
Codec ID : S_TEXT/UTF8
Codec ID/Info : UTF-8 Plain Text
Duration : 1 h 45 min
Bit rate : 3 b/s
Count of elements : 47
Stream size : 2.62 KiB (0%)
Title : Forced HDRezka
Language : Russian
Default : No
Forced : No

Text #3
ID : 10
Format : UTF-8
Codec ID : S_TEXT/UTF8
Codec ID/Info : UTF-8 Plain Text
Duration : 1 h 50 min
Bit rate : 62 b/s
Count of elements : 977
Stream size : 50.4 KiB (0%)
Title : iTunes
Language : Russian
Default : No
Forced : No

Text #4
ID : 11
Format : UTF-8
Codec ID : S_TEXT/UTF8
Codec ID/Info : UTF-8 Plain Text
Duration : 1 h 50 min
Bit rate : 61 b/s
Count of elements : 978
Stream size : 50.3 KiB (0%)
Title : Хелена Аре
Language : Russian
Default : No
Forced : No

Text #5
ID : 12
Format : UTF-8
Codec ID : S_TEXT/UTF8
Codec ID/Info : UTF-8 Plain Text
Duration : 1 h 46 min
Bit rate : 58 b/s
Count of elements : 1010
Stream size : 45.6 KiB (0%)
Title : PhysKids
Language : Russian
Default : No
Forced : No

Text #6
ID : 13
Format : UTF-8
Codec ID : S_TEXT/UTF8
Codec ID/Info : UTF-8 Plain Text
Duration : 1 h 45 min
Bit rate : 5 b/s
Count of elements : 76
Stream size : 4.53 KiB (0%)
Title : Forced
Language : Ukrainian
Default : No
Forced : No

Text #7
ID : 14
Format : UTF-8
Codec ID : S_TEXT/UTF8
Codec ID/Info : UTF-8 Plain Text
Duration : 1 h 45 min
Bit rate : 41 b/s
Count of elements : 1030
Stream size : 32.5 KiB (0%)
Title : Full
Language : English
Default : No
Forced : No

Text #8
ID : 15
Format : UTF-8
Codec ID : S_TEXT/UTF8
Codec ID/Info : UTF-8 Plain Text
Duration : 1 h 45 min
Bit rate : 47 b/s
Count of elements : 1239
Stream size : 36.8 KiB (0%)
Title : SDH
Language : English
Default : No
Forced : No

Menu
00:00:00.000 : :Chapter 01
00:11:09.502 : :Chapter 02
00:20:04.286 : :Chapter 03
00:30:26.074 : :Chapter 04
00:39:40.253 : :Chapter 05
00:50:33.572 : :Chapter 06
01:00:03.683 : :Chapter 07
01:11:42.089 : :Chapter 08
01:19:42.778 : :Chapter 09
01:31:43.998 : :Chapter 10
01:40:57.301 : :Chapter 11
Загрузка...Cкриншот1 Заклятие 3: По воле дьявола / The Conjuring: The Devil Made Me Do It (2021) BDRip 1080p [HEVC] 10 bit от -Star-Lord- (RG RIPS CLUB)Загрузка...Cкриншот2 Заклятие 3: По воле дьявола / The Conjuring: The Devil Made Me Do It (2021) BDRip 1080p [HEVC] 10 bit от -Star-Lord- (RG RIPS CLUB)Загрузка...Cкриншот3 Заклятие 3: По воле дьявола / The Conjuring: The Devil Made Me Do It (2021) BDRip 1080p [HEVC] 10 bit от -Star-Lord- (RG RIPS CLUB)Загрузка...Cкриншот4 Заклятие 3: По воле дьявола / The Conjuring: The Devil Made Me Do It (2021) BDRip 1080p [HEVC] 10 bit от -Star-Lord- (RG RIPS CLUB)
Релиз-группа: RIPS CLUB
Сэмпл Торрент🧲 Магнет

Рейтинги КП и IMDB, кнопки "Позвать в чате" и "Спасибо", а также мультитрекерная статистика доступны только зарегистрированным/авторизованным пользователям!

Файлы: 1
  • The Conjuring. The Devil Made Me Do It (2021) BDRip 1080p H.265 [3xRUS_2xUKR_ENG] [RIPS-CLUB].mkv   6.73 ГБ
Поблагодарили: 1
Kiran
StarLord
01764196.73 ГБ

Добавление нового комментария

Добавление комментариев доступно только зарегистрированным/авторизованным пользователям.