💬 Мини-чат

OldGamerНасколько я помню, даже мой первый стик 2014 года тянул hevc, хотя и подтупливал на перемотке
OldGamerВыбирайте по цене и отзывам.
OldGamerСообщение удалено (удалил: OldGamer)
OldGamerЛюбой, всё что выпускалось за последние 3 года, вполне тянет hevc. Чуть раньше в чате ссылку давал на обсуждения на 4пда.
SAHA55Подскажите,пожалуйста какой купить медио плеер для просмотра видео в HEVC x265 с переносного жёсткого на 1 Тб. TV старый Panasonic
  • OldGamer
  • Chestnoc
  • Nuclear70
Отправка сообщений доступна только зарегистрированным/авторизованным пользователям.
Онлайн (за 10 мин.): 3

Заклятие 3: По воле дьявола / The Conjuring: The Devil Made Me Do It (2021) UHD-BDRip 1080p [HEVC] 10 bit [HDR] от Mr. Fox

HEVC
HDR
10 bit
Обложка Заклятие 3: По воле дьявола / The Conjuring: The Devil Made Me Do It (2021) UHD-BDRip 1080p [HEVC] 10 bit [HDR] от Mr. Fox Год: 2021
Страна: США, Великобритания
Студия: Atomic Monster, New Line Cinema, The Safran Company
Жанр: Ужасы, Детектив
Продолжительность: 01:51:53

Режиссер: Майкл Чавес
В ролях: Патрик Уилсон, Вера Фармига, Руаири О’Коннор, Сара Кэтрин Хук, Джулиан Хиллиард, Джон Ноубл, Эжени Бондюран, Шэннон Кук-Чун, Ронни Джин Блевинс, Кит А. Болден

Описание: 18 июля 1981 года Эд и Лоррейн Уоррены присутствовали при проведении экзорцизма над маленьким Дэвидом Глатцелом. Священник и семья мальчика безуспешно пытались изгнать злобную сущность, Эд заработал сердечный приступ, и тогда Арни — парень старшей сестры Дэвида — предложил демону свою душу. Некоторое время спустя Арни убивает своего домовладельца и после говорит, что не помнит произошедшего. Впервые в истории США подозреваемый в убийстве заявлет, что был одержим демоном, и теперь судьба парня зависит от того, смогут ли Уоррены найти этому доказательства.


Видео: 1920x804, ~5360 Кбит/сек
Аудио1: AC3, 6 ch, 448 Kbps - РусскийРусский, Дублированный (Пифагор)
Аудио2: AC3, 6 ch, 384 Kbps - УкраинскийУкраинский, Дублированный (iTunes)
Аудио3: AC3, 6 ch, 448 Kbps - АнглийскийАнглийский, Оригинал
Субтитры: русские (форсированные, полные), украинские (форсированные), английские (полные)

Как за пару секунд удалить ненужные аудиодорожки и субтитры (Внимание! После удаления вы не сможете поддержать раздачу)

Лог (x265 info)
x265 [info]: frame I: Avg QP:16.30 kb/s
x265 [info]: frame P: Avg QP:17.64 kb/s
x265 [info]: frame B: Avg QP:19.64 kb/s
Медиаинфо
General
Unique ID : 322059571853234545067782998314601274736 (0xF24A6AD6321C61A0DC47DB264555DD70)
Complete name : E:\Torrent\The Conjuring The Devil Made Me Do It (2021).mkv
Format : Matroska
Format version : Version 4
File size : 5.19 GiB
Duration : 1 h 51 min
Overall bit rate : 6 642 kb/s
Movie name : The Conjuring: The Devil Made Me Do It (2021)
Encoded date : UTC 2021-08-23 06:14:38
Writing application : mkvmerge v60.0.0 ('Are We Copies?') 64-bit
Writing library : libebml v1.4.2 + libmatroska v1.6.4
Cover : Yes
Attachments : cover

Video
ID : 1
Format : HEVC
Format/Info : High Efficiency Video Coding
Format profile : Main 10@L4.1@High
HDR format : SMPTE ST 2086, HDR10 compatible
Codec ID : V_MPEGH/ISO/HEVC
Duration : 1 h 51 min
Bit rate : 5 360 kb/s
Width : 1 920 pixels
Height : 804 pixels
Display aspect ratio : 2.40:1
Frame rate mode : Constant
Frame rate : 23.976 (23976/1000) FPS
Original frame rate : 23.976 (24000/1001) FPS
Color space : YUV
Chroma subsampling : 4:2:0 (Type 2)
Bit depth : 10 bits
Bits/(Pixel*Frame) : 0.145
Stream size : 4.19 GiB (81%)
Writing library : x265 3.5+1-ce882936d:[Windows][MSVC 1928][64 bit] 10bit
Encoding settings : cpuid=1111039 / frame-threads=4 / numa-pools=16 / wpp / no-pmode / no-pme / no-psnr / no-ssim / log-level=2 / input-csp=1 / input-res=1920x804 / interlace=0 / total-frames=160954 / level-idc=41 / high-tier=1 / uhd-bd=0 / ref=5 / no-allow-non-conformance / repeat-headers / annexb / no-aud / no-hrd / info / hash=0 / no-temporal-layers / open-gop / min-keyint=23 / keyint=240 / gop-lookahead=0 / bframes=16 / b-adapt=2 / b-pyramid / bframe-bias=0 / rc-lookahead=60 / lookahead-slices=4 / scenecut=40 / hist-scenecut=0 / radl=0 / no-splice / no-intra-refresh / ctu=32 / min-cu-size=8 / rect / amp / max-tu-size=32 / tu-inter-depth=4 / tu-intra-depth=4 / limit-tu=1 / rdoq-level=2 / dynamic-rd=0.00 / no-ssim-rd / signhide / no-tskip / nr-intra=0 / nr-inter=0 / no-constrained-intra / no-strong-intra-smoothing / max-merge=4 / limit-refs=2 / limit-modes / me=3 / subme=7 / merange=57 / temporal-mvp / no-frame-dup / no-hme / weightp / weightb / no-analyze-src-pics / deblock=-3:-3 / no-sao / no-sao-non-deblock / rd=6 / selective-sao=0 / no-early-skip / no-rskip / no-fast-intra / no-tskip-fast / no-cu-lossless / no-b-intra / no-splitrd-skip / rdpenalty=0 / psy-rd=2.00 / psy-rdoq=1.00 / no-rd-refine / no-lossless / cbqpoffs=0 / crqpoffs=0 / rc=crf / crf=19.0 / qcomp=0.65 / qpstep=4 / stats-write=0 / stats-read=0 / vbv-maxrate=50000 / vbv-bufsize=50000 / vbv-init=0.9 / min-vbv-fullness=50.0 / max-vbv-fullness=80.0 / crf-max=0.0 / crf-min=0.0 / ipratio=1.40 / pbratio=1.30 / aq-mode=1 / aq-strength=1.00 / no-cutree / zone-count=0 / no-strict-cbr / qg-size=32 / no-rc-grain / qpmax=69 / qpmin=0 / no-const-vbv / sar=1 / overscan=0 / videoformat=5 / range=0 / colorprim=9 / transfer=16 / colormatrix=9 / chromaloc=1 / chromaloc-top=2 / chromaloc-bottom=2 / display-window=0 / master-display=G(13250,34500)B(7500,3000)R(34000,16000)WP(15635,16450)L(40000000,50) / cll=514,91 / min-luma=0 / max-luma=1023 / log2-max-poc-lsb=8 / vui-timing-info / vui-hrd-info / slices=1 / no-opt-qp-pps / no-opt-ref-list-length-pps / no-multi-pass-opt-rps / scenecut-bias=0.05 / hist-threshold=0.03 / no-opt-cu-delta-qp / no-aq-motion / hdr10 / hdr10-opt / no-dhdr10-opt / no-idr-recovery-sei / analysis-reuse-level=0 / analysis-save-reuse-level=0 / analysis-load-reuse-level=0 / scale-factor=0 / refine-intra=0 / refine-inter=0 / refine-mv=1 / refine-ctu-distortion=0 / no-limit-sao / ctu-info=0 / no-lowpass-dct / refine-analysis-type=0 / copy-pic=1 / max-ausize-factor=1.0 / no-dynamic-refine / no-single-sei / no-hevc-aq / no-svt / no-field / qp-adaptation-range=1.00 / scenecut-aware-qp=0conformance-window-offsets / right=0 / bottom=0 / decoder-max-rate=0 / no-vbv-live-multi-pass
Default : Yes
Forced : No
Color range : Limited
Color primaries : BT.2020
Transfer characteristics : PQ
Matrix coefficients : BT.2020 non-constant
Mastering display color primar : Display P3
Mastering display luminance : min: 0.0050 cd/m2, max: 4000 cd/m2
Maximum Content Light Level : 514 cd/m2
Maximum Frame-Average Light Le : 91 cd/m2

Audio #1
ID : 2
Format : E-AC-3
Format/Info : Enhanced AC-3
Commercial name : Dolby Digital Plus
Codec ID : A_EAC3
Duration : 1 h 51 min
Bit rate mode : Constant
Bit rate : 448 kb/s
Channel(s) : 6 channels
Channel layout : L R C LFE Ls Rs
Sampling rate : 48.0 kHz
Frame rate : 31.250 FPS (1536 SPF)
Compression mode : Lossy
Stream size : 358 MiB (7%)
Title : Дубляж (Пифагор)
Language : Russian
Service kind : Complete Main
Default : Yes
Forced : No

Audio #2
ID : 3
Format : AC-3
Format/Info : Audio Coding 3
Commercial name : Dolby Digital
Codec ID : A_AC3
Duration : 1 h 51 min
Bit rate mode : Constant
Bit rate : 384 kb/s
Channel(s) : 6 channels
Channel layout : L R C LFE Ls Rs
Sampling rate : 48.0 kHz
Frame rate : 31.250 FPS (1536 SPF)
Compression mode : Lossy
Stream size : 307 MiB (6%)
Title : Дубляж (iTunes)
Language : Ukrainian
Service kind : Complete Main
Default : No
Forced : No

Audio #3
ID : 4
Format : AC-3
Format/Info : Audio Coding 3
Commercial name : Dolby Digital
Format settings : Dolby Surround EX
Codec ID : A_AC3
Duration : 1 h 51 min
Bit rate mode : Constant
Bit rate : 448 kb/s
Channel(s) : 6 channels
Channel layout : L R C LFE Ls Rs
Sampling rate : 48.0 kHz
Frame rate : 31.250 FPS (1536 SPF)
Compression mode : Lossy
Stream size : 359 MiB (7%)
Title : Original
Language : English
Service kind : Complete Main
Default : No
Forced : No

Text #1
ID : 5
Format : UTF-8
Codec ID : S_TEXT/UTF8
Codec ID/Info : UTF-8 Plain Text
Duration : 1 h 45 min
Bit rate : 4 b/s
Count of elements : 65
Stream size : 3.77 KiB (0%)
Title : Forced
Language : Russian
Default : Yes
Forced : No

Text #2
ID : 6
Format : UTF-8
Codec ID : S_TEXT/UTF8
Codec ID/Info : UTF-8 Plain Text
Duration : 1 h 50 min
Bit rate : 62 b/s
Count of elements : 977
Stream size : 50.4 KiB (0%)
Title : Full
Language : Russian
Default : No
Forced : No

Text #3
ID : 7
Format : UTF-8
Codec ID : S_TEXT/UTF8
Codec ID/Info : UTF-8 Plain Text
Duration : 1 h 45 min
Bit rate : 6 b/s
Count of elements : 76
Stream size : 4.70 KiB (0%)
Title : Forced
Language : Ukrainian
Default : No
Forced : No

Text #4
ID : 8
Format : UTF-8
Codec ID : S_TEXT/UTF8
Codec ID/Info : UTF-8 Plain Text
Duration : 1 h 45 min
Bit rate : 40 b/s
Count of elements : 1001
Stream size : 31.4 KiB (0%)
Title : Full
Language : English
Default : No
Forced : No

Menu
00:00:00.000 : Chapter 1
00:11:09.502 : Chapter 2
00:20:04.286 : Chapter 3
00:30:26.074 : Chapter 4
00:39:40.253 : Chapter 5
00:50:33.572 : Chapter 6
01:00:03.683 : Chapter 7
01:11:42.089 : Chapter 8
01:19:42.778 : Chapter 9
01:31:43.998 : Chapter 10
01:40:57.301 : Chapter 11
Загрузка...Cкриншот1 Заклятие 3: По воле дьявола / The Conjuring: The Devil Made Me Do It (2021) UHD-BDRip 1080p [HEVC] 10 bit [HDR] от Mr. FoxЗагрузка...Cкриншот2 Заклятие 3: По воле дьявола / The Conjuring: The Devil Made Me Do It (2021) UHD-BDRip 1080p [HEVC] 10 bit [HDR] от Mr. FoxЗагрузка...Cкриншот3 Заклятие 3: По воле дьявола / The Conjuring: The Devil Made Me Do It (2021) UHD-BDRip 1080p [HEVC] 10 bit [HDR] от Mr. FoxЗагрузка...Cкриншот4 Заклятие 3: По воле дьявола / The Conjuring: The Devil Made Me Do It (2021) UHD-BDRip 1080p [HEVC] 10 bit [HDR] от Mr. Fox
Сэмпл Торрент🧲 Магнет

Рейтинги КП и IMDB, кнопки "Позвать в чате" и "Спасибо", а также мультитрекерная статистика доступны только зарегистрированным/авторизованным пользователям!

Файлы: 1
  • The Conjuring The Devil Made Me Do It (2021).mkv   5.19 ГБ
Поблагодарили: 7
alenu, and50, Kiran, makss333, SERGIY, StarLord, Херсонец
Admin
020252155.19 ГБ

Добавление нового комментария

Добавление комментариев доступно только зарегистрированным/авторизованным пользователям.