💬 Мини-чат

OldGamerНасколько я помню, даже мой первый стик 2014 года тянул hevc, хотя и подтупливал на перемотке
OldGamerВыбирайте по цене и отзывам.
OldGamerСообщение удалено (удалил: OldGamer)
OldGamerЛюбой, всё что выпускалось за последние 3 года, вполне тянет hevc. Чуть раньше в чате ссылку давал на обсуждения на 4пда.
SAHA55Подскажите,пожалуйста какой купить медио плеер для просмотра видео в HEVC x265 с переносного жёсткого на 1 Тб. TV старый Panasonic
  • OldGamer
  • ADVOKAT69
  • Spartanec1308
  • abtr
  • Despise
Отправка сообщений доступна только зарегистрированным/авторизованным пользователям.
Онлайн (за 10 мин.): 5

Механик: Воскрешение / Mechanic: Resurrection (2016) [US Transfer] BDRip 1080p [HEVC] 10 bit от Spartanec1308

HEVC
10 bit
Обложка Механик: Воскрешение / Mechanic: Resurrection (2016) [US Transfer] BDRip 1080p [HEVC] 10 bit от Spartanec1308 Год: 2016
Страна: Франция, США
Студия: Chartoff-Winkler Productions, Davis-Films, ME2 Productions, Millennium Films
Жанр: Боевик, Триллер, Криминал
Продолжительность: 01:38:38

Режиссер: Дэннис Ганзель
В ролях: Джейсон Стэйтем, Джессика Альба, Томми Ли Джонс, Мишель Йео, Наталия Гуслистая, Ейяинг Рхатха Пхонгам, Сэм Хэзелдайн, Джон Ченатьемпо, Райчо Василев, Аарон Брамфилд

Описание: Артура Бишопа, давно оставившего свое криминальное ремесло, вынуждают снова вступить в игру. Чтобы похитители вернули его возлюбленную, он должен сделать то, что у него получается лучше всего: от него требуется совершить три убийства, идеально обставленных как несчастные случаи.


Видео: 1920x800, 8528 Кбит/сек, 0.260 бит/(Пиксели*Кадры), 23,976 кадр/сек, HEVC (Main10@L.4.1@High) 10 бит
Аудио1: AC3, 6 ch, 640 Kbps - РусскийРусский, Дублированный (Лицензия)
Аудио2: AC3, 6 ch, 384 Kbps - РусскийРусский, Многоголосый (FocusStudio)
Аудио3: AC3, 6 ch, 640 Kbps - РусскийРусский, Одноголосый (М.Яроцкий)
Аудио4: AC3, 6 ch, 640 Kbps - АнглийскийАнглийский, Оригинал
Субтитры: Русские (полные, форсированные), английские

Как за пару секунд удалить ненужные аудиодорожки и субтитры (Внимание! После удаления вы не сможете поддержать раздачу)

Лог (x265 info)
x265 [info]: frame I: 1907, Avg QP:17.53 kb/s: 30145.90
x265 [info]: frame P: 29655, Avg QP:18.99 kb/s: 18537.48
x265 [info]: frame B: 110351, Avg QP:21.55 kb/s: 6803.42
x265 [info]: Weighted P-Frames: Y:6.2% UV:5.2%
x265 [info]: Weighted B-Frames: Y:7.0% UV:5.6%
x265 [info]: consecutive B-frames: 11.4% 5.8% 10.6% 29.3% 9.5% 20.0% 5.0% 4.7% 1.7% 0.9% 0.4% 0.4% 0.3%

encoded 141913 frames in 194474.07s (0.73 fps), 9569.11 kb/s, Avg QP:20.96
Медиаинфо
Формат : Matroska
Версия формата : Version 4
Размер файла : 8,18 Гбайт
Продолжительность : 1 ч. 38 м.
Общий поток : 11,9 Мбит/сек
Название фильма : by Spartanec
Дата кодирования : UTC 2021-08-29 18:40:15
Программа кодирования : mkvmerge v7.0.0 ('Where We Going') 64bit built on Jun 9 2014 15:16:27
Библиотека кодирования : libebml v1.3.0 + libmatroska v1.4.1
Обложка : Yes
Attachments : cover.jpg

Видео
Идентификатор : 1
Формат : HEVC
Формат/Информация : High Efficiency Video Coding
Профиль формата : Main 10@L4.1@High
Идентификатор кодека : V_MPEGH/ISO/HEVC
Продолжительность : 1 ч. 38 м.
Битрейт : 9570 Кбит/сек
Ширина : 1920 пикселей
Высота : 800 пикселей
Соотношение сторон : 2,40:1
Режим частоты кадров : Постоянный
Частота кадров : 23,976 (23976/1000) кадра/сек
Частота кадров в оригинале : 23,976 (24000/1001) кадра/сек
Цветовое пространство : YUV
Субдискретизация насыщенности : 4:2:0
Битовая глубина : 10 бит
Бит/(Пиксели*Кадры) : 0.260
Размер потока : 6,59 Гбайт (81%)
Заголовок : Spartanec
Библиотека кодирования : x265 3.5+10-82786fccc:[Windows][GCC 11.1.0][64 bit] 10bit
Настройки программы : cpuid=1111039 / frame-threads=4 / numa-pools=16 / wpp / no-pmode / no-pme / no-psnr / no-ssim / log-level=2 / input-csp=1 / input-res=1920x800 / interlace=0 / total-frames=141913 / level-idc=41 / high-tier=1 / uhd-bd=0 / ref=5 / no-allow-non-conformance / no-repeat-headers / annexb / no-aud / no-eob / no-eos / no-hrd / info / hash=0 / no-temporal-layers / open-gop / min-keyint=23 / keyint=240 / gop-lookahead=0 / bframes=12 / b-adapt=2 / b-pyramid / bframe-bias=0 / rc-lookahead=60 / lookahead-slices=1 / scenecut=40 / hist-scenecut=0 / radl=0 / no-splice / no-intra-refresh / ctu=32 / min-cu-size=8 / rect / amp / max-tu-size=32 / tu-inter-depth=4 / tu-intra-depth=4 / limit-tu=1 / rdoq-level=1 / dynamic-rd=0.00 / no-ssim-rd / signhide / no-tskip / nr-intra=0 / nr-inter=0 / no-constrained-intra / no-strong-intra-smoothing / max-merge=5 / limit-refs=0 / no-limit-modes / me=3 / subme=7 / merange=57 / temporal-mvp / no-frame-dup / no-hme / weightp / weightb / no-analyze-src-pics / deblock=-2:-2 / no-sao / no-sao-non-deblock / rd=6 / selective-sao=0 / no-early-skip / no-rskip / no-fast-intra / no-tskip-fast / no-cu-lossless / b-intra / no-splitrd-skip / rdpenalty=0 / psy-rd=2.00 / psy-rdoq=1.00 / no-rd-refine / no-lossless / cbqpoffs=0 / crqpoffs=0 / rc=crf / crf=20.2 / qcomp=0.70 / qpstep=4 / stats-write=0 / stats-read=0 / vbv-maxrate=50000 / vbv-bufsize=50000 / vbv-init=0.9 / min-vbv-fullness=50.0 / max-vbv-fullness=80.0 / crf-max=0.0 / crf-min=0.0 / ipratio=1.40 / pbratio=1.30 / aq-mode=2 / aq-strength=1.00 / no-cutree / zone-count=0 / no-strict-cbr / qg-size=32 / no-rc-grain / qpmax=69 / qpmin=0 / no-const-vbv / sar=1 / overscan=0 / videoformat=5 / range=0 / colorprim=1 / transfer=1 / colormatrix=1 / chromaloc=0 / display-window=0 / cll=0,0 / min-luma=0 / max-luma=1023 / log2-max-poc-lsb=8 / vui-timing-info / vui-hrd-info / slices=1 / no-opt-qp-pps / no-opt-ref-list-length-pps / no-multi-pass-opt-rps / scenecut-bias=0.05 / hist-threshold=0.03 / no-opt-cu-delta-qp / no-aq-motion / no-hdr10 / no-hdr10-opt / no-dhdr10-opt / no-idr-recovery-sei / analysis-reuse-level=0 / analysis-save-reuse-level=0 / analysis-load-reuse-level=0 / scale-factor=0 / refine-intra=0 / refine-inter=0 / refine-mv=0 / refine-ctu-distortion=0 / no-limit-sao / ctu-info=0 / no-lowpass-dct / refine-analysis-type=0 / copy-pic=1 / max-ausize-factor=1.0 / no-dynamic-refine / no-single-sei / no-hevc-aq / no-svt / no-field / qp-adaptation-range=1.00 / scenecut-aware-qp=0conformance-window-offsets / right=0 / bottom=0 / decoder-max-rate=0 / no-vbv-live-multi-pass
Default : Да
Forced : Нет
Цветовой диапазон : Limited
Основные цвета : BT.709
Характеристики трансфера : BT.709
Коэффициенты матрицы : BT.709

Аудио #1
Идентификатор : 2
Формат : AC-3
Формат/Информация : Audio Coding 3
Коммерческое название : Dolby Digital
Идентификатор кодека : A_AC3
Продолжительность : 1 ч. 38 м.
Вид битрейта : Постоянный
Битрейт : 640 Кбит/сек
Каналы : 6 каналов
ChannelLayout : L R C LFE Ls Rs
Частота : 48,0 КГц
Частота кадров : 31,250 кадров/сек (1536 SPF)
Битовая глубина : 16 бит
Метод сжатия : С потерями
Размер потока : 451 Мбайт (5%)
Заголовок : Дубляж
ServiceKind/ : Complete Main
Default : Да
Forced : Нет

Аудио #2
Идентификатор : 3
Формат : AC-3
Формат/Информация : Audio Coding 3
Коммерческое название : Dolby Digital
Идентификатор кодека : A_AC3
Продолжительность : 1 ч. 38 м.
Вид битрейта : Постоянный
Битрейт : 384 Кбит/сек
Каналы : 6 каналов
ChannelLayout : L R C LFE Ls Rs
Частота : 48,0 КГц
Частота кадров : 31,250 кадров/сек (1536 SPF)
Битовая глубина : 16 бит
Метод сжатия : С потерями
Размер потока : 271 Мбайт (3%)
Заголовок : MVO [FocusStudio]
ServiceKind/ : Complete Main
Default : Нет
Forced : Нет

Аудио #3
Идентификатор : 4
Формат : AC-3
Формат/Информация : Audio Coding 3
Коммерческое название : Dolby Digital
Идентификатор кодека : A_AC3
Продолжительность : 1 ч. 38 м.
Вид битрейта : Постоянный
Битрейт : 640 Кбит/сек
Каналы : 6 каналов
ChannelLayout : L R C LFE Ls Rs
Частота : 48,0 КГц
Частота кадров : 31,250 кадров/сек (1536 SPF)
Битовая глубина : 16 бит
Метод сжатия : С потерями
Размер потока : 452 Мбайт (5%)
Заголовок : Авторский [Яроцкий]
ServiceKind/ : Complete Main
Default : Нет
Forced : Нет

Аудио #4
Идентификатор : 5
Формат : AC-3
Формат/Информация : Audio Coding 3
Коммерческое название : Dolby Digital
Идентификатор кодека : A_AC3
Продолжительность : 1 ч. 38 м.
Вид битрейта : Постоянный
Битрейт : 640 Кбит/сек
Каналы : 6 каналов
ChannelLayout : L R C LFE Ls Rs
Частота : 48,0 КГц
Частота кадров : 31,250 кадров/сек (1536 SPF)
Битовая глубина : 16 бит
Метод сжатия : С потерями
Размер потока : 452 Мбайт (5%)
Заголовок : Оригинал
ServiceKind/ : Complete Main
Default : Нет
Forced : Нет

Текст #1
Идентификатор : 6
Формат : UTF-8
Идентификатор кодека : S_TEXT/UTF8
Идентификатор кодека/Информация : UTF-8 Plain Text
Продолжительность : 1 ч. 31 м.
Битрейт : 1 бит/сек
ElementCount : 19
Размер потока : 962 байт (0%)
Заголовок : Forced
Default : Нет
Forced : Нет

Текст #2
Идентификатор : 7
Формат : UTF-8
Идентификатор кодека : S_TEXT/UTF8
Идентификатор кодека/Информация : UTF-8 Plain Text
Продолжительность : 1 ч. 33 м.
Битрейт : 44 бит/сек
ElementCount : 594
Размер потока : 30,6 Кбайт (0%)
Заголовок : Full
Default : Да
Forced : Нет

Текст #3
Идентификатор : 8
Формат : UTF-8
Идентификатор кодека : S_TEXT/UTF8
Идентификатор кодека/Информация : UTF-8 Plain Text
Продолжительность : 1 ч. 30 м.
Битрейт : 29 бит/сек
ElementCount : 631
Размер потока : 19,8 Кбайт (0%)
Заголовок : Full
Default : Нет
Forced : Нет

Меню
00:00:00.000 : :00:00:00.000
00:06:34.936 : :00:06:34.936
00:11:51.336 : :00:11:51.336
00:18:31.277 : :00:18:31.277
00:26:04.897 : :00:26:04.897
00:31:57.540 : :00:31:57.540
00:38:31.267 : :00:38:31.267
00:43:35.696 : :00:43:35.696
00:49:23.210 : :00:49:23.210
00:54:20.382 : :00:54:20.382
01:00:09.856 : :01:00:09.856
01:05:50.446 : :01:05:50.446
01:10:25.429 : :01:10:25.429
01:14:52.363 : :01:14:52.363
01:21:04.860 : :01:21:04.860
01:31:38.785 : :01:31:38.785
Загрузка...Cкриншот1 Механик: Воскрешение / Mechanic: Resurrection (2016) [US Transfer] BDRip 1080p [HEVC] 10 bit от Spartanec1308Загрузка...Cкриншот2 Механик: Воскрешение / Mechanic: Resurrection (2016) [US Transfer] BDRip 1080p [HEVC] 10 bit от Spartanec1308Загрузка...Cкриншот3 Механик: Воскрешение / Mechanic: Resurrection (2016) [US Transfer] BDRip 1080p [HEVC] 10 bit от Spartanec1308Загрузка...Cкриншот4 Механик: Воскрешение / Mechanic: Resurrection (2016) [US Transfer] BDRip 1080p [HEVC] 10 bit от Spartanec1308
Сэмпл Торрент🧲 Магнет

Рейтинги КП и IMDB, кнопки "Позвать в чате" и "Спасибо", а также мультитрекерная статистика доступны только зарегистрированным/авторизованным пользователям!

Файлы: 1
  • Механик.Воскрешение (2016) BDRip 1080p [HEVC] 10bit by Spartanec.mkv   8.18 ГБ
Поблагодарили: 12
alexyak, and50, Andrey_alex, aquarius, D16T, donadar, Giggalo, GIS88, Kiran, makss333, Nuclear70, StarLord
Spartanec1308
043208.18 ГБ

Добавление нового комментария

Добавление комментариев доступно только зарегистрированным/авторизованным пользователям.