💬 Мини-чат

OldGamerНасколько я помню, даже мой первый стик 2014 года тянул hevc, хотя и подтупливал на перемотке
OldGamerВыбирайте по цене и отзывам.
OldGamerСообщение удалено (удалил: OldGamer)
OldGamerЛюбой, всё что выпускалось за последние 3 года, вполне тянет hevc. Чуть раньше в чате ссылку давал на обсуждения на 4пда.
SAHA55Подскажите,пожалуйста какой купить медио плеер для просмотра видео в HEVC x265 с переносного жёсткого на 1 Тб. TV старый Panasonic
  • OldGamer
  • HANNIBAL
  • abtr
  • anderb
  • dead_head
Отправка сообщений доступна только зарегистрированным/авторизованным пользователям.
Онлайн (за 10 мин.): 5

Слишком крута для тебя / She's Out of My League (2010) BDRip 1080p [HEVC] 10 bit от HANNIBAL

HEVC
10 bit
Обложка Слишком крута для тебя / She's Out of My League (2010) BDRip 1080p [HEVC] 10 bit от HANNIBAL Год: 2010
Страна: США
Студия: DreamWorks SKG, Mosaic Media Group
Жанр: Комедия
Продолжительность: 01:44:32

Режиссер: Джим Филд Смит
В ролях: Джей Барушель, Майк Фогель, Кристен Риттер, Элис Ив, Линдси Слоун, Ким Шоу, Дебра Джо Рапп, Джесика Николь, ТиДжей Миллер, Хэйз МакАртур

Описание: Неуверенный в себе Кирк Кеттнер отвечает за безопасность на авиарейсах, точнее просит пассажиров перед полётом снимать свою обувь для досмотра. Однажды Кирку повезло встретить Молли и вопреки его ожиданиям, с этой умной и очаровательной девушкой у них возникли взаимные чувства. Вот только не стоило Кирку слушать советов семьи и друзей, считающих, что Молли слишком хороша для него.


Видео: 1920x816, ~3600 Кбит/сек
Аудио1: AC3, 6 ch, 640 Kbps - РусскийРусский, Дублированный (BD EUR)
Аудио2: AC3, 6 ch, 448 Kbps - УкраинскийУкраинский, Дублированный (R5)
Аудио3: AC3, 6 ch, 640 Kbps - АнглийскийАнглийский, Оригинал
Субтитры: Русские, Украинские, Английские

Как за пару секунд удалить ненужные аудиодорожки и субтитры (Внимание! После удаления вы не сможете поддержать раздачу)

Лог (x265 info)
x265 [info]: frame I: 1839, Avg QP:16.88 kb/s: 19508.46
x265 [info]: frame P: 29138, Avg QP:18.29 kb/s: 8192.14
x265 [info]: frame B: 119403, Avg QP:20.91 kb/s: 2232.98
x265 [info]: Weighted P-Frames: Y:2.8% UV:2.3%
x265 [info]: Weighted B-Frames: Y:2.5% UV:1.8%
x265 [info]: consecutive B-frames: 8.9% 1.6% 4.2% 31.9% 12.3% 27.2% 5.3% 7.2% 0.9% 0.4% 0.1% 0.1% 0.1%
Медиаинфо
General
Unique ID : 11947961078727636288108626417759417411 (0x8FD17F64615A8D50D9EEE4350C5F443)
Complete name : H:\HEVC-CLUB\She's Out of My League (2010) BDRip-HEVC 1080p 10bit.mkv
Format : Matroska
Format version : Version 4
File size : 3.89 GiB
Duration : 1 h 44 min
Overall bit rate : 5 331 kb/s
Movie name : https://t.me/hannibalhevc
Encoded date : UTC 2021-08-30 11:44:43
Writing application : mkvmerge v56.0.0 ('Strasbourg / St. Denis') 64-bit
Writing library : libebml v1.4.2 + libmatroska v1.6.4
Cover : Yes
Attachments : cover.jpg

Video
ID : 1
Format : HEVC
Format/Info : High Efficiency Video Coding
Format profile : Main 10@L4.1@High
Codec ID : V_MPEGH/ISO/HEVC
Duration : 1 h 44 min
Bit rate : 3 600 kb/s
Width : 1 920 pixels
Height : 816 pixels
Display aspect ratio : 2.35:1
Frame rate mode : Constant
Frame rate : 23.976 (23976/1000) FPS
Original frame rate : 23.976 (24000/1001) FPS
Color space : YUV
Chroma subsampling : 4:2:0
Bit depth : 10 bits
Bits/(Pixel*Frame) : 0.096
Stream size : 2.63 GiB (68%)
Writing library : x265 3.5+1-ce882936d:[Windows][GCC 10.2.0][64 bit] 10bit
Encoding settings : cpuid=1111039 / frame-threads=3 / numa-pools=12 / wpp / no-pmode / no-pme / no-psnr / no-ssim / log-level=2 / input-csp=1 / input-res=1920x816 / interlace=0 / total-frames=150380 / level-idc=41 / high-tier=1 / uhd-bd=0 / ref=5 / no-allow-non-conformance / no-repeat-headers / annexb / no-aud / no-hrd / info / hash=0 / no-temporal-layers / open-gop / min-keyint=23 / keyint=240 / gop-lookahead=0 / bframes=12 / b-adapt=2 / b-pyramid / bframe-bias=0 / rc-lookahead=60 / lookahead-slices=4 / scenecut=40 / hist-scenecut=0 / radl=0 / no-splice / no-intra-refresh / ctu=32 / min-cu-size=8 / rect / amp / max-tu-size=32 / tu-inter-depth=4 / tu-intra-depth=4 / limit-tu=0 / rdoq-level=2 / dynamic-rd=0.00 / no-ssim-rd / signhide / no-tskip / nr-intra=0 / nr-inter=0 / no-constrained-intra / no-strong-intra-smoothing / max-merge=5 / limit-refs=0 / no-limit-modes / me=3 / subme=7 / merange=57 / temporal-mvp / no-frame-dup / no-hme / weightp / weightb / no-analyze-src-pics / deblock=0:0 / no-sao / no-sao-non-deblock / rd=4 / selective-sao=0 / no-early-skip / rskip / no-fast-intra / no-tskip-fast / no-cu-lossless / b-intra / no-splitrd-skip / rdpenalty=0 / psy-rd=2.00 / psy-rdoq=1.00 / no-rd-refine / no-lossless / cbqpoffs=0 / crqpoffs=0 / rc=crf / crf=20.0 / qcomp=0.70 / qpstep=4 / stats-write=0 / stats-read=0 / vbv-maxrate=50000 / vbv-bufsize=50000 / vbv-init=0.9 / min-vbv-fullness=50.0 / max-vbv-fullness=80.0 / crf-max=0.0 / crf-min=0.0 / ipratio=1.40 / pbratio=1.30 / aq-mode=2 / aq-strength=1.00 / no-cutree / zone-count=0 / no-strict-cbr / qg-size=32 / no-rc-grain / qpmax=69 / qpmin=0 / no-const-vbv / sar=1 / overscan=0 / videoformat=5 / range=0 / colorprim=1 / transfer=1 / colormatrix=1 / chromaloc=0 / display-window=0 / cll=0,0 / min-luma=0 / max-luma=1023 / log2-max-poc-lsb=8 / vui-timing-info / vui-hrd-info / slices=1 / no-opt-qp-pps / no-opt-ref-list-length-pps / no-multi-pass-opt-rps / scenecut-bias=0.05 / hist-threshold=0.03 / no-opt-cu-delta-qp / no-aq-motion / no-hdr10 / no-hdr10-opt / no-dhdr10-opt / no-idr-recovery-sei / analysis-reuse-level=0 / analysis-save-reuse-level=0 / analysis-load-reuse-level=0 / scale-factor=0 / refine-intra=0 / refine-inter=0 / refine-mv=1 / refine-ctu-distortion=0 / no-limit-sao / ctu-info=0 / no-lowpass-dct / refine-analysis-type=0 / copy-pic=1 / max-ausize-factor=1.0 / no-dynamic-refine / no-single-sei / no-hevc-aq / no-svt / no-field / qp-adaptation-range=1.00 / scenecut-aware-qp=0conformance-window-offsets / right=0 / bottom=0 / decoder-max-rate=0 / no-vbv-live-multi-pass
Default : Yes
Forced : No
Color range : Limited
Color primaries : BT.709
Transfer characteristics : BT.709
Matrix coefficients : BT.709

Audio #1
ID : 2
Format : AC-3
Format/Info : Audio Coding 3
Commercial name : Dolby Digital
Codec ID : A_AC3
Duration : 1 h 44 min
Bit rate mode : Constant
Bit rate : 640 kb/s
Channel(s) : 6 channels
Channel layout : L R C LFE Ls Rs
Sampling rate : 48.0 kHz
Frame rate : 31.250 FPS (1536 SPF)
Compression mode : Lossy
Stream size : 479 MiB (12%)
Title : Дублированный (BD EUR)
Language : Russian
Service kind : Complete Main
Default : Yes
Forced : No

Audio #2
ID : 3
Format : AC-3
Format/Info : Audio Coding 3
Commercial name : Dolby Digital
Codec ID : A_AC3
Duration : 1 h 44 min
Bit rate mode : Constant
Bit rate : 448 kb/s
Channel(s) : 6 channels
Channel layout : L R C LFE Ls Rs
Sampling rate : 48.0 kHz
Frame rate : 31.250 FPS (1536 SPF)
Compression mode : Lossy
Stream size : 335 MiB (8%)
Title : Дублированный (R5)
Language : Ukrainian
Service kind : Complete Main
Default : No
Forced : No

Audio #3
ID : 4
Format : AC-3
Format/Info : Audio Coding 3
Commercial name : Dolby Digital
Codec ID : A_AC3
Duration : 1 h 44 min
Bit rate mode : Constant
Bit rate : 640 kb/s
Channel(s) : 6 channels
Channel layout : L R C LFE Ls Rs
Sampling rate : 48.0 kHz
Frame rate : 31.250 FPS (1536 SPF)
Compression mode : Lossy
Stream size : 479 MiB (12%)
Title : DD 5.1 ch 640 Kbps
Language : English
Service kind : Complete Main
Default : No
Forced : No

Text #1
ID : 5
Format : UTF-8
Codec ID : S_TEXT/UTF8
Codec ID/Info : UTF-8 Plain Text
Duration : 1 h 39 min
Bit rate : 108 b/s
Count of elements : 1726
Stream size : 78.8 KiB (0%)
Title : Full-length
Language : Russian
Default : No
Forced : No

Text #2
ID : 6
Format : UTF-8
Codec ID : S_TEXT/UTF8
Codec ID/Info : UTF-8 Plain Text
Duration : 1 h 38 min
Bit rate : 131 b/s
Count of elements : 1589
Stream size : 95.4 KiB (0%)
Title : Full-length
Language : Ukrainian
Default : No
Forced : No

Text #3
ID : 7
Format : UTF-8
Codec ID : S_TEXT/UTF8
Codec ID/Info : UTF-8 Plain Text
Duration : 1 h 38 min
Bit rate : 88 b/s
Count of elements : 1569
Stream size : 64.2 KiB (0%)
Title : Full-length
Language : English
Default : No
Forced : No

Menu
00:00:00.000 : 00:00:00.000
00:03:29.835 : 00:03:29.835
00:06:50.910 : 00:06:50.910
00:11:51.753 : 00:11:51.753
00:16:53.804 : 00:16:53.804
00:22:41.610 : 00:22:41.610
00:27:37.614 : 00:27:37.614
00:35:42.849 : 00:35:42.849
00:44:07.645 : 00:44:07.645
00:51:58.240 : 00:51:58.240
01:02:12.270 : 01:02:12.270
01:07:22.622 : 01:07:22.622
01:14:18.412 : 01:14:18.412
01:22:37.411 : 01:22:37.411
01:27:59.441 : 01:27:59.441
01:34:14.065 : 01:34:14.065
Загрузка...Cкриншот1 Слишком крута для тебя / She's Out of My League (2010) BDRip 1080p [HEVC] 10 bit от HANNIBALЗагрузка...Cкриншот2 Слишком крута для тебя / She's Out of My League (2010) BDRip 1080p [HEVC] 10 bit от HANNIBALЗагрузка...Cкриншот3 Слишком крута для тебя / She's Out of My League (2010) BDRip 1080p [HEVC] 10 bit от HANNIBALЗагрузка...Cкриншот4 Слишком крута для тебя / She's Out of My League (2010) BDRip 1080p [HEVC] 10 bit от HANNIBAL
Сэмпл Торрент🧲 Магнет

Рейтинги КП и IMDB, кнопки "Позвать в чате" и "Спасибо", а также мультитрекерная статистика доступны только зарегистрированным/авторизованным пользователям!

Файлы: 1
  • She's Out of My League (2010) BDRip-HEVC 1080p 10bit.mkv   3.89 ГБ
Поблагодарили: 7
Andrey_alex, Brooklyn, donadar, gelOru, Nuclear70, StarLord, Velins
HANNIBAL
023103.89 ГБ

Добавление нового комментария

Добавление комментариев доступно только зарегистрированным/авторизованным пользователям.