💬 Мини-чат

OldGamerНасколько я помню, даже мой первый стик 2014 года тянул hevc, хотя и подтупливал на перемотке
OldGamerВыбирайте по цене и отзывам.
OldGamerСообщение удалено (удалил: OldGamer)
OldGamerЛюбой, всё что выпускалось за последние 3 года, вполне тянет hevc. Чуть раньше в чате ссылку давал на обсуждения на 4пда.
SAHA55Подскажите,пожалуйста какой купить медио плеер для просмотра видео в HEVC x265 с переносного жёсткого на 1 Тб. TV старый Panasonic
  • ancestor87
  • abtr
  • Blaster
  • sethsrt srt
Отправка сообщений доступна только зарегистрированным/авторизованным пользователям.
Онлайн (за 10 мин.): 4

Рокки 3 / Rocky III (1982) BDRip 1080p [HEVC] 10 bit от HANNIBAL

HEVC
10 bit
Обложка Рокки 3 / Rocky III (1982) BDRip 1080p [HEVC] 10 bit от HANNIBAL Год: 1982
Страна: США
Студия: Chartoff-Winkler Productions
Жанр: Драма, Спорт
Продолжительность: 01:39:38

Режиссер: Сильвестр Сталлоне
В ролях: Сильвестр Сталлоне, Талия Шайр, Берт Янг, Карл Уэзерс, Бёрджесс Мередит, Тони Бертон, Мистер Ти, Халк Хоган, Йен Фрид, Аль Сильвани

Описание: Одержав сокрушительную победу над Аполло Кридом, Рокки купается в лучах славы. Его окружает роскошь и престиж. Он с легкостью разделывается со всеми претендентами на его чемпионский пояс. Гонорары велики, а тренировки непродолжительны, и в результате Рокки начинает терять свою знаменитую скорость и точность. Плюс ко всему сказываются старые травмы — все-таки он пропускал слишком много ударов по голове. В итоге, когда на ринге появляется молодой непробиваемый, подобный урагану, боксер по имени Клаббер, Рокки оказывается неспособным выдержать его сокрушительные удары и падает мертвым грузом. После такого позора от него отворачиваются все, кроме бывшего врага, а теперь товарища по несчастью Аполло Крида.


Видео: 1920x1040, ~11.2 Mb/s
Аудио1: AC3, 6 ch, 640 Kbps - РусскийРусский, Многоголосый (Киномания)
Аудио2: AC3, 6 ch, 640 Kbps - РусскийРусский, Одноголосый (А.Гаврилов)
Аудио3: AC3, 6 ch, 640 Kbps - АнглийскийАнглийский, Оригинал
Субтитры: Русские, английские

Как за пару секунд удалить ненужные аудиодорожки и субтитры (Внимание! После удаления вы не сможете поддержать раздачу)

Лог (x265 info)
x265 [info]: frame I: 1418, Avg QP:17.71 kb/s: 27108.97
x265 [info]: frame P: 27195, Avg QP:18.96 kb/s: 17487.16
x265 [info]: frame B: 114716, Avg QP:21.00 kb/s: 9492.79
x265 [info]: Weighted P-Frames: Y:11.7% UV:9.7%
x265 [info]: Weighted B-Frames: Y:12.4% UV:9.5%
x265 [info]: consecutive B-frames: 7.2% 4.5% 5.7% 35.7% 4.9% 18.0% 3.5% 18.6% 0.8% 0.4% 0.2% 0.3% 0.2%
encoded 143329 frames in 270217.10s (0.53 fps), 11183.91 kb/s, Avg QP:20.58
Медиаинфо
General
Unique ID : 24726576558506683618167512368354272460 (0x129A2A591244E4BC9D9DC5958185A4CC)
Complete name : H:\HEVC-CLUB\Rocky\Rocky III (1982) BDRip-HEVC 1080p 10bit.mkv
Format : Matroska
Format version : Version 4
File size : 9.12 GiB
Duration : 1 h 39 min
Overall bit rate : 13.1 Mb/s
Movie name : by HANNIBAL
Encoded date : UTC 2021-09-03 13:41:53
Writing application : mkvmerge v56.0.0 ('Strasbourg / St. Denis') 64-bit
Writing library : libebml v1.4.2 + libmatroska v1.6.4
Cover : Yes
Attachments : cover.jpg

Video
ID : 1
Format : HEVC
Format/Info : High Efficiency Video Coding
Format profile : Main 10@L4.1@High
Codec ID : V_MPEGH/ISO/HEVC
Duration : 1 h 39 min
Bit rate : 11.2 Mb/s
Width : 1 920 pixels
Height : 1 040 pixels
Display aspect ratio : 1.85:1
Frame rate mode : Constant
Frame rate : 23.976 (23976/1000) FPS
Original frame rate : 23.976 (24000/1001) FPS
Color space : YUV
Chroma subsampling : 4:2:0
Bit depth : 10 bits
Bits/(Pixel*Frame) : 0.234
Stream size : 7.78 GiB (85%)
Writing library : x265 3.5+1-ce882936d:[Windows][GCC 10.2.0][64 bit] 10bit
Encoding settings : cpuid=1111039 / frame-threads=3 / numa-pools=12 / wpp / no-pmode / no-pme / no-psnr / no-ssim / log-level=2 / input-csp=1 / input-res=1920x1040 / interlace=0 / total-frames=143329 / level-idc=41 / high-tier=1 / uhd-bd=0 / ref=5 / no-allow-non-conformance / no-repeat-headers / annexb / no-aud / no-hrd / info / hash=0 / no-temporal-layers / open-gop / min-keyint=23 / keyint=240 / gop-lookahead=0 / bframes=12 / b-adapt=2 / b-pyramid / bframe-bias=0 / rc-lookahead=60 / lookahead-slices=4 / scenecut=40 / hist-scenecut=0 / radl=0 / no-splice / no-intra-refresh / ctu=32 / min-cu-size=8 / rect / amp / max-tu-size=32 / tu-inter-depth=4 / tu-intra-depth=4 / limit-tu=0 / rdoq-level=2 / dynamic-rd=0.00 / no-ssim-rd / signhide / no-tskip / nr-intra=0 / nr-inter=0 / no-constrained-intra / no-strong-intra-smoothing / max-merge=5 / limit-refs=0 / no-limit-modes / me=3 / subme=7 / merange=57 / temporal-mvp / no-frame-dup / no-hme / weightp / weightb / no-analyze-src-pics / deblock=0:0 / no-sao / no-sao-non-deblock / rd=4 / selective-sao=0 / no-early-skip / rskip / no-fast-intra / no-tskip-fast / no-cu-lossless / b-intra / no-splitrd-skip / rdpenalty=0 / psy-rd=2.00 / psy-rdoq=1.00 / no-rd-refine / no-lossless / cbqpoffs=0 / crqpoffs=0 / rc=crf / crf=20.0 / qcomp=0.70 / qpstep=4 / stats-write=0 / stats-read=0 / vbv-maxrate=50000 / vbv-bufsize=50000 / vbv-init=0.9 / min-vbv-fullness=50.0 / max-vbv-fullness=80.0 / crf-max=0.0 / crf-min=0.0 / ipratio=1.40 / pbratio=1.30 / aq-mode=2 / aq-strength=1.00 / no-cutree / zone-count=0 / no-strict-cbr / qg-size=32 / no-rc-grain / qpmax=69 / qpmin=0 / no-const-vbv / sar=1 / overscan=0 / videoformat=5 / range=0 / colorprim=1 / transfer=1 / colormatrix=1 / chromaloc=0 / display-window=0 / cll=0,0 / min-luma=0 / max-luma=1023 / log2-max-poc-lsb=8 / vui-timing-info / vui-hrd-info / slices=1 / no-opt-qp-pps / no-opt-ref-list-length-pps / no-multi-pass-opt-rps / scenecut-bias=0.05 / hist-threshold=0.03 / no-opt-cu-delta-qp / no-aq-motion / no-hdr10 / no-hdr10-opt / no-dhdr10-opt / no-idr-recovery-sei / analysis-reuse-level=0 / analysis-save-reuse-level=0 / analysis-load-reuse-level=0 / scale-factor=0 / refine-intra=0 / refine-inter=0 / refine-mv=1 / refine-ctu-distortion=0 / no-limit-sao / ctu-info=0 / no-lowpass-dct / refine-analysis-type=0 / copy-pic=1 / max-ausize-factor=1.0 / no-dynamic-refine / no-single-sei / no-hevc-aq / no-svt / no-field / qp-adaptation-range=1.00 / scenecut-aware-qp=0conformance-window-offsets / right=0 / bottom=0 / decoder-max-rate=0 / no-vbv-live-multi-pass
Default : Yes
Forced : No
Color range : Limited
Color primaries : BT.709
Transfer characteristics : BT.709
Matrix coefficients : BT.709

Audio #1
ID : 2
Format : AC-3
Format/Info : Audio Coding 3
Commercial name : Dolby Digital
Codec ID : A_AC3
Duration : 1 h 39 min
Bit rate mode : Constant
Bit rate : 640 kb/s
Channel(s) : 6 channels
Channel layout : L R C LFE Ls Rs
Sampling rate : 48.0 kHz
Frame rate : 31.250 FPS (1536 SPF)
Compression mode : Lossy
Stream size : 456 MiB (5%)
Title : Многоголосый закадровый, Киномания
Language : Russian
Service kind : Complete Main
Default : Yes
Forced : No

Audio #2
ID : 3
Format : AC-3
Format/Info : Audio Coding 3
Commercial name : Dolby Digital
Codec ID : A_AC3
Duration : 1 h 39 min
Bit rate mode : Constant
Bit rate : 640 kb/s
Channel(s) : 6 channels
Channel layout : L R C LFE Ls Rs
Sampling rate : 48.0 kHz
Frame rate : 31.250 FPS (1536 SPF)
Compression mode : Lossy
Stream size : 456 MiB (5%)
Title : Одноголосый закадровый, А.Гаврилов
Language : Russian
Service kind : Complete Main
Default : No
Forced : No

Audio #3
ID : 4
Format : AC-3
Format/Info : Audio Coding 3
Commercial name : Dolby Digital
Codec ID : A_AC3
Duration : 1 h 39 min
Bit rate mode : Constant
Bit rate : 640 kb/s
Channel(s) : 6 channels
Channel layout : L R C LFE Ls Rs
Sampling rate : 48.0 kHz
Frame rate : 31.250 FPS (1536 SPF)
Compression mode : Lossy
Stream size : 456 MiB (5%)
Title : English
Language : English
Service kind : Complete Main
Default : No
Forced : No

Text #1
ID : 5
Format : UTF-8
Codec ID : S_TEXT/UTF8
Codec ID/Info : UTF-8 Plain Text
Duration : 1 h 35 min
Bit rate : 119 b/s
Count of elements : 1458
Stream size : 83.8 KiB (0%)
Title : Russian
Language : Russian
Default : No
Forced : No

Text #2
ID : 6
Format : UTF-8
Codec ID : S_TEXT/UTF8
Codec ID/Info : UTF-8 Plain Text
Duration : 1 h 38 min
Bit rate : 106 b/s
Count of elements : 1887
Stream size : 77.2 KiB (0%)
Title : English
Language : English
Default : No
Forced : No

Menu
00:00:00.000 : :Chapter 01
00:03:12.442 : :Chapter 02
00:06:51.952 : :Chapter 03
00:12:58.736 : :Chapter 04
00:23:07.636 : :Chapter 05
00:33:45.940 : :Chapter 06
00:37:56.815 : :Chapter 07
00:48:27.154 : :Chapter 08
00:54:41.695 : :Chapter 09
00:58:54.948 : :Chapter 10
01:03:39.482 : :Chapter 11
01:10:44.615 : :Chapter 12
01:15:28.689 : :Chapter 13
01:18:54.146 : :Chapter 14
01:34:32.957 : :Chapter 15
01:36:25.237 : :Chapter 16
Загрузка...Cкриншот1 Рокки 3 / Rocky III (1982) BDRip 1080p [HEVC] 10 bit от HANNIBALЗагрузка...Cкриншот2 Рокки 3 / Rocky III (1982) BDRip 1080p [HEVC] 10 bit от HANNIBALЗагрузка...Cкриншот3 Рокки 3 / Rocky III (1982) BDRip 1080p [HEVC] 10 bit от HANNIBALЗагрузка...Cкриншот4 Рокки 3 / Rocky III (1982) BDRip 1080p [HEVC] 10 bit от HANNIBAL
Сэмпл Торрент🧲 Магнет

Рейтинги КП и IMDB, кнопки "Позвать в чате" и "Спасибо", а также мультитрекерная статистика доступны только зарегистрированным/авторизованным пользователям!

Файлы: 1
  • Rocky III (1982) BDRip-HEVC 1080p 10bit.mkv   9.12 ГБ
Поблагодарили: 3
Nuclear70, sharkey71, torrentzulu
HANNIBAL
019109.12 ГБ

Добавление нового комментария

Добавление комментариев доступно только зарегистрированным/авторизованным пользователям.