💬 Мини-чат

OldGamerНасколько я помню, даже мой первый стик 2014 года тянул hevc, хотя и подтупливал на перемотке
OldGamerВыбирайте по цене и отзывам.
OldGamerСообщение удалено (удалил: OldGamer)
OldGamerЛюбой, всё что выпускалось за последние 3 года, вполне тянет hevc. Чуть раньше в чате ссылку давал на обсуждения на 4пда.
SAHA55Подскажите,пожалуйста какой купить медио плеер для просмотра видео в HEVC x265 с переносного жёсткого на 1 Тб. TV старый Panasonic
  • abtr
  • sahabandit
Отправка сообщений доступна только зарегистрированным/авторизованным пользователям.
Онлайн (за 10 мин.): 2

Фанфан-Тюльпан / Fanfan la Tulipe (1952) BDRip 1080p [HEVC] 10 bit от OldGamer (RG RIPS CLUB)

HEVC
10 bit
Обложка Фанфан-Тюльпан / Fanfan la Tulipe (1952) BDRip 1080p [HEVC] 10 bit от OldGamer (RG RIPS CLUB) Год: 1952
Страна: Италия, Франция
Студия: Amato Produzione, Filmsonor S.A., Les Films Ariane, Rizzoli Editore
Жанр: Мелодрама, Комедия, Приключения, Военный
Продолжительность: 01:36:28

Режиссер: Кристиан-Жак
В ролях: Жерар Филип, Джина Лоллобриджида, Марсель Эрран, Оливье Юссно, Анри Роллан, Женевьев Паж, Жан-Марк Тенберг, Нерио Бернарди, Сильви Пелайо, Лолита Де Силва

Описание: Молодой красавец Фанфан идёт в армию, чтобы избежать насильственной женитьбы и осуществить предсказание цыганки, нагадавшей ему славу воина и невесту королевской крови. На деле очаровательная предсказательница оказывается дочерью офицера, вербующего крестьян в армию. Узнав про эту хитрость, Фанфан не отступается от своей мечты и, полный надежд на исполнение предсказаний лже-цыганки, встаёт под королевские знамёна…


Исходник: Blu-Ray Remux 1080p
Видео: 1480x1080 (1.37:1), 11,7 Мбит/сек, HEVC (Main10@L.4.1@High)
Аудио1: AC3, 2 ch, 192 Kbps - РусскийРусский, DUB (к/с им. М.Горького)
Аудио2: AC3, 2 ch, 192 Kbps - РусскийРусский, MVO (DVD Magic)
Аудио3: AC3, 2 ch, 192 Kbps - РусскийРусский, MVO (SomeWax)
Аудио4: AC3, 2 ch, 192 Kbps - РусскийРусский, MVO (Позитив-Мультимедиа)
Аудио5: AC3, 2 ch, 192 Kbps - РусскийРусский, DVO (НТВ)
Аудио6: AC3, 2 ch, 192 Kbps - РусскийРусский, VO (НПО "Видеофильм")
Аудио7: AC3, 2 ch, 192 Kbps - УкраинскийУкраинский, MVO (Enter-фильм)
Аудио8: AC3, 2 ch, 192 Kbps - УкраинскийУкраинский, MVO (Перший)
Аудио9: AC3, 2 ch, 640 Kbps - FrenchFrench, Original
Субтитры: Русские полные (SRT), English full (SRT), French full (SRT)

Как за пару секунд удалить ненужные аудиодорожки и субтитры (Внимание! После удаления вы не сможете поддержать раздачу)

Лог (x265 info)
x265 [info]: frame I: 597, Avg QP:16.56 kb/s: 28472.75
x265 [info]: frame P: 30052, Avg QP:18.06 kb/s: 22015.84
x265 [info]: frame B: 112592, Avg QP:19.88 kb/s: 8833.24
x265 [info]: Weighted P-Frames: Y:12.7% UV:0.1%
x265 [info]: Weighted B-Frames: Y:6.0% UV:0.0%
x265 [info]: consecutive B-frames: 1.3% 2.9% 6.0% 44.3% 16.6% 23.8% 2.3% 2.5% 0.2% 0.1% 0.0%
x265 [info]: encoded 143241 frames in 121469.57s (1.18 fps), 11680.81 kb/s, Avg QP:19.49
Медиаинфо
Общее
Уникальный идентификатор : 268886009821469272856613997510491017092 (0xCA498FD1BE965E61AA318FB40F2A8F84)
Полное имя : \\.\Фанфан-Тюльпан.Fanfan.la.tulipe.FRA.Transfer.1952.BDRip-HEVC.1080p.mkv
Формат : Matroska
Версия формата : Version 4
Размер файла : 9,63 Гбайт
Продолжительность : 1 ч. 39 м.
Общий поток : 13,9 Мбит/сек
Название фильма : Фанфан-Тюльпан.Fanfan.la.tulipe.FRA.Transfer.1952.BDRip-HEVC.1080p
Дата кодирования : UTC 2021-09-03 19:28:19
Программа кодирования : mkvmerge v61.0.0 ('So') 64-bit
Библиотека кодирования : libebml v1.4.2 + libmatroska v1.6.4

Видео
Идентификатор : 1
Формат : HEVC
Формат/Информация : High Efficiency Video Coding
Профиль формата : Main 10@L4.1@High
Идентификатор кодека : V_MPEGH/ISO/HEVC
Продолжительность : 1 ч. 39 м.
Битрейт : 11,7 Мбит/сек
Ширина : 1 480 пикселей
Высота : 1 080 пикселей
Соотношение сторон : 1,370
Режим частоты кадров : Постоянный
Частота кадров : 24,000 кадра/сек
Цветовое пространство : YUV
Субдискретизация насыщенности : 4:2:0
Битовая глубина : 10 бит
Бит/(Пиксели*Кадры) : 0.305
Размер потока : 8,12 Гбайт (84%)
Заголовок : Fanfan la Tulipe / Rip by OldGamer
Библиотека кодирования : x265 3.5+13-4c6880de4:[Windows][GCC 11.2.0][64 bit] 10bit
Настройки программы : cpuid=1111039 / frame-threads=3 / numa-pools=8 / wpp / no-pmode / no-pme / no-psnr / no-ssim / log-level=2 / input-csp=1 / input-res=1480x1080 / interlace=0 / total-frames=143241 / level-idc=41 / high-tier=1 / uhd-bd=0 / ref=5 / no-allow-non-conformance / no-repeat-headers / annexb / no-aud / no-eob / no-eos / no-hrd / info / hash=0 / no-temporal-layers / open-gop / min-keyint=23 / keyint=240 / gop-lookahead=0 / bframes=10 / b-adapt=2 / b-pyramid / bframe-bias=0 / rc-lookahead=40 / lookahead-slices=0 / scenecut=40 / no-hist-scenecut / radl=0 / no-splice / no-intra-refresh / ctu=32 / min-cu-size=8 / rect / amp / max-tu-size=32 / tu-inter-depth=4 / tu-intra-depth=4 / limit-tu=1 / rdoq-level=2 / dynamic-rd=0.00 / no-ssim-rd / signhide / no-tskip / nr-intra=0 / nr-inter=0 / no-constrained-intra / no-strong-intra-smoothing / max-merge=5 / limit-refs=3 / no-limit-modes / me=3 / subme=7 / merange=57 / temporal-mvp / no-frame-dup / no-hme / weightp / weightb / no-analyze-src-pics / deblock=-3:-3 / no-sao / no-sao-non-deblock / rd=6 / selective-sao=0 / no-early-skip / no-rskip / no-fast-intra / no-tskip-fast / no-cu-lossless / b-intra / no-splitrd-skip / rdpenalty=0 / psy-rd=2.00 / psy-rdoq=1.00 / no-rd-refine / no-lossless / cbqpoffs=0 / crqpoffs=0 / rc=crf / crf=18.0 / qcomp=0.60 / qpstep=4 / stats-write=0 / stats-read=0 / vbv-maxrate=50000 / vbv-bufsize=50000 / vbv-init=0.9 / min-vbv-fullness=50.0 / max-vbv-fullness=80.0 / crf-max=0.0 / crf-min=0.0 / ipratio=1.40 / pbratio=1.30 / aq-mode=1 / aq-strength=1.00 / no-cutree / zone-count=1 / zones: / start-frame=143167 / end-frame=143241 / qp=36 / no-strict-cbr / qg-size=32 / no-rc-grain / qpmax=69 / qpmin=0 / no-const-vbv / sar=1 / overscan=0 / videoformat=5 / range=0 / colorprim=2 / transfer=2 / colormatrix=2 / chromaloc=0 / display-window=0 / cll=0,0 / min-luma=0 / max-luma=1023 / log2-max-poc-lsb=8 / vui-timing-info / vui-hrd-info / slices=1 / no-opt-qp-pps / no-opt-ref-list-length-pps / no-multi-pass-opt-rps / scenecut-bias=0.00 / hist-threshold=0.03 / no-opt-cu-delta-qp / no-aq-motion / no-hdr10 / no-hdr10-opt / no-dhdr10-opt / no-idr-recovery-sei / analysis-reuse-level=0 / analysis-save-reuse-level=0 / analysis-load-reuse-level=0 / scale-factor=0 / refine-intra=0 / refine-inter=0 / refine-mv=1 / refine-ctu-distortion=0 / no-limit-sao / ctu-info=0 / no-lowpass-dct / refine-analysis-type=0 / copy-pic=1 / max-ausize-factor=1.0 / no-dynamic-refine / no-single-sei / no-hevc-aq / no-svt / no-field / qp-adaptation-range=1.00 / scenecut-aware-qp=0conformance-window-offsets / right=0 / bottom=0 / decoder-max-rate=0 / no-vbv-live-multi-pass
Язык : French
Default : Да
Forced : Нет

Аудио #1
Идентификатор : 2
ID in the original source medium : 4352 (0x1100)
Формат : AC-3
Формат/Информация : Audio Coding 3
Коммерческое название : Dolby Digital
Идентификатор кодека : A_AC3
Продолжительность : 1 ч. 39 м.
Вид битрейта : Постоянный
Битрейт : 192 Кбит/сек
Каналы : 2 канала
Channel layout : L R
Частота : 48,0 КГц
Частота кадров : 31,250 кадров/сек (1536 SPF)
Метод сжатия : С потерями
Размер потока : 137 Мбайт (1%)
Заголовок : DUB (к/с им. М.Горького)
Язык : Russian
Service kind : Complete Main
Default : Да
Forced : Нет
Носитель оригинала : Blu-ray

Аудио #2
Идентификатор : 3
ID in the original source medium : 4353 (0x1101)
Формат : AC-3
Формат/Информация : Audio Coding 3
Коммерческое название : Dolby Digital
Идентификатор кодека : A_AC3
Продолжительность : 1 ч. 39 м.
Вид битрейта : Постоянный
Битрейт : 192 Кбит/сек
Каналы : 2 канала
Channel layout : L R
Частота : 48,0 КГц
Частота кадров : 31,250 кадров/сек (1536 SPF)
Метод сжатия : С потерями
Размер потока : 137 Мбайт (1%)
Заголовок : MVO (DVD Magic)
Язык : Russian
Service kind : Complete Main
Default : Нет
Forced : Нет
Носитель оригинала : Blu-ray

Аудио #3
Идентификатор : 4
ID in the original source medium : 4354 (0x1102)
Формат : AC-3
Формат/Информация : Audio Coding 3
Коммерческое название : Dolby Digital
Идентификатор кодека : A_AC3
Продолжительность : 1 ч. 39 м.
Вид битрейта : Постоянный
Битрейт : 192 Кбит/сек
Каналы : 2 канала
Channel layout : L R
Частота : 48,0 КГц
Частота кадров : 31,250 кадров/сек (1536 SPF)
Метод сжатия : С потерями
Размер потока : 137 Мбайт (1%)
Заголовок : MVO (SomeWax)
Язык : Russian
Service kind : Complete Main
Default : Нет
Forced : Нет
Носитель оригинала : Blu-ray

Аудио #4
Идентификатор : 5
ID in the original source medium : 4355 (0x1103)
Формат : AC-3
Формат/Информация : Audio Coding 3
Коммерческое название : Dolby Digital
Идентификатор кодека : A_AC3
Продолжительность : 1 ч. 39 м.
Вид битрейта : Постоянный
Битрейт : 192 Кбит/сек
Каналы : 2 канала
Channel layout : L R
Частота : 48,0 КГц
Частота кадров : 31,250 кадров/сек (1536 SPF)
Метод сжатия : С потерями
Размер потока : 137 Мбайт (1%)
Заголовок : MVO (Позитив-Мультимедиа)
Язык : Russian
Service kind : Complete Main
Default : Нет
Forced : Нет
Носитель оригинала : Blu-ray

Аудио #5
Идентификатор : 6
ID in the original source medium : 4356 (0x1104)
Формат : AC-3
Формат/Информация : Audio Coding 3
Коммерческое название : Dolby Digital
Идентификатор кодека : A_AC3
Продолжительность : 1 ч. 39 м.
Вид битрейта : Постоянный
Битрейт : 192 Кбит/сек
Каналы : 2 канала
Channel layout : L R
Частота : 48,0 КГц
Частота кадров : 31,250 кадров/сек (1536 SPF)
Метод сжатия : С потерями
Размер потока : 137 Мбайт (1%)
Заголовок : DVO (НТВ)
Язык : Russian
Service kind : Complete Main
Default : Нет
Forced : Нет
Носитель оригинала : Blu-ray

Аудио #6
Идентификатор : 7
ID in the original source medium : 4357 (0x1105)
Формат : AC-3
Формат/Информация : Audio Coding 3
Коммерческое название : Dolby Digital
Идентификатор кодека : A_AC3
Продолжительность : 1 ч. 39 м.
Вид битрейта : Постоянный
Битрейт : 192 Кбит/сек
Каналы : 2 канала
Channel layout : L R
Частота : 48,0 КГц
Частота кадров : 31,250 кадров/сек (1536 SPF)
Метод сжатия : С потерями
Размер потока : 137 Мбайт (1%)
Заголовок : VO (НПО "Видеофильм")
Язык : Russian
Service kind : Complete Main
Default : Нет
Forced : Нет
Носитель оригинала : Blu-ray

Аудио #7
Идентификатор : 8
ID in the original source medium : 4359 (0x1107)
Формат : AC-3
Формат/Информация : Audio Coding 3
Коммерческое название : Dolby Digital
Идентификатор кодека : A_AC3
Продолжительность : 1 ч. 39 м.
Вид битрейта : Постоянный
Битрейт : 192 Кбит/сек
Каналы : 2 канала
Channel layout : L R
Частота : 48,0 КГц
Частота кадров : 31,250 кадров/сек (1536 SPF)
Метод сжатия : С потерями
Размер потока : 137 Мбайт (1%)
Заголовок : MVO (Enter-фильм)
Язык : Ukrainian
Service kind : Complete Main
Default : Нет
Forced : Нет
Носитель оригинала : Blu-ray

Аудио #8
Идентификатор : 9
ID in the original source medium : 4360 (0x1108)
Формат : AC-3
Формат/Информация : Audio Coding 3
Коммерческое название : Dolby Digital
Идентификатор кодека : A_AC3
Продолжительность : 1 ч. 39 м.
Вид битрейта : Постоянный
Битрейт : 192 Кбит/сек
Каналы : 2 канала
Channel layout : L R
Частота : 48,0 КГц
Частота кадров : 31,250 кадров/сек (1536 SPF)
Метод сжатия : С потерями
Размер потока : 137 Мбайт (1%)
Заголовок : MVO (Перший)
Язык : Ukrainian
Service kind : Complete Main
Default : Нет
Forced : Нет
Носитель оригинала : Blu-ray

Аудио #9
Идентификатор : 10
Формат : AC-3
Формат/Информация : Audio Coding 3
Коммерческое название : Dolby Digital
Идентификатор кодека : A_AC3
Продолжительность : 1 ч. 39 м.
Вид битрейта : Постоянный
Битрейт : 640 Кбит/сек
Каналы : 2 канала
Channel layout : L R
Частота : 48,0 КГц
Частота кадров : 31,250 кадров/сек (1536 SPF)
Метод сжатия : С потерями
Размер потока : 455 Мбайт (5%)
Язык : French
Service kind : Complete Main
Default : Нет
Forced : Нет

Текст #1
Идентификатор : 11
Формат : UTF-8
Идентификатор кодека : S_TEXT/UTF8
Идентификатор кодека/Информация : UTF-8 Plain Text
Продолжительность : 1 ч. 39 м.
Битрейт : 99 бит/сек
Count of elements : 1110
Размер потока : 72,1 Кбайт (0%)
Язык : Russian
Default : Нет
Forced : Нет

Текст #2
Идентификатор : 12
Формат : UTF-8
Идентификатор кодека : S_TEXT/UTF8
Идентификатор кодека/Информация : UTF-8 Plain Text
Продолжительность : 1 ч. 36 м.
Битрейт : 49 бит/сек
Count of elements : 1082
Размер потока : 35,2 Кбайт (0%)
Язык : English
Default : Нет
Forced : Нет

Текст #3
Идентификатор : 13
Формат : UTF-8
Идентификатор кодека : S_TEXT/UTF8
Идентификатор кодека/Информация : UTF-8 Plain Text
Продолжительность : 1 ч. 37 м.
Битрейт : 69 бит/сек
Count of elements : 1329
Размер потока : 49,5 Кбайт (0%)
Язык : French
Default : Нет
Forced : Нет

Меню
00:00:00.000 : Chapter 01
00:10:24.666 : Chapter 02
00:23:55.875 : Chapter 03
00:39:24.791 : Chapter 04
00:51:36.333 : Chapter 05
01:05:49.875 : Chapter 06
01:13:11.916 : Chapter 07
01:22:45.250 : Chapter 08
01:32:52.375 : Chapter 09
Загрузка...Cкриншот1 Фанфан-Тюльпан / Fanfan la Tulipe (1952) BDRip 1080p [HEVC] 10 bit от OldGamer (RG RIPS CLUB)Загрузка...Cкриншот2 Фанфан-Тюльпан / Fanfan la Tulipe (1952) BDRip 1080p [HEVC] 10 bit от OldGamer (RG RIPS CLUB)Загрузка...Cкриншот3 Фанфан-Тюльпан / Fanfan la Tulipe (1952) BDRip 1080p [HEVC] 10 bit от OldGamer (RG RIPS CLUB)Загрузка...Cкриншот4 Фанфан-Тюльпан / Fanfan la Tulipe (1952) BDRip 1080p [HEVC] 10 bit от OldGamer (RG RIPS CLUB)
Релиз-группа: RIPS CLUB
Сэмпл Торрент🧲 Магнет

Рейтинги КП и IMDB, кнопки "Позвать в чате" и "Спасибо", а также мультитрекерная статистика доступны только зарегистрированным/авторизованным пользователям!

Файлы: 1
  • Фанфан-Тюльпан.Fanfan.la.tulipe.FRA.Transfer.1952.BDRip-HEVC.1080p.mkv   9.63 ГБ
Поблагодарили: 13
and50, animen67, donadar, Elico1977, Giggalo, han-nik, iona999, ivan_1965, Kiran, makss333, Mr. Fox, Spartanec1308, StarLord
OldGamer
096809.63 ГБ

Добавление нового комментария

Добавление комментариев доступно только зарегистрированным/авторизованным пользователям.