💬 Мини-чат

OldGamerНасколько я помню, даже мой первый стик 2014 года тянул hevc, хотя и подтупливал на перемотке
OldGamerВыбирайте по цене и отзывам.
OldGamerСообщение удалено (удалил: OldGamer)
OldGamerЛюбой, всё что выпускалось за последние 3 года, вполне тянет hevc. Чуть раньше в чате ссылку давал на обсуждения на 4пда.
SAHA55Подскажите,пожалуйста какой купить медио плеер для просмотра видео в HEVC x265 с переносного жёсткого на 1 Тб. TV старый Panasonic
  • A1eksandr1
  • abtr
  • alexyak
Отправка сообщений доступна только зарегистрированным/авторизованным пользователям.
Онлайн (за 10 мин.): 3

Пророк / The Prophet (2014) BDRip 1080p [HEVC] 10 bit от -Star-Lord- (RG RIPS CLUB)

HEVC
10 bit
Обложка Пророк / The Prophet (2014) BDRip 1080p [HEVC] 10 bit от -Star-Lord- (RG RIPS CLUB) Год: 2014
Страна: США, Франция, Канада, Ливан, Катар
Студия: Bardel Entertainment Inc, Code Red, Creative Projects Group
Жанр: Мультфильм, Драма
Продолжительность: 01:25:18

Режиссер: Роджер Аллерс
В ролях: Лиам Нисон, Сальма Хайек, Джон Красински, Фрэнк Ланджелла, Альфред Молина, Куавенжане Уоллис, Ассаф Коэн, Джон Кассир, Ник Джеймисон, Фред Таташиор

Описание: Камила, мать-одиночка, устроилась работать по дому у Мустафы — чужеземного поэта, художника и политического деятеля, который содержится под домашним арестом. Солдат Халим, приставленный сторожить Мустафу, втайне питает к Камиле нежные чувства. Дочь Камилы Альмитра после смерти отца разучилась говорить, она доставляет всем уйму неприятностей и часто крадёт товары у местных торговцев. Единственные друзья Альмитры — это чайки, она даже как-то общается с ними, издавая крики, похожие на птичьи. Когда появляется напыщенный сержант и сообщает Мустафе, что тот свободен, но должен до конца дня отплыть к себе на родину, весь город охватывает ликование. Люди, которые любят Мустафу и почитают его как своего учителя, поздравляют его со счастливым избавлением. Однако оказывается, что за великодушным предложением свободы скрывается нечто другое…


Видео: 1920x1080, ~5634 Кбит/сек
Аудио1: AC3, 2 ch, 192 Kbps - РусскийРусский, Профессиональный многоголосый закадровый (2x2)
Аудио2: AC3, 6 ch, 640 Kbps - РусскийРусский, Любительский многоголосый закадровый (GreenРай Studio)
Аудио3: AC3, 6 ch, 640 Kbps - АнглийскийАнглийский, Оригинал
Субтитры: русские (полные х2), английские (полные, SDH)

Как за пару секунд удалить ненужные аудиодорожки и субтитры (Внимание! После удаления вы не сможете поддержать раздачу)

Лог (x265 info)
x265 [info]: frame I: 1041, Avg QP:14.81 kb/s: 51676.39
x265 [info]: frame P: 34626, Avg QP:17.22 kb/s: 10934.05
x265 [info]: frame B: 87054, Avg QP:20.25 kb/s: 2974.56
x265 [info]: Weighted P-Frames: Y:5.9% UV:4.5%
x265 [info]: Weighted B-Frames: Y:6.8% UV:4.9%
x265 [info]: consecutive B-frames: 16.0% 12.6% 21.7% 31.2% 9.7% 5.1% 1.4% 0.9% 0.5% 0.3% 0.2% 0.2% 0.1% 0.0% 0.0% 0.1% 0.1%

encoded 122721 frames in 152450.52s (0.80 fps), 5633.47 kb/s, Avg QP:19.35
Медиаинфо
General
Unique ID : 179031511627016566679534441111537034364 (0x86B0370533EA0F59CB9D8A593683A47C)
Complete name : The Prophet (2014) BDRip 1080p H.265 [2xRUS_ENG] [RIPS-CLUB].mkv
Format : Matroska
Format version : Version 4
File size : 4.24 GiB
Duration : 1 h 25 min
Overall bit rate : 7 112 kb/s
Movie name : Пророк / The Prophet (2014)
Encoded date : UTC 2021-09-03 21:40:36
Writing application : mkvmerge v20.0.0 ('I Am The Sun') 64-bit
Writing library : libebml v1.3.5 + libmatroska v1.4.8
Cover : Yes
Attachments : Cover.jpg

Video
ID : 1
Format : HEVC
Format/Info : High Efficiency Video Coding
Format profile : Main 10@L4.1@High
Codec ID : V_MPEGH/ISO/HEVC
Duration : 1 h 25 min
Bit rate : 5 634 kb/s
Width : 1 920 pixels
Height : 1 080 pixels
Display aspect ratio : 16:9
Frame rate mode : Constant
Frame rate : 23.976 (24000/1001) FPS
Color space : YUV
Chroma subsampling : 4:2:0
Bit depth : 10 bits
Bits/(Pixel*Frame) : 0.113
Stream size : 3.36 GiB (79%)
Title : Пророк / The Prophet (2014)
Writing library : x265 3.5+1-ce882936d:[Windows][GCC 10.2.0][64 bit] 10bit
Encoding settings : cpuid=1111039 / frame-threads=3 / numa-pools=12 / wpp / no-pmode / no-pme / no-psnr / no-ssim / log-level=2 / input-csp=1 / input-res=1920x1080 / interlace=0 / total-frames=122721 / level-idc=41 / high-tier=1 / uhd-bd=0 / ref=5 / no-allow-non-conformance / no-repeat-headers / annexb / no-aud / no-hrd / info / hash=0 / no-temporal-layers / open-gop / min-keyint=23 / keyint=240 / gop-lookahead=0 / bframes=16 / b-adapt=2 / b-pyramid / bframe-bias=0 / rc-lookahead=60 / lookahead-slices=4 / scenecut=40 / hist-scenecut=0 / radl=0 / no-splice / no-intra-refresh / ctu=32 / min-cu-size=8 / rect / amp / max-tu-size=32 / tu-inter-depth=4 / tu-intra-depth=4 / limit-tu=1 / rdoq-level=2 / dynamic-rd=0.00 / no-ssim-rd / signhide / no-tskip / nr-intra=0 / nr-inter=0 / no-constrained-intra / no-strong-intra-smoothing / max-merge=5 / limit-refs=2 / limit-modes / me=3 / subme=7 / merange=57 / temporal-mvp / no-frame-dup / no-hme / weightp / weightb / no-analyze-src-pics / deblock=-3:-3 / no-sao / no-sao-non-deblock / rd=6 / selective-sao=0 / no-early-skip / no-rskip / no-fast-intra / no-tskip-fast / no-cu-lossless / no-b-intra / no-splitrd-skip / rdpenalty=0 / psy-rd=2.00 / psy-rdoq=1.00 / no-rd-refine / no-lossless / cbqpoffs=0 / crqpoffs=0 / rc=crf / crf=20.0 / qcomp=0.70 / qpstep=4 / stats-write=0 / stats-read=0 / vbv-maxrate=50000 / vbv-bufsize=50000 / vbv-init=0.9 / min-vbv-fullness=50.0 / max-vbv-fullness=80.0 / crf-max=0.0 / crf-min=0.0 / ipratio=1.40 / pbratio=1.30 / aq-mode=1 / aq-strength=1.00 / no-cutree / zone-count=0 / no-strict-cbr / qg-size=32 / no-rc-grain / qpmax=69 / qpmin=0 / no-const-vbv / sar=1 / overscan=0 / videoformat=5 / range=0 / colorprim=2 / transfer=2 / colormatrix=2 / chromaloc=0 / display-window=0 / cll=0,0 / min-luma=0 / max-luma=1023 / log2-max-poc-lsb=8 / vui-timing-info / vui-hrd-info / slices=1 / no-opt-qp-pps / no-opt-ref-list-length-pps / no-multi-pass-opt-rps / scenecut-bias=0.05 / hist-threshold=0.03 / no-opt-cu-delta-qp / no-aq-motion / no-hdr10 / no-hdr10-opt / no-dhdr10-opt / no-idr-recovery-sei / analysis-reuse-level=0 / analysis-save-reuse-level=0 / analysis-load-reuse-level=0 / scale-factor=0 / refine-intra=0 / refine-inter=0 / refine-mv=1 / refine-ctu-distortion=0 / no-limit-sao / ctu-info=0 / no-lowpass-dct / refine-analysis-type=0 / copy-pic=1 / max-ausize-factor=1.0 / no-dynamic-refine / no-single-sei / no-hevc-aq / no-svt / no-field / qp-adaptation-range=1.00 / scenecut-aware-qp=0conformance-window-offsets / right=0 / bottom=0 / decoder-max-rate=0 / no-vbv-live-multi-pass
Language : English
Default : Yes
Forced : Yes

Audio #1
ID : 2
Format : AC-3
Format/Info : Audio Coding 3
Commercial name : Dolby Digital
Codec ID : A_AC3
Duration : 1 h 25 min
Bit rate mode : Constant
Bit rate : 192 kb/s
Channel(s) : 2 channels
Channel layout : L R
Sampling rate : 48.0 kHz
Frame rate : 31.250 FPS (1536 SPF)
Compression mode : Lossy
Stream size : 117 MiB (3%)
Title : AC-3 / 2.0 Ch / 192 kbps / MVO / 2x2
Language : Russian
Service kind : Complete Main
Default : Yes
Forced : Yes

Audio #2
ID : 3
Format : AC-3
Format/Info : Audio Coding 3
Commercial name : Dolby Digital
Codec ID : A_AC3
Duration : 1 h 25 min
Bit rate mode : Constant
Bit rate : 640 kb/s
Channel(s) : 6 channels
Channel layout : L R C LFE Ls Rs
Sampling rate : 48.0 kHz
Frame rate : 31.250 FPS (1536 SPF)
Compression mode : Lossy
Stream size : 391 MiB (9%)
Title : AC-3 / 5.1 Ch / 640 kbps / MVO / GreenРай Studio
Language : Russian
Service kind : Complete Main
Default : No
Forced : No

Audio #3
ID : 4
Format : AC-3
Format/Info : Audio Coding 3
Commercial name : Dolby Digital
Codec ID : A_AC3
Duration : 1 h 25 min
Bit rate mode : Constant
Bit rate : 640 kb/s
Channel(s) : 6 channels
Channel layout : L R C LFE Ls Rs
Sampling rate : 48.0 kHz
Frame rate : 31.250 FPS (1536 SPF)
Compression mode : Lossy
Stream size : 391 MiB (9%)
Title : AC-3 / 5.1 Ch / 640 kbps / Original
Language : English
Service kind : Complete Main
Default : No
Forced : No

Text #1
ID : 5
Format : UTF-8
Codec ID : S_TEXT/UTF8
Codec ID/Info : UTF-8 Plain Text
Duration : 1 h 16 min
Bit rate : 94 b/s
Count of elements : 928
Stream size : 53.1 KiB (0%)
Title : А. Графф
Language : Russian
Default : No
Forced : No

Text #2
ID : 6
Format : UTF-8
Codec ID : S_TEXT/UTF8
Codec ID/Info : UTF-8 Plain Text
Duration : 1 h 16 min
Bit rate : 89 b/s
Count of elements : 871
Stream size : 49.9 KiB (0%)
Title : Genco Team
Language : Russian
Default : No
Forced : No

Text #3
ID : 7
Format : UTF-8
Codec ID : S_TEXT/UTF8
Codec ID/Info : UTF-8 Plain Text
Duration : 1 h 15 min
Bit rate : 50 b/s
Count of elements : 914
Stream size : 27.9 KiB (0%)
Title : Full
Language : English
Default : No
Forced : No

Text #4
ID : 8
Format : UTF-8
Codec ID : S_TEXT/UTF8
Codec ID/Info : UTF-8 Plain Text
Duration : 1 h 16 min
Bit rate : 54 b/s
Count of elements : 1053
Stream size : 30.5 KiB (0%)
Title : SDH
Language : English
Default : No
Forced : No

Menu
00:00:00.000 : en:00:00:00.000
00:03:35.924 : en:00:03:35.924
00:07:16.936 : en:00:07:16.936
00:13:35.064 : en:00:13:35.064
00:17:07.318 : en:00:17:07.318
00:19:21.660 : en:00:19:21.660
00:23:21.025 : en:00:23:21.025
00:28:53.565 : en:00:28:53.565
00:33:52.405 : en:00:33:52.405
00:37:35.420 : en:00:37:35.420
00:42:10.069 : en:00:42:10.069
00:45:43.491 : en:00:45:43.491
00:48:32.034 : en:00:48:32.034
00:55:53.892 : en:00:55:53.892
01:01:50.999 : en:01:01:50.999
01:04:35.246 : en:01:04:35.246
01:07:18.618 : en:01:07:18.618
01:12:21.128 : en:01:12:21.128
01:15:11.716 : en:01:15:11.716
01:18:23.324 : en:01:18:23.324
Загрузка...Cкриншот1 Пророк / The Prophet (2014) BDRip 1080p [HEVC] 10 bit от -Star-Lord- (RG RIPS CLUB)Загрузка...Cкриншот2 Пророк / The Prophet (2014) BDRip 1080p [HEVC] 10 bit от -Star-Lord- (RG RIPS CLUB)Загрузка...Cкриншот3 Пророк / The Prophet (2014) BDRip 1080p [HEVC] 10 bit от -Star-Lord- (RG RIPS CLUB)Загрузка...Cкриншот4 Пророк / The Prophet (2014) BDRip 1080p [HEVC] 10 bit от -Star-Lord- (RG RIPS CLUB)
Релиз-группа: RIPS CLUB
Сэмпл Торрент🧲 Магнет

Рейтинги КП и IMDB, кнопки "Позвать в чате" и "Спасибо", а также мультитрекерная статистика доступны только зарегистрированным/авторизованным пользователям!

Файлы: 1
  • The Prophet (2014) BDRip 1080p H.265 [2xRUS_ENG] [RIPS-CLUB].mkv   4.24 ГБ
Поблагодарили: 3
justmkr, ko1ob, makss333
StarLord
041904.24 ГБ

Добавление нового комментария

Добавление комментариев доступно только зарегистрированным/авторизованным пользователям.