💬 Мини-чат

OldGamerНасколько я помню, даже мой первый стик 2014 года тянул hevc, хотя и подтупливал на перемотке
OldGamerВыбирайте по цене и отзывам.
OldGamerСообщение удалено (удалил: OldGamer)
OldGamerЛюбой, всё что выпускалось за последние 3 года, вполне тянет hevc. Чуть раньше в чате ссылку давал на обсуждения на 4пда.
SAHA55Подскажите,пожалуйста какой купить медио плеер для просмотра видео в HEVC x265 с переносного жёсткого на 1 Тб. TV старый Panasonic
  • A1eksandr1
  • Blaster
  • nazarpavluwun
Отправка сообщений доступна только зарегистрированным/авторизованным пользователям.
Онлайн (за 10 мин.): 3

В поисках Немо: Дилогия / Finding Nemo: Dilogy (2003-2016) UHD-BDRip 1080p [HEVC] 10 bit [HDR] от Mr. Fox

HEVC
HDR
10 bit
Обложка В поисках Немо: Дилогия / Finding Nemo: Dilogy (2003-2016) UHD-BDRip 1080p [HEVC] 10 bit [HDR] от Mr. Fox Год: 2003-2016
Страна: США
Жанр: Мультфильм, Комедия, Приключения, Семейный

1. В поисках Немо / Finding Nemo (2003) UHD-BDRip 1080p [HEVC] 10 bit [HDR] от Mr. Fox
HEVC
10 bit
Обложка В поисках Немо / Finding Nemo (2003) UHD-BDRip 1080p [HEVC] 10 bit [HDR] от Mr. Fox Год: 2003
Страна: США
Студия: Disney Enterprises Inc., Pixar Animation Studios, Walt Disney Pictures
Жанр: Мультфильм, Комедия, Приключения, Семейный
Продолжительность: 01:40:53

Режиссер: Эндрю Стэнтон, Ли Анкрич
В ролях: Альберт Брукс, Эллен ДеДженерес, Александр Гоулд, Уиллем Дефо, Эллисон Дженни, Джо Рэнфт, Джеффри Раш, Элизабет Перкинс, Эрик Бана, Эндрю Стэнтон

Описание: Рыба-клоун Марлин после трагической гибели жены в одиночку растит своего единственного сына Немо. Однажды любопытный Немо, чтобы доказать, что он уже взрослый, плывет в открытый океан и попадает в неприятности. Марлин отправляется на поиски сына.


Видео: 1920x1080, ~6448 Кбит/сек
Аудио1: AC3, 6 ch, 640 Kbps - РусскийРусский, Дублированный (Лицензия)
Аудио2: AC3, 6 ch, 640 Kbps - УкраинскийУкраинский, Дублированный (Лицензия)
Аудио3: AC3, 6 ch, 640 Kbps - АнглийскийАнглийский, Оригинал
Субтитры: русские, украинские, английские (полные, SDH)

Как за пару секунд удалить ненужные аудиодорожки и субтитры (Внимание! После удаления вы не сможете поддержать раздачу)

Лог (x265 info)
x265 [info]: frame I: Avg QP:12.47 kb/s
x265 [info]: frame P: Avg QP:13.84 kb/s
x265 [info]: frame B: Avg QP:16.21 kb/s
Медиаинфо
General
Unique ID : 212222386771522651791507715463778807821 (0x9FA88B82301DAA15A378AAE7125E300D)
Complete name : E:\Torrent\Finding Nemo\Finding Nemo (2001).mkv
Format : Matroska
Format version : Version 4
File size : 6.02 GiB
Duration : 1 h 40 min
Overall bit rate : 8 538 kb/s
Movie name : Finding Nemo (2003)
Encoded date : UTC 2021-08-25 04:05:55
Writing application : mkvmerge v6.0.0 ('Coming Up For Air') built on Jan 20 2013 09:52:00
Writing library : libebml v1.3.0 + libmatroska v1.4.0
Cover : Yes
Attachments : cover

Video
ID : 1
Format : HEVC
Format/Info : High Efficiency Video Coding
Format profile : Main 10@L4.1@High
HDR format : SMPTE ST 2086, HDR10 compatible
Codec ID : V_MPEGH/ISO/HEVC
Duration : 1 h 40 min
Bit rate : 6 448 kb/s
Width : 1 920 pixels
Height : 1 080 pixels
Display aspect ratio : 16:9
Frame rate mode : Constant
Frame rate : 23.976 (24000/1001) FPS
Color space : YUV
Chroma subsampling : 4:2:0 (Type 2)
Bit depth : 10 bits
Bits/(Pixel*Frame) : 0.130
Stream size : 4.54 GiB (76%)
Writing library : x265 3.5+1-ce882936d:[Windows][MSVC 1928][64 bit] 10bit
Encoding settings : cpuid=1111039 / frame-threads=4 / numa-pools=16 / wpp / no-pmode / no-pme / no-psnr / no-ssim / log-level=2 / input-csp=1 / input-res=1920x1080 / interlace=0 / total-frames=145150 / level-idc=41 / high-tier=1 / uhd-bd=0 / ref=5 / no-allow-non-conformance / repeat-headers / annexb / no-aud / no-hrd / info / hash=0 / no-temporal-layers / open-gop / min-keyint=23 / keyint=240 / gop-lookahead=0 / bframes=16 / b-adapt=2 / b-pyramid / bframe-bias=0 / rc-lookahead=60 / lookahead-slices=4 / scenecut=40 / hist-scenecut=0 / radl=0 / no-splice / no-intra-refresh / ctu=32 / min-cu-size=8 / rect / amp / max-tu-size=32 / tu-inter-depth=4 / tu-intra-depth=4 / limit-tu=1 / rdoq-level=2 / dynamic-rd=0.00 / no-ssim-rd / signhide / no-tskip / nr-intra=0 / nr-inter=0 / no-constrained-intra / no-strong-intra-smoothing / max-merge=4 / limit-refs=2 / limit-modes / me=3 / subme=7 / merange=57 / temporal-mvp / no-frame-dup / no-hme / weightp / weightb / no-analyze-src-pics / deblock=-3:-3 / no-sao / no-sao-non-deblock / rd=6 / selective-sao=0 / no-early-skip / no-rskip / no-fast-intra / no-tskip-fast / no-cu-lossless / no-b-intra / no-splitrd-skip / rdpenalty=0 / psy-rd=2.00 / psy-rdoq=1.00 / no-rd-refine / no-lossless / cbqpoffs=0 / crqpoffs=0 / rc=crf / crf=17.0 / qcomp=0.60 / qpstep=4 / stats-write=0 / stats-read=0 / vbv-maxrate=50000 / vbv-bufsize=50000 / vbv-init=0.9 / min-vbv-fullness=50.0 / max-vbv-fullness=80.0 / crf-max=0.0 / crf-min=0.0 / ipratio=1.40 / pbratio=1.30 / aq-mode=1 / aq-strength=1.00 / no-cutree / zone-count=0 / no-strict-cbr / qg-size=32 / no-rc-grain / qpmax=69 / qpmin=0 / no-const-vbv / sar=1 / overscan=0 / videoformat=5 / range=0 / colorprim=9 / transfer=16 / colormatrix=9 / chromaloc=1 / chromaloc-top=2 / chromaloc-bottom=2 / display-window=0 / master-display=G(13250,34500)B(7500,3000)R(34000,16000)WP(15635,16450)L(10000000,0) / cll=0,0 / min-luma=0 / max-luma=1023 / log2-max-poc-lsb=8 / vui-timing-info / vui-hrd-info / slices=1 / no-opt-qp-pps / no-opt-ref-list-length-pps / no-multi-pass-opt-rps / scenecut-bias=0.05 / hist-threshold=0.03 / no-opt-cu-delta-qp / no-aq-motion / hdr10 / hdr10-opt / no-dhdr10-opt / no-idr-recovery-sei / analysis-reuse-level=0 / analysis-save-reuse-level=0 / analysis-load-reuse-level=0 / scale-factor=0 / refine-intra=0 / refine-inter=0 / refine-mv=1 / refine-ctu-distortion=0 / no-limit-sao / ctu-info=0 / no-lowpass-dct / refine-analysis-type=0 / copy-pic=1 / max-ausize-factor=1.0 / no-dynamic-refine / no-single-sei / no-hevc-aq / no-svt / no-field / qp-adaptation-range=1.00 / scenecut-aware-qp=0conformance-window-offsets / right=0 / bottom=0 / decoder-max-rate=0 / no-vbv-live-multi-pass
Default : Yes
Forced : No
Color range : Limited
Color primaries : BT.2020
Transfer characteristics : PQ
Matrix coefficients : BT.2020 non-constant
Mastering display color primar : Display P3
Mastering display luminance : min: 0.0000 cd/m2, max: 1000 cd/m2

Audio #1
ID : 2
Format : AC-3
Format/Info : Audio Coding 3
Commercial name : Dolby Digital
Format settings : Dolby Surround EX
Codec ID : A_AC3
Duration : 1 h 40 min
Bit rate mode : Constant
Bit rate : 640 kb/s
Channel(s) : 6 channels
Channel layout : L R C LFE Ls Rs
Sampling rate : 48.0 kHz
Frame rate : 31.250 FPS (1536 SPF)
Compression mode : Lossy
Delay relative to video : 23 ms
Stream size : 462 MiB (7%)
Title : Дубляж (Лицензия)
Language : Russian
Service kind : Complete Main
Default : Yes
Forced : No
Statistics Tags Issue : mkvmerge v60.0.0 ('Are We Copies?') 64-bit 2021-08-24 18:37:15 / mkvmerge v6.0.0 ('Coming Up For Air') built on Jan 20 2013 09:52:00 2021-08-25 04:05:55
FromStats_BitRate : 640000
FromStats_Duration : 01:40:53.984000000
FromStats_FrameCount : 189187
FromStats_StreamSize : 484318720

Audio #2
ID : 3
Format : AC-3
Format/Info : Audio Coding 3
Commercial name : Dolby Digital
Format settings : Dolby Surround EX
Codec ID : A_AC3
Duration : 1 h 40 min
Bit rate mode : Constant
Bit rate : 640 kb/s
Channel(s) : 6 channels
Channel layout : L R C LFE Ls Rs
Sampling rate : 48.0 kHz
Frame rate : 31.250 FPS (1536 SPF)
Compression mode : Lossy
Delay relative to video : 23 ms
Stream size : 462 MiB (7%)
Title : Дубляж (Ліцензія)
Language : Ukrainian
Service kind : Complete Main
Default : No
Forced : No
Statistics Tags Issue : mkvmerge v60.0.0 ('Are We Copies?') 64-bit 2021-08-24 18:37:15 / mkvmerge v6.0.0 ('Coming Up For Air') built on Jan 20 2013 09:52:00 2021-08-25 04:05:55
FromStats_BitRate : 640000
FromStats_Duration : 01:40:54.048000000
FromStats_FrameCount : 189189
FromStats_StreamSize : 484323840

Audio #3
ID : 4
Format : AC-3
Format/Info : Audio Coding 3
Commercial name : Dolby Digital
Format settings : Dolby Surround EX
Codec ID : A_AC3
Duration : 1 h 40 min
Bit rate mode : Constant
Bit rate : 640 kb/s
Channel(s) : 6 channels
Channel layout : L R C LFE Ls Rs
Sampling rate : 48.0 kHz
Frame rate : 31.250 FPS (1536 SPF)
Compression mode : Lossy
Delay relative to video : 23 ms
Stream size : 462 MiB (7%)
Title : Original
Language : English
Service kind : Complete Main
Default : No
Forced : No
Statistics Tags Issue : mkvmerge v60.0.0 ('Are We Copies?') 64-bit 2021-08-24 18:37:15 / mkvmerge v6.0.0 ('Coming Up For Air') built on Jan 20 2013 09:52:00 2021-08-25 04:05:55
FromStats_BitRate : 640000
FromStats_Duration : 01:40:54.016000000
FromStats_FrameCount : 189188
FromStats_StreamSize : 484321280

Text #1
ID : 5
Format : UTF-8
Codec ID : S_TEXT/UTF8
Codec ID/Info : UTF-8 Plain Text
Title : Full
Language : Russian
Default : No
Forced : No
Statistics Tags Issue : mkvmerge v60.0.0 ('Are We Copies?') 64-bit 2021-08-24 18:37:15 / mkvmerge v6.0.0 ('Coming Up For Air') built on Jan 20 2013 09:52:00 2021-08-25 04:05:55
FromStats_BitRate : 104
FromStats_Duration : 01:32:22.578000000
FromStats_FrameCount : 1327
FromStats_StreamSize : 72348

Text #2
ID : 6
Format : UTF-8
Codec ID : S_TEXT/UTF8
Codec ID/Info : UTF-8 Plain Text
Title : Full
Language : Ukrainian
Default : No
Forced : No
Statistics Tags Issue : mkvmerge v60.0.0 ('Are We Copies?') 64-bit 2021-08-24 18:37:15 / mkvmerge v6.0.0 ('Coming Up For Air') built on Jan 20 2013 09:52:00 2021-08-25 04:05:55
FromStats_BitRate : 111
FromStats_Duration : 01:32:22.328000000
FromStats_FrameCount : 1496
FromStats_StreamSize : 77573

Text #3
ID : 7
Format : UTF-8
Codec ID : S_TEXT/UTF8
Codec ID/Info : UTF-8 Plain Text
Title : Full
Language : English
Default : No
Forced : No
Statistics Tags Issue : mkvmerge v60.0.0 ('Are We Copies?') 64-bit 2021-08-24 18:37:15 / mkvmerge v6.0.0 ('Coming Up For Air') built on Jan 20 2013 09:52:00 2021-08-25 04:05:55
FromStats_BitRate : 70
FromStats_Duration : 01:32:22.328000000
FromStats_FrameCount : 1493
FromStats_StreamSize : 48938

Text #4
ID : 8
Format : UTF-8
Codec ID : S_TEXT/UTF8
Codec ID/Info : UTF-8 Plain Text
Title : SDH
Language : English
Default : No
Forced : No
Statistics Tags Issue : mkvmerge v60.0.0 ('Are We Copies?') 64-bit 2021-08-24 18:37:15 / mkvmerge v6.0.0 ('Coming Up For Air') built on Jan 20 2013 09:52:00 2021-08-25 04:05:55
FromStats_BitRate : 73
FromStats_Duration : 01:32:34.132000000
FromStats_FrameCount : 1575
FromStats_StreamSize : 51160

Menu
00:00:00.000 : en:New Parents
00:04:17.715 : en:Main Titles
00:05:34.667 : en:First Day of School
00:11:16.801 : en:Field Trip
00:12:15.234 : en:The Drop Off
00:14:07.555 : en:Nemo Lost
00:16:28.028 : en:Meeting Dory
00:18:49.336 : en:Sharks
00:25:30.779 : en:The Tank Gang
00:30:53.226 : en:The Abyss
00:33:00.645 : en:Angler Fish
00:36:10.835 : en:Nemo's Initiation
00:40:18.165 : en:Fish Impressions
00:44:57.277 : en:Jellyfish
00:48:11.179 : en:The Filter
00:51:27.417 : en:Sea Turtles
00:56:06.029 : en:News Travels
01:00:54.609 : en:Off Ramp
01:05:19.665 : en:Dory Speaks Whale
01:07:01.100 : en:Algae
01:08:29.146 : en:Inside The Whale
01:13:18.102 : en:Sydney Harbour
01:14:14.116 : en:The Aquascum
01:15:59.096 : en:Pelicans
01:18:40.298 : en:Darla!
01:21:56.620 : en:Goodbye Dory
01:24:28.480 : en:Nemo And Dory
01:26:53.333 : en:Fishing Net
01:29:25.610 : en:Reunion
01:30:50.361 : en:Back On The Reef
01:32:41.931 : en:Tank Escape
01:33:23.264 : en:End Credits
Загрузка...Cкриншот1 В поисках Немо / Finding Nemo (2003) UHD-BDRip 1080p [HEVC] 10 bit [HDR] от Mr. FoxЗагрузка...Cкриншот2 В поисках Немо / Finding Nemo (2003) UHD-BDRip 1080p [HEVC] 10 bit [HDR] от Mr. FoxЗагрузка...Cкриншот3 В поисках Немо / Finding Nemo (2003) UHD-BDRip 1080p [HEVC] 10 bit [HDR] от Mr. FoxЗагрузка...Cкриншот4 В поисках Немо / Finding Nemo (2003) UHD-BDRip 1080p [HEVC] 10 bit [HDR] от Mr. Fox
Сэмпл
2. В поисках Дори / Finding Dory (2016) UHD-BDRip 1080p [HEVC] 10 bit [HDR] от Mr. Fox
HEVC
10 bit
Обложка В поисках Дори / Finding Dory (2016) UHD-BDRip 1080p [HEVC] 10 bit [HDR] от Mr. Fox Год: 2016
Страна: США
Студия: Pixar Animation Studios, Walt Disney Pictures
Жанр: Мультфильм, Комедия, Приключения, Семейный
Продолжительность: 01:37:03

Режиссер: Эндрю Стэнтон, Энгус МакЛэйн
В ролях: Эллен ДеДженерес, Альберт Брукс, Эд О’Нил, Кэйтлин Олсон, Хайден Роуленс, Тай Бурелл, Дайан Китон, Юджин Леви, Слоун Мюррэй, Идрис Эльба

Описание: Дори — синяя доброжелательная рыбка-хирург, страдающая провалами в памяти. Она упорно стремится избавиться от своего недуга и найти свою семью.


Видео: 1920x1080, ~9407 Кбит/сек
Аудио1: AC3, 6 ch, 640 Kbps - РусскийРусский, Дублированный (Лицензия)
Аудио2: AC3, 6 ch, 640 Kbps - УкраинскийУкраинский, Дублированный (Лицензия)
Аудио3: AC3, 6 ch, 640 Kbps - АнглийскийАнглийский, Оригинал
Субтитры: русские (форсированные, полные), украинские (форсированные), английские (полные, SDH, SDH-Colored)

Как за пару секунд удалить ненужные аудиодорожки и субтитры (Внимание! После удаления вы не сможете поддержать раздачу)

Лог (x265 info)
x265 [info]: frame I: Avg QP:14.23 kb/s
x265 [info]: frame P: Avg QP:15.79 kb/s
x265 [info]: frame B: Avg QP:17.65 kb/s
Медиаинфо
General
Unique ID : 195201896129700308512153109846721156988 (0x92DA8487B52DFBBAC766BE55EDEDD77C)
Complete name : E:\Torrent\Finding Nemo\Finding Dory (2016).mkv
Format : Matroska
Format version : Version 4
File size : 7.68 GiB
Duration : 1 h 37 min
Overall bit rate : 11.3 Mb/s
Movie name : Finding Dory (2016)
Encoded date : UTC 2021-08-26 09:19:02
Writing application : mkvmerge v60.0.0 ('Are We Copies?') 64-bit
Writing library : libebml v1.4.2 + libmatroska v1.6.4
Cover : Yes
Attachments : cover

Video
ID : 1
Format : HEVC
Format/Info : High Efficiency Video Coding
Format profile : Main 10@L4.1@High
HDR format : SMPTE ST 2086, HDR10 compatible
Codec ID : V_MPEGH/ISO/HEVC
Duration : 1 h 37 min
Bit rate : 9 407 kb/s
Width : 1 920 pixels
Height : 1 080 pixels
Display aspect ratio : 16:9
Frame rate mode : Constant
Frame rate : 23.976 (23976/1000) FPS
Original frame rate : 23.976 (24000/1001) FPS
Color space : YUV
Chroma subsampling : 4:2:0 (Type 2)
Bit depth : 10 bits
Bits/(Pixel*Frame) : 0.189
Stream size : 6.38 GiB (83%)
Writing library : x265 3.5+1-ce882936d:[Windows][MSVC 1928][64 bit] 10bit
Encoding settings : cpuid=1111039 / frame-threads=4 / numa-pools=16 / wpp / no-pmode / no-pme / no-psnr / no-ssim / log-level=2 / input-csp=1 / input-res=1920x1080 / interlace=0 / total-frames=139608 / level-idc=41 / high-tier=1 / uhd-bd=0 / ref=5 / no-allow-non-conformance / repeat-headers / annexb / no-aud / no-hrd / info / hash=0 / no-temporal-layers / open-gop / min-keyint=23 / keyint=240 / gop-lookahead=0 / bframes=16 / b-adapt=2 / b-pyramid / bframe-bias=0 / rc-lookahead=60 / lookahead-slices=4 / scenecut=40 / hist-scenecut=0 / radl=0 / no-splice / no-intra-refresh / ctu=32 / min-cu-size=8 / rect / amp / max-tu-size=32 / tu-inter-depth=4 / tu-intra-depth=4 / limit-tu=1 / rdoq-level=2 / dynamic-rd=0.00 / no-ssim-rd / signhide / no-tskip / nr-intra=0 / nr-inter=0 / no-constrained-intra / no-strong-intra-smoothing / max-merge=4 / limit-refs=2 / limit-modes / me=3 / subme=7 / merange=57 / temporal-mvp / no-frame-dup / no-hme / weightp / weightb / no-analyze-src-pics / deblock=-3:-3 / no-sao / no-sao-non-deblock / rd=6 / selective-sao=0 / no-early-skip / no-rskip / no-fast-intra / no-tskip-fast / no-cu-lossless / no-b-intra / no-splitrd-skip / rdpenalty=0 / psy-rd=2.00 / psy-rdoq=1.00 / no-rd-refine / no-lossless / cbqpoffs=0 / crqpoffs=0 / rc=crf / crf=18.0 / qcomp=0.60 / qpstep=4 / stats-write=0 / stats-read=0 / vbv-maxrate=50000 / vbv-bufsize=50000 / vbv-init=0.9 / min-vbv-fullness=50.0 / max-vbv-fullness=80.0 / crf-max=0.0 / crf-min=0.0 / ipratio=1.40 / pbratio=1.30 / aq-mode=1 / aq-strength=1.00 / no-cutree / zone-count=0 / no-strict-cbr / qg-size=32 / no-rc-grain / qpmax=69 / qpmin=0 / no-const-vbv / sar=1 / overscan=0 / videoformat=5 / range=0 / colorprim=9 / transfer=16 / colormatrix=9 / chromaloc=1 / chromaloc-top=2 / chromaloc-bottom=2 / display-window=0 / master-display=G(13250,34500)B(7500,3000)R(34000,16000)WP(15635,16450)L(10000000,0) / cll=0,0 / min-luma=0 / max-luma=1023 / log2-max-poc-lsb=8 / vui-timing-info / vui-hrd-info / slices=1 / no-opt-qp-pps / no-opt-ref-list-length-pps / no-multi-pass-opt-rps / scenecut-bias=0.05 / hist-threshold=0.03 / no-opt-cu-delta-qp / no-aq-motion / hdr10 / hdr10-opt / no-dhdr10-opt / no-idr-recovery-sei / analysis-reuse-level=0 / analysis-save-reuse-level=0 / analysis-load-reuse-level=0 / scale-factor=0 / refine-intra=0 / refine-inter=0 / refine-mv=1 / refine-ctu-distortion=0 / no-limit-sao / ctu-info=0 / no-lowpass-dct / refine-analysis-type=0 / copy-pic=1 / max-ausize-factor=1.0 / no-dynamic-refine / no-single-sei / no-hevc-aq / no-svt / no-field / qp-adaptation-range=1.00 / scenecut-aware-qp=0conformance-window-offsets / right=0 / bottom=0 / decoder-max-rate=0 / no-vbv-live-multi-pass
Default : Yes
Forced : No
Color range : Limited
Color primaries : BT.2020
Transfer characteristics : PQ
Matrix coefficients : BT.2020 non-constant
Mastering display color primar : Display P3
Mastering display luminance : min: 0.0000 cd/m2, max: 1000 cd/m2

Audio #1
ID : 2
Format : AC-3
Format/Info : Audio Coding 3
Commercial name : Dolby Digital
Codec ID : A_AC3
Duration : 1 h 37 min
Bit rate mode : Constant
Bit rate : 640 kb/s
Channel(s) : 6 channels
Channel layout : L R C LFE Ls Rs
Sampling rate : 48.0 kHz
Frame rate : 31.250 FPS (1536 SPF)
Compression mode : Lossy
Stream size : 444 MiB (6%)
Title : Дубляж (Лицензия)
Language : Russian
Service kind : Complete Main
Default : Yes
Forced : Yes

Audio #2
ID : 3
Format : AC-3
Format/Info : Audio Coding 3
Commercial name : Dolby Digital
Codec ID : A_AC3
Duration : 1 h 37 min
Bit rate mode : Constant
Bit rate : 640 kb/s
Channel(s) : 6 channels
Channel layout : L R C LFE Ls Rs
Sampling rate : 48.0 kHz
Frame rate : 31.250 FPS (1536 SPF)
Compression mode : Lossy
Stream size : 444 MiB (6%)
Title : Дубляж (Ліцензія)
Language : Ukrainian
Service kind : Complete Main
Default : No
Forced : No

Audio #3
ID : 4
Format : AC-3
Format/Info : Audio Coding 3
Commercial name : Dolby Digital
Codec ID : A_AC3
Duration : 1 h 37 min
Bit rate mode : Constant
Bit rate : 640 kb/s
Channel(s) : 6 channels
Channel layout : L R C LFE Ls Rs
Sampling rate : 48.0 kHz
Frame rate : 31.250 FPS (1536 SPF)
Compression mode : Lossy
Stream size : 444 MiB (6%)
Title : Original
Language : English
Service kind : Complete Main
Default : No
Forced : No

Text #1
ID : 5
Format : UTF-8
Codec ID : S_TEXT/UTF8
Codec ID/Info : UTF-8 Plain Text
Duration : 58 min 0 s
Bit rate : 0 b/s
Count of elements : 10
Stream size : 257 Bytes (0%)
Title : Forced
Language : Russian
Default : Yes
Forced : Yes

Text #2
ID : 6
Format : UTF-8
Codec ID : S_TEXT/UTF8
Codec ID/Info : UTF-8 Plain Text
Duration : 1 h 35 min
Bit rate : 126 b/s
Count of elements : 1456
Stream size : 88.3 KiB (0%)
Title : Full
Language : Russian
Default : No
Forced : No

Text #3
ID : 7
Format : UTF-8
Codec ID : S_TEXT/UTF8
Codec ID/Info : UTF-8 Plain Text
Duration : 58 min 0 s
Bit rate : 0 b/s
Count of elements : 10
Stream size : 285 Bytes (0%)
Title : Forced
Language : Ukrainian
Default : No
Forced : No

Text #4
ID : 8
Format : UTF-8
Codec ID : S_TEXT/UTF8
Codec ID/Info : UTF-8 Plain Text
Duration : 1 h 35 min
Bit rate : 85 b/s
Count of elements : 1578
Stream size : 59.4 KiB (0%)
Title : Full
Language : English
Default : No
Forced : No

Text #5
ID : 9
Format : UTF-8
Codec ID : S_TEXT/UTF8
Codec ID/Info : UTF-8 Plain Text
Duration : 1 h 35 min
Bit rate : 92 b/s
Count of elements : 1764
Stream size : 64.7 KiB (0%)
Title : SDH
Language : English
Default : No
Forced : No

Text #6
ID : 10
Format : UTF-8
Codec ID : S_TEXT/UTF8
Codec ID/Info : UTF-8 Plain Text
Duration : 1 h 35 min
Bit rate : 121 b/s
Count of elements : 1764
Stream size : 84.7 KiB (0%)
Title : SDH [Colored]
Language : English
Default : No
Forced : No

Menu
00:00:00.000 : Prologue
00:02:35.738 : Lost At Sea
00:06:50.159 : Life With Dory
00:10:53.152 : Losing Dory
00:13:32.937 : Dory Leads
00:15:25.007 : Totally Sick
00:17:03.022 : Shipping Lanes
00:19:35.465 : Marine Life Institute
00:21:35.294 : Under Quarantine
00:24:58.413 : Getting In
00:27:08.376 : No Pipes
00:30:33.206 : Manifest Destiny
00:35:00.056 : Operation Becky
00:37:52.019 : Stroller Crossing
00:40:17.998 : Stuck
00:41:06.297 : Argument
00:42:30.422 : Touch Pool
00:46:03.427 : Confession
00:48:41.585 : Tag
00:50:27.858 : Childhood Home
00:55:06.344 : Pipe Travel
00:57:05.839 : Meeting Marlin
01:00:41.346 : Off To Cleveland
01:04:32.910 : All Alone
01:10:36.732 : Game Plan
01:12:28.218 : Stop That Truck
01:14:09.862 : Time To Go
01:18:26.493 : Big Finish
01:26:49.329 : Epilogue
Загрузка...Cкриншот1 В поисках Дори / Finding Dory (2016) UHD-BDRip 1080p [HEVC] 10 bit [HDR] от Mr. FoxЗагрузка...Cкриншот2 В поисках Дори / Finding Dory (2016) UHD-BDRip 1080p [HEVC] 10 bit [HDR] от Mr. FoxЗагрузка...Cкриншот3 В поисках Дори / Finding Dory (2016) UHD-BDRip 1080p [HEVC] 10 bit [HDR] от Mr. FoxЗагрузка...Cкриншот4 В поисках Дори / Finding Dory (2016) UHD-BDRip 1080p [HEVC] 10 bit [HDR] от Mr. Fox
Сэмпл
Торрент🧲 Магнет

Рейтинги КП и IMDB, кнопки "Позвать в чате" и "Спасибо", а также мультитрекерная статистика доступны только зарегистрированным/авторизованным пользователям!

Файлы: 2
  • Finding Nemo
    • Finding Dory (2016).mkv   7.68 ГБ
    • Finding Nemo (2001).mkv   6.02 ГБ
Поблагодарили: 7
and50, anderb, ko1ob, makss333, Rezident, TaurohtaR, z_artem
Admin
07756 (2)  13.7 ГБ

Добавление нового комментария

Добавление комментариев доступно только зарегистрированным/авторизованным пользователям.