💬 Мини-чат

OldGamerНасколько я помню, даже мой первый стик 2014 года тянул hevc, хотя и подтупливал на перемотке
OldGamerВыбирайте по цене и отзывам.
OldGamerСообщение удалено (удалил: OldGamer)
OldGamerЛюбой, всё что выпускалось за последние 3 года, вполне тянет hevc. Чуть раньше в чате ссылку давал на обсуждения на 4пда.
SAHA55Подскажите,пожалуйста какой купить медио плеер для просмотра видео в HEVC x265 с переносного жёсткого на 1 Тб. TV старый Panasonic
  • OldGamer
  • ADVOKAT69
  • HANNIBAL
  • Spartanec1308
  • abtr
  • Despise
Отправка сообщений доступна только зарегистрированным/авторизованным пользователям.
Онлайн (за 10 мин.): 6

Красные огни / Red Lights (2012) [GER Transfer] BDRip 1080p [HEVC] 10 bit от Spartanec1308

HEVC
10 bit
Обложка Красные огни / Red Lights (2012) [GER Transfer] BDRip 1080p [HEVC] 10 bit от Spartanec1308 Год: 2012
Страна: Испания, Канада
Студия: Antena 3 Films, Cindy Cowan Entertainment, Nostromo Pictures
Жанр: Ужасы, Фэнтези, Триллер, Драма
Продолжительность: 01:53:40

Режиссер: Родриго Кортес
В ролях: Роберт Де Ниро, Сигурни Уивер, Киллиан Мёрфи, Элизабет Олсен, Тоби Джонс, Джоэли Ричардсон, Крэйг Робертс, Берн Горман, Карен Шенас-Дэвид, Жан Корнет

Описание: Ученые-скептики Маргарет Мэтисон и ее ассистент, Том Бакли, занимаются разоблачением шарлатанов. Изучение паранормального приводит их к столкновению с давним противником доктора Мэтисон — человеком по имени Сильвер. Объявив о своем возвращении, Сильвер впервые за многие годы выступает перед широкой публикой. Знавшие экстрасенса люди не забыли, что незадолго до добровольного ухода Сильвера со сцены таинственной смертью погиб основной критик его деятельности.


Видео: 1920x816, 9690 Кбит/сек, 0.258 бит/(Пиксели*Кадры), 24,000 кадр/сек, HEVC (Main10@L.4.1@High) 10 бит
Аудио1: AC3, 6 ch, 640 Kbps - РусскийРусский, Дублированный (Лицензия)
Аудио2: AC3, 6 ch, 640 Kbps - АнглийскийАнглийский, Оригинал
Субтитры: Русские , английские

Как за пару секунд удалить ненужные аудиодорожки и субтитры (Внимание! После удаления вы не сможете поддержать раздачу)

Лог (x265 info)
x265 [info]: frame I: 1851, Avg QP:17.57 kb/s: 25125.29
x265 [info]: frame P: 24227, Avg QP:18.86 kb/s: 16776.61
x265 [info]: frame B: 137618, Avg QP:21.50 kb/s: 8233.88
x265 [info]: Weighted P-Frames: Y:13.0% UV:11.2%
x265 [info]: Weighted B-Frames: Y:21.0% UV:16.0%
x265 [info]: consecutive B-frames: 11.6% 1.9% 3.9% 10.8% 8.4% 26.6% 8.0% 9.1% 4.5% 3.5% 2.7% 4.5% 1.3% 0.6% 0.7% 0.7% 1.2%

encoded 163696 frames in 182686.22s (0.90 fps), 9689.21 kb/s, Avg QP:21.06
Медиаинфо
Формат : Matroska
Версия формата : Version 4
Размер файла : 8,71 Гбайт
Продолжительность : 1 ч. 53 м.
Общий поток : 11,0 Мбит/сек
Название фильма : by Spartanec
Дата кодирования : UTC 2021-09-04 07:34:12
Программа кодирования : mkvmerge v7.0.0 ('Where We Going') 64bit built on Jun 9 2014 15:16:27
Библиотека кодирования : libebml v1.3.0 + libmatroska v1.4.1
Обложка : Yes
Attachments : cover.jpg

Видео
Идентификатор : 1
Формат : HEVC
Формат/Информация : High Efficiency Video Coding
Профиль формата : Main 10@L4.1@High
Идентификатор кодека : V_MPEGH/ISO/HEVC
Продолжительность : 1 ч. 53 м.
Битрейт : 9690 Кбит/сек
Ширина : 1920 пикселей
Высота : 816 пикселей
Соотношение сторон : 2,35:1
Режим частоты кадров : Постоянный
Частота кадров : 24,000 кадра/сек
Цветовое пространство : YUV
Субдискретизация насыщенности : 4:2:0
Битовая глубина : 10 бит
Бит/(Пиксели*Кадры) : 0.258
Размер потока : 7,69 Гбайт (88%)
Заголовок : Spartanec
Библиотека кодирования : x265 3.5+10-82786fccc:[Windows][GCC 11.1.0][64 bit] 10bit
Настройки программы : cpuid=1111039 / frame-threads=4 / numa-pools=16 / wpp / no-pmode / no-pme / no-psnr / no-ssim / log-level=2 / input-csp=1 / input-res=1920x816 / interlace=0 / total-frames=163696 / level-idc=41 / high-tier=1 / uhd-bd=0 / ref=5 / no-allow-non-conformance / no-repeat-headers / annexb / no-aud / no-eob / no-eos / no-hrd / info / hash=0 / no-temporal-layers / open-gop / min-keyint=23 / keyint=240 / gop-lookahead=0 / bframes=16 / b-adapt=2 / b-pyramid / bframe-bias=0 / rc-lookahead=60 / lookahead-slices=1 / scenecut=40 / hist-scenecut=0 / radl=0 / no-splice / no-intra-refresh / ctu=32 / min-cu-size=8 / rect / amp / max-tu-size=32 / tu-inter-depth=4 / tu-intra-depth=4 / limit-tu=1 / rdoq-level=1 / dynamic-rd=0.00 / no-ssim-rd / signhide / no-tskip / nr-intra=0 / nr-inter=0 / no-constrained-intra / no-strong-intra-smoothing / max-merge=5 / limit-refs=0 / no-limit-modes / me=3 / subme=7 / merange=57 / temporal-mvp / no-frame-dup / no-hme / weightp / weightb / no-analyze-src-pics / deblock=-2:-2 / no-sao / no-sao-non-deblock / rd=6 / selective-sao=0 / no-early-skip / no-rskip / no-fast-intra / no-tskip-fast / no-cu-lossless / b-intra / no-splitrd-skip / rdpenalty=0 / psy-rd=2.00 / psy-rdoq=1.00 / no-rd-refine / no-lossless / cbqpoffs=0 / crqpoffs=0 / rc=crf / crf=20.5 / qcomp=0.70 / qpstep=4 / stats-write=0 / stats-read=0 / vbv-maxrate=50000 / vbv-bufsize=50000 / vbv-init=0.9 / min-vbv-fullness=50.0 / max-vbv-fullness=80.0 / crf-max=0.0 / crf-min=0.0 / ipratio=1.40 / pbratio=1.30 / aq-mode=2 / aq-strength=1.00 / no-cutree / zone-count=0 / no-strict-cbr / qg-size=32 / no-rc-grain / qpmax=69 / qpmin=0 / no-const-vbv / sar=1 / overscan=0 / videoformat=5 / range=0 / colorprim=1 / transfer=1 / colormatrix=1 / chromaloc=0 / display-window=0 / cll=0,0 / min-luma=0 / max-luma=1023 / log2-max-poc-lsb=8 / vui-timing-info / vui-hrd-info / slices=1 / no-opt-qp-pps / no-opt-ref-list-length-pps / no-multi-pass-opt-rps / scenecut-bias=0.05 / hist-threshold=0.03 / no-opt-cu-delta-qp / no-aq-motion / no-hdr10 / no-hdr10-opt / no-dhdr10-opt / no-idr-recovery-sei / analysis-reuse-level=0 / analysis-save-reuse-level=0 / analysis-load-reuse-level=0 / scale-factor=0 / refine-intra=0 / refine-inter=0 / refine-mv=0 / refine-ctu-distortion=0 / no-limit-sao / ctu-info=0 / no-lowpass-dct / refine-analysis-type=0 / copy-pic=1 / max-ausize-factor=1.0 / no-dynamic-refine / no-single-sei / no-hevc-aq / no-svt / no-field / qp-adaptation-range=1.00 / scenecut-aware-qp=0conformance-window-offsets / right=0 / bottom=0 / decoder-max-rate=0 / no-vbv-live-multi-pass
Default : Да
Forced : Нет
Цветовой диапазон : Limited
Основные цвета : BT.709
Характеристики трансфера : BT.709
Коэффициенты матрицы : BT.709

Аудио #1
Идентификатор : 2
Формат : AC-3
Формат/Информация : Audio Coding 3
Коммерческое название : Dolby Digital
Идентификатор кодека : A_AC3
Продолжительность : 1 ч. 53 м.
Вид битрейта : Постоянный
Битрейт : 640 Кбит/сек
Каналы : 6 каналов
ChannelLayout : L R C LFE Ls Rs
Частота : 48,0 КГц
Частота кадров : 31,250 кадров/сек (1536 SPF)
Битовая глубина : 16 бит
Метод сжатия : С потерями
Размер потока : 520 Мбайт (6%)
Заголовок : Дубляж [Мосфильм-Мастер]
ServiceKind/ : Complete Main
Default : Да
Forced : Нет

Аудио #2
Идентификатор : 3
Формат : AC-3
Формат/Информация : Audio Coding 3
Коммерческое название : Dolby Digital
Идентификатор кодека : A_AC3
Продолжительность : 1 ч. 53 м.
Вид битрейта : Постоянный
Битрейт : 640 Кбит/сек
Каналы : 6 каналов
ChannelLayout : L R C LFE Ls Rs
Частота : 48,0 КГц
Частота кадров : 31,250 кадров/сек (1536 SPF)
Битовая глубина : 16 бит
Метод сжатия : С потерями
Размер потока : 520 Мбайт (6%)
Заголовок : Оригинал
ServiceKind/ : Complete Main
Default : Нет
Forced : Нет

Текст #1
Идентификатор : 4
Формат : UTF-8
Идентификатор кодека : S_TEXT/UTF8
Идентификатор кодека/Информация : UTF-8 Plain Text
Продолжительность : 1 ч. 47 м.
Битрейт : 110 бит/сек
ElementCount : 1386
Размер потока : 86,8 Кбайт (0%)
Заголовок : Full
Default : Да
Forced : Нет

Текст #2
Идентификатор : 5
Формат : UTF-8
Идентификатор кодека : S_TEXT/UTF8
Идентификатор кодека/Информация : UTF-8 Plain Text
Продолжительность : 1 ч. 46 м.
Битрейт : 71 бит/сек
ElementCount : 1735
Размер потока : 56,2 Кбайт (0%)
Заголовок : Full
Default : Нет
Forced : Нет

Меню
00:00:00.000 : :Chapter 1
00:04:24.041 : :Chapter 2
00:09:05.666 : :Chapter 3
00:19:38.125 : :Chapter 4
00:27:06.291 : :Chapter 5
00:35:05.166 : :Chapter 6
00:44:43.583 : :Chapter 7
00:49:00.833 : :Chapter 8
00:55:36.250 : :Chapter 9
01:04:12.458 : :Chapter 10
01:11:43.666 : :Chapter 11
01:18:24.291 : :Chapter 12
01:24:07.541 : :Chapter 13
01:31:58.916 : :Chapter 14
01:39:18.583 : :Chapter 15
01:47:52.250 : :Chapter 16
Загрузка...Cкриншот1 Красные огни / Red Lights (2012) [GER Transfer] BDRip 1080p [HEVC] 10 bit от Spartanec1308Загрузка...Cкриншот2 Красные огни / Red Lights (2012) [GER Transfer] BDRip 1080p [HEVC] 10 bit от Spartanec1308Загрузка...Cкриншот3 Красные огни / Red Lights (2012) [GER Transfer] BDRip 1080p [HEVC] 10 bit от Spartanec1308Загрузка...Cкриншот4 Красные огни / Red Lights (2012) [GER Transfer] BDRip 1080p [HEVC] 10 bit от Spartanec1308
Сэмпл Торрент🧲 Магнет

Рейтинги КП и IMDB, кнопки "Позвать в чате" и "Спасибо", а также мультитрекерная статистика доступны только зарегистрированным/авторизованным пользователям!

Файлы: 1
  • Красные огни (2012) BDRip 1080p [HEVC] 10 bit by Spartanec.mkv   8.71 ГБ
Поблагодарили: 8
and50, Andrey_alex, Brooklyn, Kilop77, ko1ob, makss333, Nuclear70, StarLord
Spartanec1308
027108.71 ГБ

Добавление нового комментария

Добавление комментариев доступно только зарегистрированным/авторизованным пользователям.