💬 Мини-чат

OldGamerНасколько я помню, даже мой первый стик 2014 года тянул hevc, хотя и подтупливал на перемотке
OldGamerВыбирайте по цене и отзывам.
OldGamerСообщение удалено (удалил: OldGamer)
OldGamerЛюбой, всё что выпускалось за последние 3 года, вполне тянет hevc. Чуть раньше в чате ссылку давал на обсуждения на 4пда.
SAHA55Подскажите,пожалуйста какой купить медио плеер для просмотра видео в HEVC x265 с переносного жёсткого на 1 Тб. TV старый Panasonic
  • OldGamer
  • ADVOKAT69
  • HANNIBAL
  • joker63
  • abtr
  • Rezident
  • solohin1006
Отправка сообщений доступна только зарегистрированным/авторизованным пользователям.
Онлайн (за 10 мин.): 7

Другая дверь / Naboer (2005) BDRip 1080p [HEVC] 10 bit от -Star-Lord- (RG RIPS CLUB)

HEVC
10 bit
Обложка Другая дверь / Naboer (2005) BDRip 1080p [HEVC] 10 bit от -Star-Lord- (RG RIPS CLUB) Год: 2005
Страна: Норвегия, Дания, Швеция
Студия: 4 1/2 Film, Columbia TriStar Nordisk Film Distributors A/S, Memfis Film & Television, Norsk Filmfond, Produksjon 4 1/2, Spillefilmkompaniet 4 1/2
Жанр: Триллер, Ужасы
Продолжительность: 01:15:40

Режиссер: Пол Слетон
В ролях: Кристоффер Йонер, Сесиль А. Мосли, Джулия Шахт, Анна Баке-Виг, Микаэл Нюквист, Øystein Martinsen, Odd Arno Midtsjø, Magne Kipperrud

Описание: Поссорившись с девушкой, Йон довольно быстро находит утешение в объятьях двух своих очаровательных соседок. Однако вскоре выясняется, что парочка его новых любовниц подозрительно много знает и о нём самом, и о его бывшей подружке.


Видео: 1920x804, ~10380 Кбит/сек
Аудио1: AC3, 2 ch, 192 Kbps - РусскийРусский, Авторский одноголосый (А. Алексеев)
Аудио2: AC3, 2 ch, 384 Kbps - РусскийРусский, Любительский одноголосый (zaswer5)
Аудио3: AC3, 6 ch, 640 Kbps - Норвежский, Оригинал
Субтитры: русские, английские

Как за пару секунд удалить ненужные аудиодорожки и субтитры (Внимание! После удаления вы не сможете поддержать раздачу)

Лог (x265 info)
x265 [info]: frame I: 809, Avg QP:17.31 kb/s: 18809.71
x265 [info]: frame P: 16384, Avg QP:18.33 kb/s: 14241.80
x265 [info]: frame B: 91671, Avg QP:20.63 kb/s: 9614.57
x265 [info]: Weighted P-Frames: Y:10.9% UV:8.6%
x265 [info]: Weighted B-Frames: Y:11.2% UV:7.7%
x265 [info]: consecutive B-frames: 6.9% 2.6% 6.2% 9.0% 9.0% 37.9% 5.2% 3.5% 2.8% 1.7% 3.0% 8.8% 1.0% 0.4% 0.5% 0.6% 0.7%

encoded 108864 frames in 129644.27s (0.84 fps), 10379.30 kb/s, Avg QP:20.26
Медиаинфо
General
Unique ID : 274443628239335503731097592074816701675 (0xCE77EB901490F230DCEF2A264643C4EB)
Complete name : Naboer (2005) BDRip 1080p H.265 [2xRUS_NOR] [RIPS-CLUB].mkv
Format : Matroska
Format version : Version 4
File size : 6.13 GiB
Duration : 1 h 15 min
Overall bit rate : 11.6 Mb/s
Movie name : Другая дверь / Naboer (2005)
Encoded date : UTC 2021-09-05 08:43:02
Writing application : mkvmerge v20.0.0 ('I Am The Sun') 64-bit
Writing library : libebml v1.3.5 + libmatroska v1.4.8
Cover : Yes
Attachments : Cover.jpg

Video
ID : 1
Format : HEVC
Format/Info : High Efficiency Video Coding
Format profile : Main 10@L4.1@High
Codec ID : V_MPEGH/ISO/HEVC
Duration : 1 h 15 min
Bit rate : 10.4 Mb/s
Width : 1 920 pixels
Height : 804 pixels
Display aspect ratio : 2.40:1
Frame rate mode : Constant
Frame rate : 23.976 (24000/1001) FPS
Color space : YUV
Chroma subsampling : 4:2:0
Bit depth : 10 bits
Bits/(Pixel*Frame) : 0.280
Stream size : 5.49 GiB (89%)
Title : Другая дверь / Naboer (2005)
Writing library : x265 3.5+1-ce882936d:[Windows][GCC 10.2.0][64 bit] 10bit
Encoding settings : cpuid=1111039 / frame-threads=3 / numa-pools=12 / wpp / no-pmode / no-pme / no-psnr / no-ssim / log-level=2 / input-csp=1 / input-res=1920x804 / interlace=0 / total-frames=108864 / level-idc=41 / high-tier=1 / uhd-bd=0 / ref=5 / no-allow-non-conformance / no-repeat-headers / annexb / no-aud / no-hrd / info / hash=0 / no-temporal-layers / open-gop / min-keyint=23 / keyint=240 / gop-lookahead=0 / bframes=16 / b-adapt=2 / b-pyramid / bframe-bias=0 / rc-lookahead=60 / lookahead-slices=4 / scenecut=40 / hist-scenecut=0 / radl=0 / no-splice / no-intra-refresh / ctu=32 / min-cu-size=8 / rect / amp / max-tu-size=32 / tu-inter-depth=4 / tu-intra-depth=4 / limit-tu=1 / rdoq-level=2 / dynamic-rd=0.00 / no-ssim-rd / signhide / no-tskip / nr-intra=0 / nr-inter=0 / no-constrained-intra / no-strong-intra-smoothing / max-merge=5 / limit-refs=2 / limit-modes / me=3 / subme=7 / merange=57 / temporal-mvp / no-frame-dup / no-hme / weightp / weightb / no-analyze-src-pics / deblock=-3:-3 / no-sao / no-sao-non-deblock / rd=6 / selective-sao=0 / no-early-skip / no-rskip / no-fast-intra / no-tskip-fast / no-cu-lossless / no-b-intra / no-splitrd-skip / rdpenalty=0 / psy-rd=2.00 / psy-rdoq=1.00 / no-rd-refine / no-lossless / cbqpoffs=0 / crqpoffs=0 / rc=crf / crf=20.5 / qcomp=0.70 / qpstep=4 / stats-write=0 / stats-read=0 / vbv-maxrate=50000 / vbv-bufsize=50000 / vbv-init=0.9 / min-vbv-fullness=50.0 / max-vbv-fullness=80.0 / crf-max=0.0 / crf-min=0.0 / ipratio=1.40 / pbratio=1.30 / aq-mode=1 / aq-strength=1.00 / no-cutree / zone-count=0 / no-strict-cbr / qg-size=32 / no-rc-grain / qpmax=69 / qpmin=0 / no-const-vbv / sar=1 / overscan=0 / videoformat=5 / range=0 / colorprim=2 / transfer=2 / colormatrix=2 / chromaloc=0 / display-window=0 / cll=0,0 / min-luma=0 / max-luma=1023 / log2-max-poc-lsb=8 / vui-timing-info / vui-hrd-info / slices=1 / no-opt-qp-pps / no-opt-ref-list-length-pps / no-multi-pass-opt-rps / scenecut-bias=0.05 / hist-threshold=0.03 / no-opt-cu-delta-qp / no-aq-motion / no-hdr10 / no-hdr10-opt / no-dhdr10-opt / no-idr-recovery-sei / analysis-reuse-level=0 / analysis-save-reuse-level=0 / analysis-load-reuse-level=0 / scale-factor=0 / refine-intra=0 / refine-inter=0 / refine-mv=1 / refine-ctu-distortion=0 / no-limit-sao / ctu-info=0 / no-lowpass-dct / refine-analysis-type=0 / copy-pic=1 / max-ausize-factor=1.0 / no-dynamic-refine / no-single-sei / no-hevc-aq / no-svt / no-field / qp-adaptation-range=1.00 / scenecut-aware-qp=0conformance-window-offsets / right=0 / bottom=0 / decoder-max-rate=0 / no-vbv-live-multi-pass
Language : Norwegian
Default : Yes
Forced : Yes

Audio #1
ID : 2
Format : AC-3
Format/Info : Audio Coding 3
Commercial name : Dolby Digital
Codec ID : A_AC3
Duration : 1 h 15 min
Bit rate mode : Constant
Bit rate : 192 kb/s
Channel(s) : 2 channels
Channel layout : L R
Sampling rate : 48.0 kHz
Frame rate : 31.250 FPS (1536 SPF)
Compression mode : Lossy
Stream size : 104 MiB (2%)
Title : AC-3 / 2.0 Ch / 192 kbps / AVO / А. Алексеев
Language : Russian
Service kind : Complete Main
Default : Yes
Forced : Yes

Audio #2
ID : 3
Format : AC-3
Format/Info : Audio Coding 3
Commercial name : Dolby Digital
Codec ID : A_AC3
Duration : 1 h 15 min
Bit rate mode : Constant
Bit rate : 384 kb/s
Channel(s) : 2 channels
Channel layout : L R
Sampling rate : 48.0 kHz
Frame rate : 31.250 FPS (1536 SPF)
Compression mode : Lossy
Stream size : 208 MiB (3%)
Title : AC-3 / 2.0 Ch / 384 kbps / VO / zaswer5
Language : Russian
Service kind : Complete Main
Default : No
Forced : No

Audio #3
ID : 4
Format : AC-3
Format/Info : Audio Coding 3
Commercial name : Dolby Digital
Codec ID : A_AC3
Duration : 1 h 15 min
Bit rate mode : Constant
Bit rate : 640 kb/s
Channel(s) : 6 channels
Channel layout : L R C LFE Ls Rs
Sampling rate : 48.0 kHz
Frame rate : 31.250 FPS (1536 SPF)
Compression mode : Lossy
Stream size : 346 MiB (6%)
Title : AC-3 / 5.1 Ch / 640 kbps / Original
Language : Norwegian
Service kind : Complete Main
Default : No
Forced : No

Text #1
ID : 5
Format : UTF-8
Codec ID : S_TEXT/UTF8
Codec ID/Info : UTF-8 Plain Text
Duration : 1 h 11 min
Bit rate : 51 b/s
Count of elements : 457
Stream size : 27.3 KiB (0%)
Title : Full
Language : Russian
Default : No
Forced : No

Text #2
ID : 6
Format : UTF-8
Codec ID : S_TEXT/UTF8
Codec ID/Info : UTF-8 Plain Text
Duration : 1 h 11 min
Bit rate : 27 b/s
Count of elements : 570
Stream size : 14.6 KiB (0%)
Title : Full
Language : English
Default : No
Forced : No

Menu
00:00:00.000 : en:Chapter 1
00:03:28.625 : en:Chapter 2
00:12:10.688 : en:Chapter 3
00:21:08.267 : en:Chapter 4
00:30:51.558 : en:Chapter 5
00:35:51.732 : en:Chapter 6
00:44:47.893 : en:Chapter 7
00:51:42.057 : en:Chapter 8
00:58:02.687 : en:Chapter 9
01:04:01.462 : en:Chapter 10
Загрузка...Cкриншот1 Другая дверь / Naboer (2005) BDRip 1080p [HEVC] 10 bit от -Star-Lord- (RG RIPS CLUB)Загрузка...Cкриншот2 Другая дверь / Naboer (2005) BDRip 1080p [HEVC] 10 bit от -Star-Lord- (RG RIPS CLUB)Загрузка...Cкриншот3 Другая дверь / Naboer (2005) BDRip 1080p [HEVC] 10 bit от -Star-Lord- (RG RIPS CLUB)Загрузка...Cкриншот4 Другая дверь / Naboer (2005) BDRip 1080p [HEVC] 10 bit от -Star-Lord- (RG RIPS CLUB)
Релиз-группа: RIPS CLUB
Сэмпл Торрент🧲 Магнет

Рейтинги КП и IMDB, кнопки "Позвать в чате" и "Спасибо", а также мультитрекерная статистика доступны только зарегистрированным/авторизованным пользователям!

Файлы: 1
  • Naboer (2005) BDRip 1080p H.265 [2xRUS_NOR] [RIPS-CLUB].mkv   6.13 ГБ
Поблагодарили: 6
and50, donadar, Kilop77, makss333, MIGRANT, mvclub
StarLord
01011316.13 ГБ

Добавление нового комментария

Добавление комментариев доступно только зарегистрированным/авторизованным пользователям.