💬 Мини-чат

OldGamerНасколько я помню, даже мой первый стик 2014 года тянул hevc, хотя и подтупливал на перемотке
OldGamerВыбирайте по цене и отзывам.
OldGamerСообщение удалено (удалил: OldGamer)
OldGamerЛюбой, всё что выпускалось за последние 3 года, вполне тянет hevc. Чуть раньше в чате ссылку давал на обсуждения на 4пда.
SAHA55Подскажите,пожалуйста какой купить медио плеер для просмотра видео в HEVC x265 с переносного жёсткого на 1 Тб. TV старый Panasonic
  • OldGamer
  • joker63
  • abtr
  • and50
  • Rezident
  • solohin1006
Отправка сообщений доступна только зарегистрированным/авторизованным пользователям.
Онлайн (за 10 мин.): 6

К-19 / K-19: The Widowmaker (2002) BDRip 1080p [HEVC] 10 bit от OldGamer (RG RIPS CLUB)

HEVC
10 bit
Обложка К-19 / K-19: The Widowmaker (2002) BDRip 1080p [HEVC] 10 bit от OldGamer (RG RIPS CLUB) Год: 2002
Страна: Великобритания, Германия, Канада, США
Студия: First Light Production, IMF Internationale Medien und Film GmbH & Co., Produktions KG, Intermedia Films, K-19 Film Production
Жанр: Триллер, Драма, Военный, История
Продолжительность: 02:18:05

Режиссер: Кэтрин Бигелоу
В ролях: Харрисон Форд, Лиам Нисон, Питер Сарсгаард, Сэм Спруэлл, Тим Вудворд, Стив Николсон, Питер Стеббингс, Лекс Шрэпнел, Джон Шрэпнел, Лев Прыгунов

Описание: Фильм основан на реальных событиях, произошедших с первой атомной советской подводной лодкой, которая потерпела аварию из-за неполадок в атомном реакторе в 1961 году. К-19 - это зримое свидетельство героизма русских моряков, которые служили на этой подводной лодке. Фильм демонстрирует героизм капитана Алексея Вострикова, который в разгар холодной войны берёт на себя командование атомной подводной лодкой К-19 вместо её первого капитана Михаила Поленина. Миссия Вострикова - быстро подготовить подлодку к погружению, чего бы это ни стоило. Но Востриков, Поленин и члены экипажа К-19 не могли себе вообразить всего, что от них ожидалось. Они не могли представить, какой ценой обойдётся для них стремительность подготовки субмарины к погружению...


Исходник: Blu-Ray Remux 1080p (rutracker)
Видео: 1920x818 (2.35:1), 6131 Кбит/сек, HEVC (Main10@L.4.1@High)
Аудио1: AC3, 6 ch, 448 Kbps - РусскийРусский, DUB (Blu-ray)
Аудио2: AC3, 6 ch, 640 Kbps - РусскийРусский, AVO (Юрий Живов)
Аудио3: AC3, 6 ch, 640 Kbps - РусскийРусский, AVO (Евгений Рудой)
Аудио4: AC3, 6 ch, 640 Kbps - EnglishEnglish, Original
Субтитры: Русские полные (SRT), English full (SRT)

Как за пару секунд удалить ненужные аудиодорожки и субтитры (Внимание! После удаления вы не сможете поддержать раздачу)

Лог (x265 info)
x265 [info]: frame I: 838, Avg QP:17.07 kb/s: 12943.18
x265 [info]: frame P: 33789, Avg QP:18.25 kb/s: 11002.40
x265 [info]: frame B: 164032, Avg QP:20.47 kb/s: 5092.15
x265 [info]: Weighted P-Frames: Y:11.3% UV:9.0%
x265 [info]: Weighted B-Frames: Y:10.6% UV:7.7%
x265 [info]: consecutive B-frames: 3.3% 2.8% 4.7% 22.9% 9.4% 28.1% 8.2% 11.5% 4.0% 2.3% 0.9% 0.9% 0.3% 0.2% 0.2% 0.3%
x265 [info]: encoded 198659 frames in 138129.02s (1.44 fps), 6130.52 kb/s, Avg QP:20.08
Медиаинфо
Общее
Уникальный идентификатор : 93051954127898030098050401709500622848 (0x4601278C4132ECB572F25C92FBE36800)
Полное имя : \\.\К-19.K-19.The.Widowmaker.2002.BDRip-HEVC.1080p.mkv
Формат : Matroska
Версия формата : Version 4
Размер файла : 8,20 Гбайт
Продолжительность : 2 ч. 18 м.
Общий поток : 8 502 Кбит/сек
Название фильма : К-19.K-19.The.Widowmaker.2002.BDRip-HEVC.1080p
Дата кодирования : UTC 2021-09-06 09:28:48
Программа кодирования : mkvmerge v61.0.0 ('So') 64-bit
Библиотека кодирования : libebml v1.4.2 + libmatroska v1.6.4

Видео
Идентификатор : 1
Формат : HEVC
Формат/Информация : High Efficiency Video Coding
Профиль формата : Main 10@L4.1@High
Идентификатор кодека : V_MPEGH/ISO/HEVC
Продолжительность : 2 ч. 18 м.
Битрейт : 6 131 Кбит/сек
Ширина : 1 920 пикселей
Высота : 818 пикселей
Соотношение сторон : 2,35:1
Режим частоты кадров : Постоянный
Частота кадров : 23,976 (24000/1001) кадра/сек
Цветовое пространство : YUV
Субдискретизация насыщенности : 4:2:0
Битовая глубина : 10 бит
Бит/(Пиксели*Кадры) : 0.163
Размер потока : 5,91 Гбайт (72%)
Заголовок : K-19: The Widowmaker / Rip by OldGamer
Библиотека кодирования : x265 3.5+13-4c6880de4:[Windows][GCC 11.2.0][64 bit] 10bit
Настройки программы : cpuid=1111039 / frame-threads=3 / numa-pools=8 / wpp / no-pmode / no-pme / no-psnr / no-ssim / log-level=2 / input-csp=1 / input-res=1920x818 / interlace=0 / total-frames=198659 / level-idc=41 / high-tier=1 / uhd-bd=0 / ref=5 / no-allow-non-conformance / no-repeat-headers / annexb / no-aud / no-eob / no-eos / no-hrd / info / hash=0 / no-temporal-layers / open-gop / min-keyint=23 / keyint=240 / gop-lookahead=0 / bframes=15 / b-adapt=2 / b-pyramid / bframe-bias=0 / rc-lookahead=40 / lookahead-slices=0 / scenecut=40 / no-hist-scenecut / radl=0 / no-splice / no-intra-refresh / ctu=32 / min-cu-size=8 / rect / amp / max-tu-size=32 / tu-inter-depth=4 / tu-intra-depth=4 / limit-tu=1 / rdoq-level=2 / dynamic-rd=0.00 / no-ssim-rd / signhide / no-tskip / nr-intra=0 / nr-inter=0 / no-constrained-intra / no-strong-intra-smoothing / max-merge=5 / limit-refs=3 / no-limit-modes / me=3 / subme=7 / merange=57 / temporal-mvp / no-frame-dup / no-hme / weightp / weightb / no-analyze-src-pics / deblock=-3:-3 / no-sao / no-sao-non-deblock / rd=6 / selective-sao=0 / no-early-skip / no-rskip / no-fast-intra / no-tskip-fast / no-cu-lossless / b-intra / no-splitrd-skip / rdpenalty=0 / psy-rd=2.00 / psy-rdoq=1.00 / no-rd-refine / no-lossless / cbqpoffs=0 / crqpoffs=0 / rc=crf / crf=20.0 / qcomp=0.60 / qpstep=4 / stats-write=0 / stats-read=0 / vbv-maxrate=50000 / vbv-bufsize=50000 / vbv-init=0.9 / min-vbv-fullness=50.0 / max-vbv-fullness=80.0 / crf-max=0.0 / crf-min=0.0 / ipratio=1.40 / pbratio=1.30 / aq-mode=1 / aq-strength=1.00 / no-cutree / zone-count=1 / zones: / start-frame=185935 / end-frame=198659 / qp=36 / no-strict-cbr / qg-size=32 / no-rc-grain / qpmax=69 / qpmin=0 / no-const-vbv / sar=1 / overscan=0 / videoformat=5 / range=0 / colorprim=2 / transfer=2 / colormatrix=2 / chromaloc=0 / display-window=0 / cll=0,0 / min-luma=0 / max-luma=1023 / log2-max-poc-lsb=8 / vui-timing-info / vui-hrd-info / slices=1 / no-opt-qp-pps / no-opt-ref-list-length-pps / no-multi-pass-opt-rps / scenecut-bias=0.00 / hist-threshold=0.03 / no-opt-cu-delta-qp / no-aq-motion / no-hdr10 / no-hdr10-opt / no-dhdr10-opt / no-idr-recovery-sei / analysis-reuse-level=0 / analysis-save-reuse-level=0 / analysis-load-reuse-level=0 / scale-factor=0 / refine-intra=0 / refine-inter=0 / refine-mv=1 / refine-ctu-distortion=0 / no-limit-sao / ctu-info=0 / no-lowpass-dct / refine-analysis-type=0 / copy-pic=1 / max-ausize-factor=1.0 / no-dynamic-refine / no-single-sei / no-hevc-aq / no-svt / no-field / qp-adaptation-range=1.00 / scenecut-aware-qp=0conformance-window-offsets / right=0 / bottom=0 / decoder-max-rate=0 / no-vbv-live-multi-pass
Язык : English
Default : Да
Forced : Нет

Аудио #1
Идентификатор : 2
Формат : AC-3
Формат/Информация : Audio Coding 3
Коммерческое название : Dolby Digital
Идентификатор кодека : A_AC3
Продолжительность : 2 ч. 17 м.
Вид битрейта : Постоянный
Битрейт : 448 Кбит/сек
Каналы : 6 каналов
Channel layout : L R C LFE Ls Rs
Частота : 48,0 КГц
Частота кадров : 31,250 кадров/сек (1536 SPF)
Метод сжатия : С потерями
Размер потока : 442 Мбайт (5%)
Заголовок : DUB (Blu-ray)
Язык : Russian
Service kind : Complete Main
Default : Да
Forced : Нет

Аудио #2
Идентификатор : 3
Формат : AC-3
Формат/Информация : Audio Coding 3
Коммерческое название : Dolby Digital
Идентификатор кодека : A_AC3
Продолжительность : 2 ч. 18 м.
Вид битрейта : Постоянный
Битрейт : 640 Кбит/сек
Каналы : 6 каналов
Channel layout : L R C LFE Ls Rs
Частота : 48,0 КГц
Частота кадров : 31,250 кадров/сек (1536 SPF)
Метод сжатия : С потерями
Размер потока : 632 Мбайт (8%)
Заголовок : AVO (Юрий Живов)
Язык : Russian
Service kind : Complete Main
Default : Нет
Forced : Нет

Аудио #3
Идентификатор : 4
Формат : AC-3
Формат/Информация : Audio Coding 3
Коммерческое название : Dolby Digital
Идентификатор кодека : A_AC3
Продолжительность : 2 ч. 18 м.
Вид битрейта : Постоянный
Битрейт : 640 Кбит/сек
Каналы : 6 каналов
Channel layout : L R C LFE Ls Rs
Частота : 48,0 КГц
Частота кадров : 31,250 кадров/сек (1536 SPF)
Метод сжатия : С потерями
Размер потока : 632 Мбайт (8%)
Заголовок : AVO (Евгений Рудой)
Язык : Russian
Service kind : Complete Main
Default : Нет
Forced : Нет

Аудио #4
Идентификатор : 5
Формат : AC-3
Формат/Информация : Audio Coding 3
Коммерческое название : Dolby Digital
Идентификатор кодека : A_AC3
Продолжительность : 2 ч. 18 м.
Вид битрейта : Постоянный
Битрейт : 640 Кбит/сек
Каналы : 6 каналов
Channel layout : L R C LFE Ls Rs
Частота : 48,0 КГц
Частота кадров : 31,250 кадров/сек (1536 SPF)
Метод сжатия : С потерями
Размер потока : 632 Мбайт (8%)
Язык : English
Service kind : Complete Main
Default : Нет
Forced : Нет

Текст #1
Идентификатор : 6
Формат : UTF-8
Идентификатор кодека : S_TEXT/UTF8
Идентификатор кодека/Информация : UTF-8 Plain Text
Продолжительность : 2 ч. 9 м.
Битрейт : 79 бит/сек
Count of elements : 1200
Размер потока : 75,2 Кбайт (0%)
Язык : Russian
Default : Нет
Forced : Нет

Текст #2
Идентификатор : 7
Формат : UTF-8
Идентификатор кодека : S_TEXT/UTF8
Идентификатор кодека/Информация : UTF-8 Plain Text
Продолжительность : 2 ч. 6 м.
Битрейт : 42 бит/сек
Count of elements : 1190
Размер потока : 39,7 Кбайт (0%)
Язык : English
Default : Нет
Forced : Нет

Меню
00:00:00.000 : The Captain of K-19
00:09:07.880 : A Cursed Boat
00:23:34.913 : Ready for Sea
00:30:10.266 : Start the Drill Again
00:36:51.459 : Crush Depth
00:44:49.311 : The Test Missle
00:50:01.707 : Message From Moscow
00:56:52.283 : Loss of Pressure
01:03:24.717 : Containment Measures
01:09:44.305 : Inside the Reactor
01:26:24.679 : Radiation Poisoning
01:35:19.255 : Traitors
01:45:39.333 : A Hero
01:54:46.629 : Loyal to the Motherland
02:03:34.407 : Reunion
02:09:27.217 : Credits
Загрузка...Cкриншот1 К-19 / K-19: The Widowmaker (2002) BDRip 1080p [HEVC] 10 bit от OldGamer (RG RIPS CLUB)Загрузка...Cкриншот2 К-19 / K-19: The Widowmaker (2002) BDRip 1080p [HEVC] 10 bit от OldGamer (RG RIPS CLUB)Загрузка...Cкриншот3 К-19 / K-19: The Widowmaker (2002) BDRip 1080p [HEVC] 10 bit от OldGamer (RG RIPS CLUB)Загрузка...Cкриншот4 К-19 / K-19: The Widowmaker (2002) BDRip 1080p [HEVC] 10 bit от OldGamer (RG RIPS CLUB)
Релиз-группа: RIPS CLUB
Сэмпл Торрент🧲 Магнет

Рейтинги КП и IMDB, кнопки "Позвать в чате" и "Спасибо", а также мультитрекерная статистика доступны только зарегистрированным/авторизованным пользователям!

Файлы: 1
  • К-19.K-19.The.Widowmaker.2002.BDRip-HEVC.1080p.mkv   8.2 ГБ
Поблагодарили: 8
Brooklyn, diesel0000, donadar, Elico1977, ivan_1965, makss333, Nuclear70, Rezident
OldGamer
01071618.2 ГБ

Добавление нового комментария

Добавление комментариев доступно только зарегистрированным/авторизованным пользователям.