💬 Мини-чат

OldGamerНасколько я помню, даже мой первый стик 2014 года тянул hevc, хотя и подтупливал на перемотке
OldGamerВыбирайте по цене и отзывам.
OldGamerСообщение удалено (удалил: OldGamer)
OldGamerЛюбой, всё что выпускалось за последние 3 года, вполне тянет hevc. Чуть раньше в чате ссылку давал на обсуждения на 4пда.
SAHA55Подскажите,пожалуйста какой купить медио плеер для просмотра видео в HEVC x265 с переносного жёсткого на 1 Тб. TV старый Panasonic
  • OldGamer
  • abtr
Отправка сообщений доступна только зарегистрированным/авторизованным пользователям.
Онлайн (за 10 мин.): 2

Рассвет мертвецов / Dawn of the Dead (2004) [Unrated Director's Cut] BDRip 1080p [HEVC] 10 bit от ADVOKAT69

HEVC
10 bit
Обложка Рассвет мертвецов / Dawn of the Dead (2004) [Unrated Director's Cut] BDRip 1080p [HEVC] 10 bit от ADVOKAT69 Год: 2004
Страна: США, Канада, Япония, Франция
Студия: Metropolitan Filmexport
Жанр: Ужасы, Боевик
Продолжительность: 01:49:11

Режиссер: Зак Снайдер
В ролях: Сара Полли, Винг Рэймс, Джэйк Вебер, Мехи Файфер, Ти Баррелл, Майкл Келли, Кевин Зегерс, Майкл Бэрри, Линди Бут, Джэйн Иствуд

Описание: В то время как Америка содрогается от внезапного нашествия миллионов мертвецов, маленькая группа уцелевших людей пытается найти убежище и защиту в огромном здании торгового центра. Но долго ли они смогут противостоять нападению зомби?


Исходник: BDRemux
Видео: 1920x816, ~6 556 Кбит/сек
Аудио1: DTS, 6 ch, 768 Kbps - РусскийРусский, DUB (BDRemux)
Аудио2: AC3, 6 ch, 640 Kbps - РусскийРусский, VO С.Макашов (нецензурная лексика)
Субтитры: Русские форсированные

Как за пару секунд удалить ненужные аудиодорожки и субтитры (Внимание! После удаления вы не сможете поддержать раздачу)

Лог (x265 info)
x265 [info]: frame I: 2204, Avg QP:17.42 kb/s: 23058.19
x265 [info]: frame P: 35902, Avg QP:19.03 kb/s: 13149.28
x265 [info]: frame B: 119254, Avg QP:21.46 kb/s: 4264.66
x265 [info]: Weighted P-Frames: Y:4.2% UV:3.5%
x265 [info]: Weighted B-Frames: Y:3.2% UV:2.4%
x265 [info]: consecutive B-frames: 12.1% 6.5% 7.8% 37.0% 9.7% 23.1% 1.7% 1.3% 0.8%

encoded 157360 frames in 180738.75s (0.87 fps), 6554.93 kb/s, Avg QP:20.85
Медиаинфо
Общее
Уникальный идентификатор : 193232679220896144499966972374132034553 (0x915F42A3F9C39346823D283765AD8BF9)
Полное имя : D:\Рассвет мертвецов (2004) [Unrated Director's Cut] HEVC 10bit.mkv
Формат : Matroska
Версия формата : Version 4
Размер файла : 5,94 Гбайт
Продолжительность : 1 ч. 49 м.
Общий поток : 7 774 Кбит/сек
Дата кодирования : UTC 2021-09-06 11:08:32
Программа кодирования : mkvmerge v9.2.0 ('Photograph') 64bit
Библиотека кодирования : libebml v1.3.3 + libmatroska v1.4.4

Видео
Идентификатор : 1
Формат : HEVC
Формат/Информация : High Efficiency Video Coding
Профиль формата : Main 10@L4.1@High
Идентификатор кодека : V_MPEGH/ISO/HEVC
Продолжительность : 1 ч. 49 м.
Битрейт : 6 556 Кбит/сек
Ширина : 1 920 пикселей
Высота : 816 пикселей
Соотношение сторон : 2,35:1
Режим частоты кадров : Постоянный
Частота кадров : 23,976 (24000/1001) кадра/сек
Цветовое пространство : YUV
Субдискретизация насыщенности : 4:2:0
Битовая глубина : 10 бит
Бит/(Пиксели*Кадры) : 0.175
Размер потока : 5,01 Гбайт (84%)
Библиотека кодирования : x265 3.5+10-82786fccc:[Windows][MSVC 1929][64 bit] 10bit
Настройки программы : cpuid=1049583 / frame-threads=3 / numa-pools=8 / wpp / no-pmode / no-pme / no-psnr / no-ssim / log-level=2 / input-csp=1 / input-res=1920x816 / interlace=0 / total-frames=157360 / level-idc=41 / high-tier=1 / uhd-bd=0 / ref=5 / no-allow-non-conformance / no-repeat-headers / annexb / no-aud / no-eob / no-eos / no-hrd / info / hash=0 / no-temporal-layers / open-gop / min-keyint=24 / keyint=240 / gop-lookahead=0 / bframes=8 / b-adapt=2 / b-pyramid / bframe-bias=0 / rc-lookahead=40 / lookahead-slices=4 / scenecut=40 / hist-scenecut=0 / radl=0 / no-splice / no-intra-refresh / ctu=32 / min-cu-size=8 / rect / no-amp / max-tu-size=32 / tu-inter-depth=4 / tu-intra-depth=4 / limit-tu=1 / rdoq-level=2 / dynamic-rd=4.00 / no-ssim-rd / signhide / no-tskip / nr-intra=0 / nr-inter=0 / constrained-intra / no-strong-intra-smoothing / max-merge=3 / limit-refs=3 / limit-modes / me=3 / subme=7 / merange=57 / temporal-mvp / no-frame-dup / no-hme / weightp / weightb / no-analyze-src-pics / deblock=-2:-2 / no-sao / no-sao-non-deblock / rd=4 / selective-sao=0 / no-early-skip / rskip / no-fast-intra / no-tskip-fast / no-cu-lossless / b-intra / no-splitrd-skip / rdpenalty=0 / psy-rd=1.50 / psy-rdoq=0.70 / no-rd-refine / no-lossless / cbqpoffs=0 / crqpoffs=0 / rc=crf / crf=19.5 / qcomp=0.60 / qpstep=4 / stats-write=0 / stats-read=0 / vbv-maxrate=50000 / vbv-bufsize=50000 / vbv-init=0.9 / min-vbv-fullness=50.0 / max-vbv-fullness=80.0 / crf-max=0.0 / crf-min=0.0 / ipratio=1.40 / pbratio=1.30 / aq-mode=2 / aq-strength=0.80 / no-cutree / zone-count=0 / no-strict-cbr / qg-size=32 / no-rc-grain / qpmax=69 / qpmin=0 / no-const-vbv / sar=1 / overscan=0 / videoformat=5 / range=0 / colorprim=1 / transfer=1 / colormatrix=1 / chromaloc=0 / display-window=0 / cll=0,0 / min-luma=0 / max-luma=1023 / log2-max-poc-lsb=8 / vui-timing-info / vui-hrd-info / slices=1 / no-opt-qp-pps / no-opt-ref-list-length-pps / no-multi-pass-opt-rps / scenecut-bias=0.05 / hist-threshold=0.03 / no-opt-cu-delta-qp / no-aq-motion / no-hdr10 / no-hdr10-opt / no-dhdr10-opt / no-idr-recovery-sei / analysis-reuse-level=0 / analysis-save-reuse-level=0 / analysis-load-reuse-level=0 / scale-factor=0 / refine-intra=0 / refine-inter=0 / refine-mv=1 / refine-ctu-distortion=0 / no-limit-sao / ctu-info=0 / no-lowpass-dct / refine-analysis-type=0 / copy-pic=1 / max-ausize-factor=1.0 / no-dynamic-refine / no-single-sei / no-hevc-aq / no-svt / no-field / qp-adaptation-range=1.00 / scenecut-aware-qp=0conformance-window-offsets / right=0 / bottom=0 / decoder-max-rate=0 / no-vbv-live-multi-pass
Default : Да
Forced : Нет
Цветовой диапазон : Limited
Основные цвета : BT.709
Характеристики трансфера : BT.709
Коэффициенты матрицы : BT.709

Аудио #1
Идентификатор : 2
Формат : DTS
Формат/Информация : Digital Theater Systems
Идентификатор кодека : A_DTS
Продолжительность : 1 ч. 49 м.
Вид битрейта : Постоянный
Битрейт : 768 Кбит/сек
Каналы : 6 каналов
Channel layout : C L R Ls Rs LFE
Частота : 48,0 КГц
Частота кадров : 93,750 кадра/сек (512 SPF)
Битовая глубина : 24 бит
Метод сжатия : С потерями
Размер потока : 601 Мбайт (10%)
Заголовок : Дубляж BD
Default : Да
Forced : Нет

Аудио #2
Идентификатор : 3
Формат : AC-3
Формат/Информация : Audio Coding 3
Коммерческое название : Dolby Digital
Идентификатор кодека : A_AC3
Продолжительность : 1 ч. 49 м.
Вид битрейта : Постоянный
Битрейт : 448 Кбит/сек
Каналы : 6 каналов
Channel layout : L R C LFE Ls Rs
Частота : 48,0 КГц
Частота кадров : 31,250 кадров/сек (1536 SPF)
Метод сжатия : С потерями
Размер потока : 351 Мбайт (6%)
Заголовок : VO С.Макашов (нецензурная лексика)
Service kind : Complete Main
Default : Нет
Forced : Нет

Текст
Идентификатор : 4
Формат : UTF-8
Идентификатор кодека : S_TEXT/UTF8
Идентификатор кодека/Информация : UTF-8 Plain Text
Продолжительность : 1 ч. 39 м.
Битрейт : 1 бит/сек
Count of elements : 27
Размер потока : 1,08 Кбайт (0%)
Заголовок : Russian Forced
Default : Да
Forced : Нет

Меню
00:00:00.000 : en:00:00:00.000
00:10:51.150 : en:00:10:51.150
00:13:25.513 : en:00:13:25.513
00:19:56.320 : en:00:19:56.320
00:25:47.796 : en:00:25:47.796
00:37:26.286 : en:00:37:26.286
00:44:16.153 : en:00:44:16.153
00:52:57.383 : en:00:52:57.383
00:56:41.773 : en:00:56:41.773
01:03:34.519 : en:01:03:34.519
01:09:00.595 : en:01:09:00.595
01:15:34.822 : en:01:15:34.822
01:21:46.819 : en:01:21:46.819
01:30:15.702 : en:01:30:15.702
01:37:30.011 : en:01:37:30.011
01:44:46.822 : en:01:44:46.822
01:49:23.140 : en:01:49:23.140
Загрузка...Cкриншот1 Рассвет мертвецов / Dawn of the Dead (2004) [Unrated Director's Cut] BDRip 1080p [HEVC] 10 bit от ADVOKAT69Загрузка...Cкриншот2 Рассвет мертвецов / Dawn of the Dead (2004) [Unrated Director's Cut] BDRip 1080p [HEVC] 10 bit от ADVOKAT69Загрузка...Cкриншот3 Рассвет мертвецов / Dawn of the Dead (2004) [Unrated Director's Cut] BDRip 1080p [HEVC] 10 bit от ADVOKAT69Загрузка...Cкриншот4 Рассвет мертвецов / Dawn of the Dead (2004) [Unrated Director's Cut] BDRip 1080p [HEVC] 10 bit от ADVOKAT69
Сэмпл Торрент🧲 Магнет

Рейтинги КП и IMDB, кнопки "Позвать в чате" и "Спасибо", а также мультитрекерная статистика доступны только зарегистрированным/авторизованным пользователям!

Файлы: 1
  • Рассвет мертвецов (2004) [Unrated Director's Cut] HEVC 10bit.mkv   5.94 ГБ
Поблагодарили: 11
alexyak, and50, donadar, HANNIBAL, Kilop77, ko1ob, KuHTo4KuH, makss333, nazarpavluwun, Nuclear70, Rexfire
ADVOKAT69
058815.94 ГБ

Добавление нового комментария

Добавление комментариев доступно только зарегистрированным/авторизованным пользователям.