💬 Мини-чат

OldGamerНасколько я помню, даже мой первый стик 2014 года тянул hevc, хотя и подтупливал на перемотке
OldGamerВыбирайте по цене и отзывам.
OldGamerСообщение удалено (удалил: OldGamer)
OldGamerЛюбой, всё что выпускалось за последние 3 года, вполне тянет hevc. Чуть раньше в чате ссылку давал на обсуждения на 4пда.
SAHA55Подскажите,пожалуйста какой купить медио плеер для просмотра видео в HEVC x265 с переносного жёсткого на 1 Тб. TV старый Panasonic
  • abtr
  • Blaster
  • Brooklyn
  • cdmitry
  • Krem_OFF
Отправка сообщений доступна только зарегистрированным/авторизованным пользователям.
Онлайн (за 10 мин.): 5

Дитя Чудовища / Bakemono no Ko (2015) BDRip 1080p [HEVC] 10 bit от -Star-Lord- (RG RIPS CLUB)

HEVC
10 bit
Обложка Дитя Чудовища / Bakemono no Ko (2015) BDRip 1080p [HEVC] 10 bit от -Star-Lord- (RG RIPS CLUB) Год: 2015
Страна: Япония
Студия: Studio Chizu
Жанр: Мультфильм, Приключения, Фэнтези
Продолжительность: 01:59:06

Режиссер: Хосода Мамору
В ролях: Якусё Кодзи, Миядзаки Аой, Сомэтани Сёта, Хиросэ Судзу, Оидзуми Ё, Лили Фрэнки, Цугава Масахико, Ямадзи Кадзухиро, Куроки Хару, Мияно Мамору, Оно Момока, Ямагути Каппэй, Морохоси Сумирэ, Нагацука Кэйси, Асо Кумико

Описание: История происходит в двух реальностях: человеческом мире (Сибуя, Токио) и мире монстров. В этих двух мирах, которые не должны пересекаться, живут одинокий мальчик и одинокий монстр. Однажды случается так, что мальчик попадает в мир монстров, становится учеником монстра по имени Медвежут и принимает новое имя Девята.


Видео: 1920x1040, ~5004 Кбит/сек
Аудио1: AC3, 6 ch, 640 Kbps - РусскийРусский, Дублированный (Reanimedia)
Аудио2: AC3, 2 ch, 192 Kbps - РусскийРусский, Любительский многоголосый закадровый (AniFilm)
Аудио3: AC3, 2 ch, 192 Kbps - РусскийРусский, Любительский двухголосый закадровый (AniDUB)
Аудио4: AC3, 6 ch, 640 Kbps - РусскийРусский, Любительский многоголосый закадровый (SHIZA-Project)
Аудио5: AC3, 6 ch, 640 Kbps - РусскийРусский, Любительский многоголосый закадровый (LE-Production)
Аудио6: AC3, 2 ch, 192 Kbps - РусскийРусский, Любительский многоголосый закадровый (ARRU)
Аудио7: AC3, 2 ch, 192 Kbps - РусскийРусский, Любительский многоголосый закадровый (ANIvoice)
Аудио8: AC3, 6 ch, 448 bps - УкраинскийУкраинский, Многоголосый (MelodicVoiceStudio)
Аудио9: AC3, 6 ch, 640 Kbps - ЯпонскийЯпонский, Оригинал
Субтитры: русские, украинские (форс., полные), японские

Как за пару секунд удалить ненужные аудиодорожки и субтитры (Внимание! После удаления вы не сможете поддержать раздачу)

Лог (x265 info)
x265 [info]: frame I: 1523, Avg QP:16.99 kb/s: 26876.16
x265 [info]: frame P: 31059, Avg QP:17.90 kb/s: 10789.13
x265 [info]: frame B: 138762, Avg QP:19.46 kb/s: 3467.94
x265 [info]: Weighted P-Frames: Y:5.3% UV:3.8%
x265 [info]: Weighted B-Frames: Y:3.7% UV:2.2%
x265 [info]: consecutive B-frames: 13.8% 7.5% 8.6% 20.0% 11.4% 15.4% 5.5% 4.3% 1.7% 1.4% 2.6% 1.9% 1.9% 0.7% 1.0% 0.8% 1.5%

encoded 171344 frames in 152248.17s (1.13 fps), 5003.09 kb/s, Avg QP:19.15
Медиаинфо
General
Unique ID : 330701369644465423971505990133996179306 (0xF8CAC45D0C8A242F2D39D938A85DCF6A)
Complete name : Bakemono no ko (2015) BDRip 1080p H.265 [7xRUS_UKR_JPN] [RIPS-CLUB].mkv
Format : Matroska
Format version : Version 4
File size : 7.26 GiB
Duration : 1 h 59 min
Overall bit rate : 8 724 kb/s
Movie name : Ученик чудовища / Хлопчик і Чудовисько / Bakemono no ko (2015)
Encoded date : UTC 2021-09-07 11:47:52
Writing application : mkvmerge v20.0.0 ('I Am The Sun') 64-bit
Writing library : libebml v1.3.5 + libmatroska v1.4.8
Cover : Yes
Attachments : Cover.jpg

Video
ID : 1
Format : HEVC
Format/Info : High Efficiency Video Coding
Format profile : Main 10@L4.1@High
Codec ID : V_MPEGH/ISO/HEVC
Duration : 1 h 59 min
Bit rate : 5 004 kb/s
Width : 1 920 pixels
Height : 1 040 pixels
Display aspect ratio : 1.85:1
Frame rate mode : Constant
Frame rate : 23.976 (24000/1001) FPS
Color space : YUV
Chroma subsampling : 4:2:0
Bit depth : 10 bits
Bits/(Pixel*Frame) : 0.105
Stream size : 4.16 GiB (57%)
Title : Ученик чудовища / Хлопчик і Чудовисько / Bakemono no ko (2015)
Writing library : x265 3.5+1-ce882936d:[Windows][GCC 10.2.0][64 bit] 10bit
Encoding settings : cpuid=1111039 / frame-threads=3 / numa-pools=12 / wpp / no-pmode / no-pme / no-psnr / no-ssim / log-level=2 / input-csp=1 / input-res=1920x1040 / interlace=0 / total-frames=171344 / level-idc=41 / high-tier=1 / uhd-bd=0 / ref=5 / no-allow-non-conformance / no-repeat-headers / annexb / no-aud / no-hrd / info / hash=0 / no-temporal-layers / open-gop / min-keyint=23 / keyint=240 / gop-lookahead=0 / bframes=16 / b-adapt=2 / b-pyramid / bframe-bias=0 / rc-lookahead=60 / lookahead-slices=4 / scenecut=40 / hist-scenecut=0 / radl=0 / no-splice / no-intra-refresh / ctu=32 / min-cu-size=8 / rect / amp / max-tu-size=32 / tu-inter-depth=4 / tu-intra-depth=4 / limit-tu=1 / rdoq-level=2 / dynamic-rd=0.00 / no-ssim-rd / signhide / no-tskip / nr-intra=0 / nr-inter=0 / no-constrained-intra / no-strong-intra-smoothing / max-merge=5 / limit-refs=2 / limit-modes / me=3 / subme=7 / merange=57 / temporal-mvp / no-frame-dup / no-hme / weightp / weightb / no-analyze-src-pics / deblock=-3:-3 / no-sao / no-sao-non-deblock / rd=6 / selective-sao=0 / no-early-skip / no-rskip / no-fast-intra / no-tskip-fast / no-cu-lossless / no-b-intra / no-splitrd-skip / rdpenalty=0 / psy-rd=2.00 / psy-rdoq=1.00 / no-rd-refine / no-lossless / cbqpoffs=0 / crqpoffs=0 / rc=crf / crf=20.5 / qcomp=0.70 / qpstep=4 / stats-write=0 / stats-read=0 / vbv-maxrate=50000 / vbv-bufsize=50000 / vbv-init=0.9 / min-vbv-fullness=50.0 / max-vbv-fullness=80.0 / crf-max=0.0 / crf-min=0.0 / ipratio=1.40 / pbratio=1.30 / aq-mode=1 / aq-strength=1.00 / no-cutree / zone-count=0 / no-strict-cbr / qg-size=32 / no-rc-grain / qpmax=69 / qpmin=0 / no-const-vbv / sar=1 / overscan=0 / videoformat=5 / range=0 / colorprim=2 / transfer=2 / colormatrix=2 / chromaloc=0 / display-window=0 / cll=0,0 / min-luma=0 / max-luma=1023 / log2-max-poc-lsb=8 / vui-timing-info / vui-hrd-info / slices=1 / no-opt-qp-pps / no-opt-ref-list-length-pps / no-multi-pass-opt-rps / scenecut-bias=0.05 / hist-threshold=0.03 / no-opt-cu-delta-qp / no-aq-motion / no-hdr10 / no-hdr10-opt / no-dhdr10-opt / no-idr-recovery-sei / analysis-reuse-level=0 / analysis-save-reuse-level=0 / analysis-load-reuse-level=0 / scale-factor=0 / refine-intra=0 / refine-inter=0 / refine-mv=1 / refine-ctu-distortion=0 / no-limit-sao / ctu-info=0 / no-lowpass-dct / refine-analysis-type=0 / copy-pic=1 / max-ausize-factor=1.0 / no-dynamic-refine / no-single-sei / no-hevc-aq / no-svt / no-field / qp-adaptation-range=1.00 / scenecut-aware-qp=0conformance-window-offsets / right=0 / bottom=0 / decoder-max-rate=0 / no-vbv-live-multi-pass
Language : Japanese
Default : Yes
Forced : Yes

Audio #1
ID : 2
Format : AC-3
Format/Info : Audio Coding 3
Commercial name : Dolby Digital
Codec ID : A_AC3
Duration : 1 h 59 min
Bit rate mode : Constant
Bit rate : 640 kb/s
Channel(s) : 6 channels
Channel layout : L R C LFE Ls Rs
Sampling rate : 48.0 kHz
Frame rate : 31.250 FPS (1536 SPF)
Compression mode : Lossy
Stream size : 545 MiB (7%)
Title : AC-3 / 5.1 Ch / 640 kbps / DUB / Reanimedia
Language : Russian
Service kind : Complete Main
Default : Yes
Forced : Yes

Audio #2
ID : 3
Format : AC-3
Format/Info : Audio Coding 3
Commercial name : Dolby Digital
Codec ID : A_AC3
Duration : 1 h 59 min
Bit rate mode : Constant
Bit rate : 192 kb/s
Channel(s) : 2 channels
Channel layout : L R
Sampling rate : 48.0 kHz
Frame rate : 31.250 FPS (1536 SPF)
Compression mode : Lossy
Stream size : 164 MiB (2%)
Title : AC-3 / 2.0 Ch / 192 kbps / MVO / AniFilm (Octav, Delete, Мулентий, Баяна, Сати Акура)
Language : Russian
Service kind : Complete Main
Default : No
Forced : No

Audio #3
ID : 4
Format : AC-3
Format/Info : Audio Coding 3
Commercial name : Dolby Digital
Codec ID : A_AC3
Duration : 1 h 59 min
Bit rate mode : Constant
Bit rate : 128 kb/s
Channel(s) : 2 channels
Channel layout : L R
Sampling rate : 48.0 kHz
Frame rate : 31.250 FPS (1536 SPF)
Compression mode : Lossy
Stream size : 109 MiB (1%)
Title : AC-3 / 2.0 Ch / 128 kbps / DVO / AniDUB (Гамлетка Цезаревна & 9й Неизвестный)
Language : Russian
Service kind : Complete Main
Default : No
Forced : No

Audio #4
ID : 5
Format : AC-3
Format/Info : Audio Coding 3
Commercial name : Dolby Digital
Codec ID : A_AC3
Duration : 1 h 59 min
Bit rate mode : Constant
Bit rate : 640 kb/s
Channel(s) : 6 channels
Channel layout : L R C LFE Ls Rs
Sampling rate : 48.0 kHz
Frame rate : 31.250 FPS (1536 SPF)
Compression mode : Lossy
Stream size : 545 MiB (7%)
Title : AC-3 / 5.1 Ch / 640 kbps / MVO / SHIZA-Project (gobr, Dancel, Egoist, Тань-УХ-а & Viki)
Language : Russian
Service kind : Complete Main
Default : No
Forced : No

Audio #5
ID : 6
Format : AC-3
Format/Info : Audio Coding 3
Commercial name : Dolby Digital
Codec ID : A_AC3
Duration : 1 h 59 min
Bit rate mode : Constant
Bit rate : 640 kb/s
Channel(s) : 6 channels
Channel layout : L R C LFE Ls Rs
Sampling rate : 48.0 kHz
Frame rate : 31.250 FPS (1536 SPF)
Compression mode : Lossy
Stream size : 545 MiB (7%)
Title : AC-3 / 5.1 Ch / 640 kbps / MVO / LE-Production (Тимиркан Сиюхов, Маргарита Щелкунова и Михаил Глушенков)
Language : Russian
Service kind : Complete Main
Default : No
Forced : No

Audio #6
ID : 7
Format : AC-3
Format/Info : Audio Coding 3
Commercial name : Dolby Digital
Codec ID : A_AC3
Duration : 1 h 59 min
Bit rate mode : Constant
Bit rate : 192 kb/s
Channel(s) : 2 channels
Channel layout : L R
Sampling rate : 48.0 kHz
Frame rate : 31.250 FPS (1536 SPF)
Compression mode : Lossy
Stream size : 164 MiB (2%)
Title : AC-3 / 2.0 Ch / 192 kbps / MVO / ARRU (Keksik, MifSnaiper & Molodoy)
Language : Russian
Service kind : Complete Main
Default : No
Forced : No

Audio #7
ID : 8
Format : AC-3
Format/Info : Audio Coding 3
Commercial name : Dolby Digital
Codec ID : A_AC3
Duration : 1 h 59 min
Bit rate mode : Constant
Bit rate : 192 kb/s
Channel(s) : 2 channels
Channel layout : L R
Sampling rate : 48.0 kHz
Frame rate : 31.250 FPS (1536 SPF)
Compression mode : Lossy
Stream size : 164 MiB (2%)
Title : AC-3 / 2.0 Ch / 192 kbps / MVO / ANIvoice (Shira, Kombik & ShoutaVoice)
Language : Russian
Service kind : Complete Main
Default : No
Forced : No

Audio #8
ID : 9
Format : AC-3
Format/Info : Audio Coding 3
Commercial name : Dolby Digital
Codec ID : A_AC3
Duration : 1 h 59 min
Bit rate mode : Constant
Bit rate : 448 kb/s
Channel(s) : 6 channels
Channel layout : L R C LFE Ls Rs
Sampling rate : 48.0 kHz
Frame rate : 31.250 FPS (1536 SPF)
Compression mode : Lossy
Stream size : 382 MiB (5%)
Title : AC-3 / 5.1 Ch / 448 kbps / MVO / MelodicVoiceStudio
Language : Ukrainian
Service kind : Complete Main
Default : No
Forced : No

Audio #9
ID : 10
Format : AC-3
Format/Info : Audio Coding 3
Commercial name : Dolby Digital
Codec ID : A_AC3
Duration : 1 h 59 min
Bit rate mode : Constant
Bit rate : 640 kb/s
Channel(s) : 6 channels
Channel layout : L R C LFE Ls Rs
Sampling rate : 48.0 kHz
Frame rate : 31.250 FPS (1536 SPF)
Compression mode : Lossy
Stream size : 545 MiB (7%)
Title : AC-3 / 5.1 Ch / 640 kbps / Original
Language : Japanese
Service kind : Complete Main
Default : No
Forced : No

Text #1
ID : 11
Format : UTF-8
Codec ID : S_TEXT/UTF8
Codec ID/Info : UTF-8 Plain Text
Duration : 1 h 57 min
Bit rate : 89 b/s
Count of elements : 1518
Stream size : 77.0 KiB (0%)
Title : Full by zafhos
Language : Russian
Default : No
Forced : No

Text #2
ID : 12
Format : ASS
Codec ID : S_TEXT/ASS
Codec ID/Info : Advanced Sub Station Alpha
Duration : 1 h 59 min
Bit rate : 21 b/s
Count of elements : 103
Compression mode : Lossless
Stream size : 18.3 KiB (0%)
Title : Forced
Language : Ukrainian
Default : No
Forced : No

Text #3
ID : 13
Format : ASS
Codec ID : S_TEXT/ASS
Codec ID/Info : Advanced Sub Station Alpha
Duration : 1 h 59 min
Bit rate : 202 b/s
Count of elements : 1901
Compression mode : Lossless
Stream size : 176 KiB (0%)
Title : Full by bills_spirit
Language : Ukrainian
Default : No
Forced : No

Text #4
ID : 14
Format : PGS
Muxing mode : zlib
Codec ID : S_HDMV/PGS
Codec ID/Info : Picture based subtitle format used on BDs/HD-DVDs
Bit rate : 0 b/s
Count of elements : 1
Stream size : 2.55 MiB (0%)
Title : Full
Language : Japanese
Default : No
Forced : No

Menu
00:00:00.000 : en:Chapter 1
00:02:45.165 : en:Chapter 2
00:07:00.420 : en:Chapter 3
00:10:28.002 : en:Chapter 4
00:15:40.648 : en:Chapter 5
00:19:58.739 : en:Chapter 6
00:29:19.841 : en:Chapter 7
00:34:11.966 : en:Chapter 8
00:38:05.783 : en:Chapter 9
00:44:45.391 : en:Chapter 10
00:49:55.409 : en:Chapter 11
00:55:01.381 : en:Chapter 12
01:02:33.833 : en:Chapter 13
01:08:42.535 : en:Chapter 14
01:14:48.233 : en:Chapter 15
01:16:45.892 : en:Chapter 16
01:23:46.938 : en:Chapter 17
01:27:29.244 : en:Chapter 18
01:33:16.340 : en:Chapter 19
01:38:40.456 : en:Chapter 20
01:42:22.261 : en:Chapter 21
01:48:53.193 : en:Chapter 22
01:54:02.836 : en:Chapter 23
Загрузка...Cкриншот1 Дитя Чудовища / Bakemono no Ko (2015) BDRip 1080p [HEVC] 10 bit от -Star-Lord- (RG RIPS CLUB)Загрузка...Cкриншот2 Дитя Чудовища / Bakemono no Ko (2015) BDRip 1080p [HEVC] 10 bit от -Star-Lord- (RG RIPS CLUB)Загрузка...Cкриншот3 Дитя Чудовища / Bakemono no Ko (2015) BDRip 1080p [HEVC] 10 bit от -Star-Lord- (RG RIPS CLUB)Загрузка...Cкриншот4 Дитя Чудовища / Bakemono no Ko (2015) BDRip 1080p [HEVC] 10 bit от -Star-Lord- (RG RIPS CLUB)
Релиз-группа: RIPS CLUB
Сэмпл Торрент🧲 Магнет

Рейтинги КП и IMDB, кнопки "Позвать в чате" и "Спасибо", а также мультитрекерная статистика доступны только зарегистрированным/авторизованным пользователям!

Файлы: 1
  • Bakemono no ko (2015) BDRip 1080p H.265 [7xRUS_UKR_JPN] [RIPS-CLUB].mkv   7.26 ГБ
Поблагодарили: 4
donadar, Kilop77, makss333, Mr. Fox
StarLord
039607.26 ГБ

Добавление нового комментария

Добавление комментариев доступно только зарегистрированным/авторизованным пользователям.