💬 Мини-чат

OldGamerНасколько я помню, даже мой первый стик 2014 года тянул hevc, хотя и подтупливал на перемотке
OldGamerВыбирайте по цене и отзывам.
OldGamerСообщение удалено (удалил: OldGamer)
OldGamerЛюбой, всё что выпускалось за последние 3 года, вполне тянет hevc. Чуть раньше в чате ссылку давал на обсуждения на 4пда.
SAHA55Подскажите,пожалуйста какой купить медио плеер для просмотра видео в HEVC x265 с переносного жёсткого на 1 Тб. TV старый Panasonic
  • abtr
  • alexyak
  • sahabandit
Отправка сообщений доступна только зарегистрированным/авторизованным пользователям.
Онлайн (за 10 мин.): 3

Свой человек / The Insider (1999) BDRip 1080p [HEVC] 10 bit от HANNIBAL

HEVC
10 bit
Обложка Свой человек / The Insider (1999) BDRip 1080p [HEVC] 10 bit от HANNIBAL Год: 1999
Страна: США
Студия: Blue Lion Entertainment, Forward Pass, Spyglass Entertainm, Touchstone Pictures
Жанр: Драма, Биография, Триллер
Продолжительность: 02:37:46

Режиссер: Майкл Манн
В ролях: Аль Пачино, Рассел Кроу, Кристофер Пламмер, Дайан Венора, Филип Бэйкер Холл, Линдсэй Круз, Деби Мазар, Стивен Тоболовски, Колм Фиори, Брюс МакГилл.

Описание: Джеффри Уайгэнда увольняют с поста вице-президента крупнейшей табачной компании за то, что он протестует против использования в табачной продукции компонента, вызывающего у курильщиков наркотическую зависимость. Лоуэлл Бергман, продюсер популярного телешоу, узнает об этом и убеждает Уайгэнда выступить с разоблачительным интервью по телевидению… Естественно, это очень не нравится столпам табачной индустрии, заверяющих в безвредности производимой продукции. Олигархи принимают самые суровые меры, чтобы информация не стала достоянием гласности. От Уайгэнда уходит жена, Лоуэлла Бергмана отправляют в отпуск. Там, где задействованы большие деньги, бесполезно бороться за справедливость, но Лоуэлл и Уайгэнд не прекращают борьбу.


Видео: 1920x800, ~6658 Кбит/сек
Аудио1: AC3, 6 ch, 384 Kbps - РусскийРусский, Многоголосый (R5)
Аудио2: AC3, 6 ch, 384 Kbps - РусскийРусский, Одноголосый (Чадов)
Аудио3: AC3, 6 ch, 448 Kbps - РусскийРусский, Оригинал
Субтитры: Русские, английские

Как за пару секунд удалить ненужные аудиодорожки и субтитры (Внимание! После удаления вы не сможете поддержать раздачу)

Лог (x265 info)
x265 [info]: frame I: 2060, Avg QP:15.74 kb/s: 38171.88
x265 [info]: frame P: 39832, Avg QP:17.01 kb/s: 14637.40
x265 [info]: frame B: 185087, Avg QP:19.59 kb/s: 4588.95
x265 [info]: Weighted P-Frames: Y:4.4% UV:3.7%
x265 [info]: Weighted B-Frames: Y:4.2% UV:3.2%
x265 [info]: consecutive B-frames: 6.6% 2.7% 5.3% 20.2% 10.8% 27.8% 8.4% 13.8% 2.3% 1.2% 0.3% 0.3% 0.2%
Медиаинфо
General
Unique ID : 87542348107082277403429310810048105012 (0x41DC0AFF911AB373A55651702AB30A34)
Complete name : H:\HEVC-CLUB\The Insider (1999) BDRip-HEVC 1080p 10 bit.mkv
Format : Matroska
Format version : Version 4
File size : 8.68 GiB
Duration : 2 h 37 min
Overall bit rate : 7 877 kb/s
Movie name : by- HANNIBAL
Encoded date : UTC 2021-09-07 19:29:50
Writing application : mkvmerge v56.0.0 ('Strasbourg / St. Denis') 64-bit
Writing library : libebml v1.4.2 + libmatroska v1.6.4
Cover : Yes
Attachments : cover.jpg

Video
ID : 1
Format : HEVC
Format/Info : High Efficiency Video Coding
Format profile : Main 10@L4.1@High
Codec ID : V_MPEGH/ISO/HEVC
Duration : 2 h 37 min
Bit rate : 6 658 kb/s
Width : 1 920 pixels
Height : 800 pixels
Display aspect ratio : 2.40:1
Frame rate mode : Constant
Frame rate : 23.976 (23976/1000) FPS
Original frame rate : 23.976 (24000/1001) FPS
Color space : YUV
Chroma subsampling : 4:2:0
Bit depth : 10 bits
Bits/(Pixel*Frame) : 0.181
Stream size : 7.34 GiB (85%)
Writing library : x265 3.5+1-ce882936d:[Windows][GCC 10.2.0][64 bit] 10bit
Encoding settings : cpuid=1111039 / frame-threads=3 / numa-pools=12 / wpp / no-pmode / no-pme / no-psnr / no-ssim / log-level=2 / input-csp=1 / input-res=1920x800 / interlace=0 / total-frames=226979 / level-idc=41 / high-tier=1 / uhd-bd=0 / ref=5 / no-allow-non-conformance / no-repeat-headers / annexb / no-aud / no-hrd / info / hash=0 / no-temporal-layers / open-gop / min-keyint=23 / keyint=240 / gop-lookahead=0 / bframes=12 / b-adapt=2 / b-pyramid / bframe-bias=0 / rc-lookahead=60 / lookahead-slices=4 / scenecut=40 / hist-scenecut=0 / radl=0 / no-splice / no-intra-refresh / ctu=32 / min-cu-size=8 / rect / amp / max-tu-size=32 / tu-inter-depth=4 / tu-intra-depth=4 / limit-tu=0 / rdoq-level=2 / dynamic-rd=0.00 / no-ssim-rd / signhide / no-tskip / nr-intra=0 / nr-inter=0 / no-constrained-intra / no-strong-intra-smoothing / max-merge=5 / limit-refs=0 / no-limit-modes / me=3 / subme=7 / merange=57 / temporal-mvp / no-frame-dup / no-hme / weightp / weightb / no-analyze-src-pics / deblock=0:0 / no-sao / no-sao-non-deblock / rd=4 / selective-sao=0 / no-early-skip / rskip / no-fast-intra / no-tskip-fast / no-cu-lossless / b-intra / no-splitrd-skip / rdpenalty=0 / psy-rd=2.00 / psy-rdoq=1.00 / no-rd-refine / no-lossless / cbqpoffs=0 / crqpoffs=0 / rc=crf / crf=19.0 / qcomp=0.70 / qpstep=4 / stats-write=0 / stats-read=0 / vbv-maxrate=50000 / vbv-bufsize=50000 / vbv-init=0.9 / min-vbv-fullness=50.0 / max-vbv-fullness=80.0 / crf-max=0.0 / crf-min=0.0 / ipratio=1.40 / pbratio=1.30 / aq-mode=2 / aq-strength=1.00 / no-cutree / zone-count=0 / no-strict-cbr / qg-size=32 / no-rc-grain / qpmax=69 / qpmin=0 / no-const-vbv / sar=1 / overscan=0 / videoformat=5 / range=0 / colorprim=1 / transfer=1 / colormatrix=1 / chromaloc=0 / display-window=0 / cll=0,0 / min-luma=0 / max-luma=1023 / log2-max-poc-lsb=8 / vui-timing-info / vui-hrd-info / slices=1 / no-opt-qp-pps / no-opt-ref-list-length-pps / no-multi-pass-opt-rps / scenecut-bias=0.05 / hist-threshold=0.03 / no-opt-cu-delta-qp / no-aq-motion / no-hdr10 / no-hdr10-opt / no-dhdr10-opt / no-idr-recovery-sei / analysis-reuse-level=0 / analysis-save-reuse-level=0 / analysis-load-reuse-level=0 / scale-factor=0 / refine-intra=0 / refine-inter=0 / refine-mv=1 / refine-ctu-distortion=0 / no-limit-sao / ctu-info=0 / no-lowpass-dct / refine-analysis-type=0 / copy-pic=1 / max-ausize-factor=1.0 / no-dynamic-refine / no-single-sei / no-hevc-aq / no-svt / no-field / qp-adaptation-range=1.00 / scenecut-aware-qp=0conformance-window-offsets / right=0 / bottom=0 / decoder-max-rate=0 / no-vbv-live-multi-pass
Default : Yes
Forced : No
Color range : Limited
Color primaries : BT.709
Transfer characteristics : BT.709
Matrix coefficients : BT.709

Audio #1
ID : 2
Format : AC-3
Format/Info : Audio Coding 3
Commercial name : Dolby Digital
Codec ID : A_AC3
Duration : 2 h 37 min
Bit rate mode : Constant
Bit rate : 384 kb/s
Channel(s) : 6 channels
Channel layout : L R C LFE Ls Rs
Sampling rate : 48.0 kHz
Frame rate : 31.250 FPS (1536 SPF)
Compression mode : Lossy
Stream size : 433 MiB (5%)
Title : Профессиональный многоголосый (R5)
Language : Russian
Service kind : Complete Main
Default : Yes
Forced : No

Audio #2
ID : 3
Format : AC-3
Format/Info : Audio Coding 3
Commercial name : Dolby Digital
Codec ID : A_AC3
Duration : 2 h 37 min
Bit rate mode : Constant
Bit rate : 384 kb/s
Channel(s) : 6 channels
Channel layout : L R C LFE Ls Rs
Sampling rate : 48.0 kHz
Frame rate : 31.250 FPS (1536 SPF)
Compression mode : Lossy
Stream size : 433 MiB (5%)
Title : AVO (Чадова)
Service kind : Complete Main
Default : No
Forced : No

Audio #3
ID : 4
Format : AC-3
Format/Info : Audio Coding 3
Commercial name : Dolby Digital
Codec ID : A_AC3
Duration : 2 h 37 min
Bit rate mode : Constant
Bit rate : 448 kb/s
Channel(s) : 6 channels
Channel layout : L R C LFE Ls Rs
Sampling rate : 48.0 kHz
Frame rate : 31.250 FPS (1536 SPF)
Compression mode : Lossy
Stream size : 506 MiB (6%)
Title : Оригинал
Language : English
Service kind : Complete Main
Default : No
Forced : No

Text #1
ID : 5
Format : UTF-8
Codec ID : S_TEXT/UTF8
Codec ID/Info : UTF-8 Plain Text
Duration : 2 h 33 min
Bit rate : 88 b/s
Count of elements : 1246
Stream size : 100.0 KiB (0%)
Language : Russian
Default : No
Forced : No

Text #2
ID : 6
Format : UTF-8
Codec ID : S_TEXT/UTF8
Codec ID/Info : UTF-8 Plain Text
Duration : 2 h 36 min
Bit rate : 66 b/s
Count of elements : 1964
Stream size : 76.3 KiB (0%)
Language : English
Default : No
Forced : No

Menu
00:00:00.000 : Opening Credits/Lebanon
00:06:14.499 : Bad News
00:12:41.343 : Interview In South Beirut
00:15:12.244 : The Anonymous Package Arrives
00:17:23.292 : Search For A Consultant
00:22:30.932 : Meeting At The Seelbach
00:29:00.029 : Don't Talk
00:37:42.843 : Lowell Confronts Jeff
00:43:55.132 : Looking For An Angle
00:48:01.503 : Starting A New Life
00:51:18.033 : Who's Outside?
00:54:29.432 : Moment Of Decision
00:57:20.061 : Cards On The Table
01:01:10.875 : A Legal Loophole
01:03:49.242 : Terror At Home
01:12:11.327 : The First Taped Interview
01:17:26.767 : Heightened Security
01:23:00.892 : A New Gag Order
01:30:45.440 : Deposition In Mississippi
01:40:28.772 : Tortious Interference
01:43:58.523 : An Abridged Version Of The Show
01:51:27.681 : Skeletons In The Closet
01:56:44.080 : Damage Control
02:03:34.281 : Paying The Highest Price
02:15:42.551 : All The News That's Fit To Print
02:19:20.810 : Other Considerations
02:23:33.730 : A Legacy Betrayed
02:26:37.747 : Victory, At What Cost?
02:30:18.968 : Calling It Quits
02:33:18.105 : End Credits
Загрузка...Cкриншот1 Свой человек / The Insider (1999) BDRip 1080p [HEVC] 10 bit от HANNIBALЗагрузка...Cкриншот2 Свой человек / The Insider (1999) BDRip 1080p [HEVC] 10 bit от HANNIBALЗагрузка...Cкриншот3 Свой человек / The Insider (1999) BDRip 1080p [HEVC] 10 bit от HANNIBALЗагрузка...Cкриншот4 Свой человек / The Insider (1999) BDRip 1080p [HEVC] 10 bit от HANNIBAL
Сэмпл Торрент🧲 Магнет

Рейтинги КП и IMDB, кнопки "Позвать в чате" и "Спасибо", а также мультитрекерная статистика доступны только зарегистрированным/авторизованным пользователям!

Файлы: 1
  • The Insider (1999) BDRip-HEVC 1080p 10 bit.mkv   8.68 ГБ
Поблагодарили: 8
diesel0000, donadar, Flann, Kilop77, makss333, Nuclear70, SoulBoy, torrentzulu
HANNIBAL
221308.68 ГБ

Добавление нового комментария

Добавление комментариев доступно только зарегистрированным/авторизованным пользователям.
Аватар HANNIBAL
  HANNIBAL  
torrentzulu писал(а):
Русский, Одноголосый (Чадова) поправьте, пожалуйста, - Чадов
Спасибо исправил
Аватар не указан
  torrentzulu  
Русский, Одноголосый (Чадова) поправьте, пожалуйста, - Чадов