💬 Мини-чат

OldGamerНасколько я помню, даже мой первый стик 2014 года тянул hevc, хотя и подтупливал на перемотке
OldGamerВыбирайте по цене и отзывам.
OldGamerСообщение удалено (удалил: OldGamer)
OldGamerЛюбой, всё что выпускалось за последние 3 года, вполне тянет hevc. Чуть раньше в чате ссылку давал на обсуждения на 4пда.
SAHA55Подскажите,пожалуйста какой купить медио плеер для просмотра видео в HEVC x265 с переносного жёсткого на 1 Тб. TV старый Panasonic
  • ADVOKAT69
  • Chestnoc
Отправка сообщений доступна только зарегистрированным/авторизованным пользователям.
Онлайн (за 10 мин.): 2

Сияние / The Shining (1980) [Director's Cut] UHD-BDRip 1080p [HEVC] 10 bit [HDR] от Mr. Fox

HEVC
HDR
10 bit
Обложка Сияние / The Shining (1980) [Director's Cut] UHD-BDRip 1080p [HEVC] 10 bit [HDR] от Mr. Fox Год: 1980
Страна: США, Великобритания
Студия: Hawk Films Ltd., Peregrine, Producers Circle, Warner Bros. Pictures
Жанр: Ужасы, Триллер, Драма, Детектив
Продолжительность: 02:23:47

Режиссер: Стэнли Кубрик
В ролях: Джек Николсон, Шелли Дювалл, Дэнни Ллойд, Скэтмэн Крозерс, Бэрри Нельсон, Филип Стоун, Джо Тёркел, Энн Джексон, Тони Бертон, Лия Белдам

Описание: Джек Торренс с женой и сыном приезжает в элегантный отдалённый отель, чтобы работать смотрителем во время мертвого сезона. Торренс здесь раньше никогда не бывал. Или это не совсем так? Ответ лежит во мраке, сотканном из преступного кошмара.


Видео: 1920x1080, ~8258 Кбит/сек
Аудио1: AC3, 2 ch, 192 Kbps - РусскийРусский, Дублированный (Пифагор) + вставки многоголосого (Киномания) на расширенные сцены
Аудио2: AC3, 6 ch, 448 Kbps - РусскийРусский, Многоголосый (Киномания)
Аудио3: AC3, 2 ch, 640 Kbps - УкраинскийУкраинский, Многоголосый (1+1)
Аудио4: AC3, 6 ch, 448 Kbps - АнглийскийАнглийский, Оригинал
Субтитры: русские, украинские (форсированные, полные), английские

Как за пару секунд удалить ненужные аудиодорожки и субтитры (Внимание! После удаления вы не сможете поддержать раздачу)

Лог (x265 info)
x265 [info]: frame I: Avg QP:17.31 kb/s
x265 [info]: frame P: Avg QP:18.53 kb/s
x265 [info]: frame B: Avg QP:20.00 kb/s
Медиаинфо
General
Unique ID : 147461159821394388775967537717372343056 (0x6EEFFC8058A8EC6DD59190F03B015310)
Complete name : E:\Torrent\The Shining (1980).mkv
Format : Matroska
Format version : Version 4
File size : 10.0 GiB
Duration : 2 h 23 min
Overall bit rate : 9 987 kb/s
Movie name : The Shining (1980)
Encoded date : UTC 2021-09-04 13:34:49
Writing application : mkvmerge v60.0.0 ('Are We Copies?') 64-bit
Writing library : libebml v1.4.2 + libmatroska v1.6.4
Cover : Yes
Attachments : cover

Video
ID : 1
Format : HEVC
Format/Info : High Efficiency Video Coding
Format profile : Main 10@L4.1@High
HDR format : SMPTE ST 2086, HDR10 compatible
Codec ID : V_MPEGH/ISO/HEVC
Duration : 2 h 23 min
Bit rate : 8 258 kb/s
Width : 1 920 pixels
Height : 1 080 pixels
Display aspect ratio : 16:9
Frame rate mode : Constant
Frame rate : 23.976 (23976/1000) FPS
Original frame rate : 23.976 (24000/1001) FPS
Color space : YUV
Chroma subsampling : 4:2:0 (Type 2)
Bit depth : 10 bits
Bits/(Pixel*Frame) : 0.166
Stream size : 8.29 GiB (83%)
Writing library : x265 3.5+1-ce882936d:[Windows][MSVC 1928][64 bit] 10bit
Encoding settings : cpuid=1111039 / frame-threads=4 / numa-pools=16 / wpp / no-pmode / no-pme / no-psnr / no-ssim / log-level=2 / input-csp=1 / input-res=1920x1080 / interlace=0 / total-frames=206811 / level-idc=41 / high-tier=1 / uhd-bd=0 / ref=5 / no-allow-non-conformance / repeat-headers / annexb / no-aud / no-hrd / info / hash=0 / no-temporal-layers / open-gop / min-keyint=23 / keyint=240 / gop-lookahead=0 / bframes=16 / b-adapt=2 / b-pyramid / bframe-bias=0 / rc-lookahead=60 / lookahead-slices=4 / scenecut=40 / hist-scenecut=0 / radl=0 / no-splice / no-intra-refresh / ctu=32 / min-cu-size=8 / rect / amp / max-tu-size=32 / tu-inter-depth=4 / tu-intra-depth=4 / limit-tu=1 / rdoq-level=2 / dynamic-rd=0.00 / no-ssim-rd / signhide / no-tskip / nr-intra=0 / nr-inter=0 / no-constrained-intra / no-strong-intra-smoothing / max-merge=4 / limit-refs=2 / limit-modes / me=3 / subme=7 / merange=57 / temporal-mvp / no-frame-dup / no-hme / weightp / weightb / no-analyze-src-pics / deblock=-3:-3 / no-sao / no-sao-non-deblock / rd=6 / selective-sao=0 / no-early-skip / no-rskip / no-fast-intra / no-tskip-fast / no-cu-lossless / no-b-intra / no-splitrd-skip / rdpenalty=0 / psy-rd=2.00 / psy-rdoq=1.00 / no-rd-refine / no-lossless / cbqpoffs=0 / crqpoffs=0 / rc=crf / crf=19.0 / qcomp=0.65 / qpstep=4 / stats-write=0 / stats-read=0 / vbv-maxrate=50000 / vbv-bufsize=50000 / vbv-init=0.9 / min-vbv-fullness=50.0 / max-vbv-fullness=80.0 / crf-max=0.0 / crf-min=0.0 / ipratio=1.40 / pbratio=1.30 / aq-mode=1 / aq-strength=1.00 / no-cutree / zone-count=0 / no-strict-cbr / qg-size=32 / no-rc-grain / qpmax=69 / qpmin=0 / no-const-vbv / sar=1 / overscan=0 / videoformat=5 / range=0 / colorprim=9 / transfer=16 / colormatrix=9 / chromaloc=1 / chromaloc-top=2 / chromaloc-bottom=2 / display-window=0 / master-display=G(13250,34500)B(7500,3000)R(34000,16000)WP(15635,16450)L(40000000,50) / cll=1633,114 / min-luma=0 / max-luma=1023 / log2-max-poc-lsb=8 / vui-timing-info / vui-hrd-info / slices=1 / no-opt-qp-pps / no-opt-ref-list-length-pps / no-multi-pass-opt-rps / scenecut-bias=0.05 / hist-threshold=0.03 / no-opt-cu-delta-qp / no-aq-motion / hdr10 / hdr10-opt / no-dhdr10-opt / no-idr-recovery-sei / analysis-reuse-level=0 / analysis-save-reuse-level=0 / analysis-load-reuse-level=0 / scale-factor=0 / refine-intra=0 / refine-inter=0 / refine-mv=1 / refine-ctu-distortion=0 / no-limit-sao / ctu-info=0 / no-lowpass-dct / refine-analysis-type=0 / copy-pic=1 / max-ausize-factor=1.0 / no-dynamic-refine / no-single-sei / no-hevc-aq / no-svt / no-field / qp-adaptation-range=1.00 / scenecut-aware-qp=0conformance-window-offsets / right=0 / bottom=0 / decoder-max-rate=0 / no-vbv-live-multi-pass
Default : Yes
Forced : No
Color range : Limited
Color primaries : BT.2020
Transfer characteristics : PQ
Matrix coefficients : BT.2020 non-constant
Mastering display color primar : Display P3
Mastering display luminance : min: 0.0050 cd/m2, max: 4000 cd/m2
Maximum Content Light Level : 1633 cd/m2
Maximum Frame-Average Light Le : 114 cd/m2

Audio #1
ID : 2
Format : AC-3
Format/Info : Audio Coding 3
Commercial name : Dolby Digital
Codec ID : A_AC3
Duration : 2 h 23 min
Bit rate mode : Constant
Bit rate : 192 kb/s
Channel(s) : 2 channels
Channel layout : L R
Sampling rate : 48.0 kHz
Frame rate : 31.250 FPS (1536 SPF)
Compression mode : Lossy
Stream size : 197 MiB (2%)
Title : Дубляж (Пифагор) + вставки MVO (Киномания)
Language : Russian
Service kind : Complete Main
Default : Yes
Forced : No

Audio #2
ID : 3
Format : AC-3
Format/Info : Audio Coding 3
Commercial name : Dolby Digital
Codec ID : A_AC3
Duration : 2 h 23 min
Bit rate mode : Constant
Bit rate : 448 kb/s
Channel(s) : 6 channels
Channel layout : L R C LFE Ls Rs
Sampling rate : 48.0 kHz
Frame rate : 31.250 FPS (1536 SPF)
Compression mode : Lossy
Stream size : 461 MiB (4%)
Title : MVO [Киномания]
Language : Russian
Service kind : Complete Main
Default : No
Forced : No

Audio #3
ID : 4
Format : AC-3
Format/Info : Audio Coding 3
Commercial name : Dolby Digital
Codec ID : A_AC3
Duration : 2 h 23 min
Bit rate mode : Constant
Bit rate : 640 kb/s
Channel(s) : 2 channels
Channel layout : L R
Sampling rate : 48.0 kHz
Frame rate : 31.250 FPS (1536 SPF)
Compression mode : Lossy
Delay relative to video : 500 ms
Stream size : 658 MiB (6%)
Title : MVO (1+1)
Language : Ukrainian
Service kind : Complete Main
Default : Yes
Forced : Yes

Audio #4
ID : 5
Format : AC-3
Format/Info : Audio Coding 3
Commercial name : Dolby Digital
Codec ID : A_AC3
Duration : 2 h 23 min
Bit rate mode : Constant
Bit rate : 448 kb/s
Channel(s) : 6 channels
Channel layout : L R C LFE Ls Rs
Sampling rate : 48.0 kHz
Frame rate : 31.250 FPS (1536 SPF)
Compression mode : Lossy
Stream size : 461 MiB (4%)
Title : Original
Language : English
Service kind : Complete Main
Default : No
Forced : No

Text #1
ID : 6
Format : UTF-8
Codec ID : S_TEXT/UTF8
Codec ID/Info : UTF-8 Plain Text
Duration : 2 h 19 min
Bit rate : 67 b/s
Count of elements : 1469
Stream size : 68.7 KiB (0%)
Title : Full
Language : Russian
Default : No
Forced : No

Text #2
ID : 7
Format : UTF-8
Codec ID : S_TEXT/UTF8
Codec ID/Info : UTF-8 Plain Text
Duration : 1 h 35 min
Bit rate : 25 b/s
Count of elements : 342
Stream size : 17.6 KiB (0%)
Title : Forced by Taras_F21.03
Language : Ukrainian
Default : No
Forced : No

Text #3
ID : 8
Format : UTF-8
Codec ID : S_TEXT/UTF8
Codec ID/Info : UTF-8 Plain Text
Duration : 2 h 19 min
Bit rate : 63 b/s
Count of elements : 1306
Stream size : 65.2 KiB (0%)
Title : Full
Language : Ukrainian
Default : No
Forced : No

Text #4
ID : 9
Format : UTF-8
Codec ID : S_TEXT/UTF8
Codec ID/Info : UTF-8 Plain Text
Duration : 2 h 14 min
Bit rate : 40 b/s
Count of elements : 1301
Stream size : 39.7 KiB (0%)
Title : Full
Language : English
Default : No
Forced : No

Menu
00:00:00.000 : :Drive to the Overlook
00:03:00.847 : :The Interview
00:05:05.638 : :Quite a Story
00:10:34.467 : :Bloody Vision
00:12:07.893 : :The Doctor's Questions
00:14:24.697 : :Family History
00:17:38.390 : :Closing Day
00:20:31.230 : :The Tour
00:24:58.997 : :Doc Gets The Message
00:28:52.063 : :Talk of Shining - and Room 237
00:34:10.547 : :A Month Later: Bouncing and Exploring
00:40:29.260 : :Tuesday: Curiosity for Danny, Rules for Wendy
00:46:01.425 : :Thursday: Snowbound
00:46:52.643 : :Saturday: Slipping Out of Touch
00:49:17.788 : :Come and Play
00:51:16.573 : :Monday: "I Love You, Danny"
00:57:02.252 : :Wednesday: Room 237 Beckons
00:58:37.180 : :Nightmares and Neck Wounds
01:02:37.587 : :The Gold Room
01:06:06.128 : :Words of Wisdom
01:09:01.136 : :Halloran Shines; Jack Rages
01:16:52.774 : :Danny Shines; Jack Rages
01:22:19.100 : :The Party
01:25:30.291 : :Delbert Grady
01:31:41.496 : :"Redrum! Danny's Not Here"
01:34:04.305 : :Sabotage
01:35:49.076 : :Halloran Flies In
01:39:30.965 : :All Work and No Play
01:43:50.390 : :What Should Be Done With Danny
01:49:26.893 : :Jack In Storage; Wendy In A Frenzy
01:54:24.858 : :Grady Intervenes; Halloran en Route
01:58:45.118 : :"Redrum!"
02:01:09.929 : :"Here's Johnny"
02:05:30.523 : :On The Prowl
02:07:33.145 : :Halloran Killed
02:10:23.982 : :Into The Maze
02:12:10.422 : :"Great Party, Isn't It?"
02:15:03.762 : :Escape
02:18:57.495 : :The Overlook Claims Jack
02:21:17.968 : :End Credits
Загрузка...Cкриншот1 Сияние / The Shining (1980) [Director's Cut] UHD-BDRip 1080p [HEVC] 10 bit [HDR] от Mr. FoxЗагрузка...Cкриншот2 Сияние / The Shining (1980) [Director's Cut] UHD-BDRip 1080p [HEVC] 10 bit [HDR] от Mr. FoxЗагрузка...Cкриншот3 Сияние / The Shining (1980) [Director's Cut] UHD-BDRip 1080p [HEVC] 10 bit [HDR] от Mr. FoxЗагрузка...Cкриншот4 Сияние / The Shining (1980) [Director's Cut] UHD-BDRip 1080p [HEVC] 10 bit [HDR] от Mr. Fox
Сэмпл Торрент🧲 Магнет

Рейтинги КП и IMDB, кнопки "Позвать в чате" и "Спасибо", а также мультитрекерная статистика доступны только зарегистрированным/авторизованным пользователям!

Файлы: 1
  • The Shining (1980).mkv   10.03 ГБ
Поблагодарили: 6
diesel0000, han-nik, Kiran, makss333, Nuclear70, z_artem
Admin
07815210.03 ГБ

Добавление нового комментария

Добавление комментариев доступно только зарегистрированным/авторизованным пользователям.