💬 Мини-чат

OldGamerНасколько я помню, даже мой первый стик 2014 года тянул hevc, хотя и подтупливал на перемотке
OldGamerВыбирайте по цене и отзывам.
OldGamerСообщение удалено (удалил: OldGamer)
OldGamerЛюбой, всё что выпускалось за последние 3 года, вполне тянет hevc. Чуть раньше в чате ссылку давал на обсуждения на 4пда.
SAHA55Подскажите,пожалуйста какой купить медио плеер для просмотра видео в HEVC x265 с переносного жёсткого на 1 Тб. TV старый Panasonic
  • ADVOKAT69
  • AlexTwitt
  • Despise
  • solohin1006
  • uzas1985
Отправка сообщений доступна только зарегистрированным/авторизованным пользователям.
Онлайн (за 10 мин.): 5

Джентльмен из Эпсома / Le gentleman d'Epsom (1962) BDRip 1080p [HEVC] 10 bit от OldGamer (RG RIPS CLUB)

HEVC
10 bit
Обложка Джентльмен из Эпсома / Le gentleman d'Epsom (1962) BDRip 1080p [HEVC] 10 bit от OldGamer (RG RIPS CLUB) Год: 1962
Страна: Франция, Италия
Студия: C.I.P.R.A., Compagnia Cinematografica Mondiale (CCM)
Жанр: Комедия, Криминал
Продолжительность: 01:27:10

Режиссер: Жиль Гранжье
В ролях: Жан Габен, Мадлен Робинсон, Жан Лефевр, Луи де Фюнес, Франк Виллар, Жак Марен, Жан Мартинелли, Жоэлль Бернар, Алин Бертран, Леонс Корн

Описание: Ричард Брианд-Чармери бывший командор кавалерийского эскадрона, находясь в отставке, промышляет «советами» на скачках. Он знаток всех лошадей на этом ипподроме и ловит наивных игроков, которые с охотой готовы заплатить за прогноз, тем более, если его сделал такой статный и солидный игрок как господин Брианд. Чтобы гарантировано получить свой процент, он советует делать ставки нескольким игрокам одновременно на разных скакунов и сам не остаётся в накладе. «Командор» привык вести широкий образ жизни, а для этого нужны новые игроки которых он «научит» и которым он «подскажет». Компаньон афериста, помогающий найти наивных новичков, рассказывает ему о рестораторе мсье Гаспаре Рипе, который имеет неплохой бизнес, но он глуп, жаден и страшно недоверчив. Чтобы уговорить его расстаться с деньгами, необходим человек с большим стажем игры на тотализаторе и великим опытом убеждения. А это, конечно же - «Командор». Одурманенный красивыми рассказами об успехах предсказаний «Командора», Рипе с радостью расстаётся с крупной суммой ради большого куша, но он не знает, что ждёт его впереди...


Исходник: Blu-Ray Remux 1080p (TeamHD)
Видео: 1920x820 (2.35:1), 11,8 Мбит/сек, HEVC (Main10@L.4.1@High)
Аудио1: AC3, 2 ch, 192 Kbps - РусскийРусский, DUB (Киностудия имени М. Горького) + вставки MVO
Аудио2: AC3, 2 ch, 192 Kbps - РусскийРусский, MVO (Film-Prestige)
Аудио3: AC3, 2 ch, 192 Kbps - РусскийРусский, MVO (ТВ Центр)
Аудио4: AC3, 2 ch, 640 Kbps - РусскийРусский, AVO (Роман Янкелевич)
Аудио5: AC3, 2 ch, 640 Kbps - FrenchFrench, Original
Субтитры: Русские полные (SRT), French full (SRT), English full (SRT)

Как за пару секунд удалить ненужные аудиодорожки и субтитры (Внимание! После удаления вы не сможете поддержать раздачу)

Лог (x265 info)
x265 [info]: frame I: 524, Avg QP:17.93 kb/s: 26767.66
x265 [info]: frame P: 21944, Avg QP:19.19 kb/s: 20002.71
x265 [info]: frame B: 103051, Avg QP:21.56 kb/s: 10025.67
x265 [info]: Weighted P-Frames: Y:21.3% UV:0.1%
x265 [info]: Weighted B-Frames: Y:8.3% UV:0.1%
x265 [info]: consecutive B-frames: 0.4% 0.6% 1.2% 27.0% 10.0% 43.9% 7.7% 7.1% 1.3% 0.5% 0.2% 0.1% 0.1%
x265 [info]: encoded 125519 frames in 94272.24s (1.33 fps), 11839.81 kb/s, Avg QP:21.13
Медиаинфо
Общее
Уникальный идентификатор : 176628800649784400556681084311672247104 (0x84E17839195B45E73540E3A34A80D340)
Полное имя : \\.\Джентльмен.из.Эпсома.Le.gentleman.d'Epsom.1962.BDRip-HEVC.1080p.mkv
Формат : Matroska
Версия формата : Version 4
Размер файла : 8,34 Гбайт
Продолжительность : 1 ч. 27 м.
Общий поток : 13,7 Мбит/сек
Название фильма : Джентльмен.из.Эпсома.Le.gentleman.d'Epsom.1962.BDRip-HEVC.1080p
Дата кодирования : UTC 2021-09-09 14:01:11
Программа кодирования : mkvmerge v61.0.0 ('So') 64-bit
Библиотека кодирования : libebml v1.4.2 + libmatroska v1.6.4

Видео
Идентификатор : 1
Формат : HEVC
Формат/Информация : High Efficiency Video Coding
Профиль формата : Main 10@L4.1@High
Идентификатор кодека : V_MPEGH/ISO/HEVC
Продолжительность : 1 ч. 27 м.
Битрейт : 11,8 Мбит/сек
Ширина : 1 920 пикселей
Высота : 820 пикселей
Соотношение сторон : 2,35:1
Режим частоты кадров : Постоянный
Частота кадров : 24,000 кадра/сек
Цветовое пространство : YUV
Субдискретизация насыщенности : 4:2:0
Битовая глубина : 10 бит
Бит/(Пиксели*Кадры) : 0.313
Размер потока : 7,21 Гбайт (86%)
Заголовок : Le gentleman d'Epsom / Rip by OldGamer
Библиотека кодирования : x265 3.5+13-4c6880de4:[Windows][GCC 11.2.0][64 bit] 10bit
Настройки программы : cpuid=1111039 / frame-threads=3 / numa-pools=8 / wpp / no-pmode / no-pme / no-psnr / no-ssim / log-level=2 / input-csp=1 / input-res=1920x820 / interlace=0 / total-frames=125519 / level-idc=41 / high-tier=1 / uhd-bd=0 / ref=5 / no-allow-non-conformance / no-repeat-headers / annexb / no-aud / no-eob / no-eos / no-hrd / info / hash=0 / no-temporal-layers / open-gop / min-keyint=23 / keyint=240 / gop-lookahead=0 / bframes=12 / b-adapt=2 / b-pyramid / bframe-bias=0 / rc-lookahead=40 / lookahead-slices=0 / scenecut=40 / no-hist-scenecut / radl=0 / no-splice / no-intra-refresh / ctu=32 / min-cu-size=8 / rect / amp / max-tu-size=32 / tu-inter-depth=4 / tu-intra-depth=4 / limit-tu=1 / rdoq-level=2 / dynamic-rd=0.00 / no-ssim-rd / signhide / no-tskip / nr-intra=0 / nr-inter=0 / no-constrained-intra / no-strong-intra-smoothing / max-merge=5 / limit-refs=3 / no-limit-modes / me=3 / subme=7 / merange=57 / temporal-mvp / no-frame-dup / no-hme / weightp / weightb / no-analyze-src-pics / deblock=-3:-3 / no-sao / no-sao-non-deblock / rd=6 / selective-sao=0 / no-early-skip / no-rskip / no-fast-intra / no-tskip-fast / no-cu-lossless / b-intra / no-splitrd-skip / rdpenalty=0 / psy-rd=2.00 / psy-rdoq=1.00 / no-rd-refine / no-lossless / cbqpoffs=0 / crqpoffs=0 / rc=crf / crf=18.0 / qcomp=0.60 / qpstep=4 / stats-write=0 / stats-read=0 / vbv-maxrate=50000 / vbv-bufsize=50000 / vbv-init=0.9 / min-vbv-fullness=50.0 / max-vbv-fullness=80.0 / crf-max=0.0 / crf-min=0.0 / ipratio=1.40 / pbratio=1.30 / aq-mode=1 / aq-strength=1.00 / no-cutree / zone-count=1 / zones: / start-frame=125081 / end-frame=125519 / qp=36 / no-strict-cbr / qg-size=32 / no-rc-grain / qpmax=69 / qpmin=0 / no-const-vbv / sar=1 / overscan=0 / videoformat=5 / range=0 / colorprim=2 / transfer=2 / colormatrix=2 / chromaloc=0 / display-window=0 / cll=0,0 / min-luma=0 / max-luma=1023 / log2-max-poc-lsb=8 / vui-timing-info / vui-hrd-info / slices=1 / no-opt-qp-pps / no-opt-ref-list-length-pps / no-multi-pass-opt-rps / scenecut-bias=0.00 / hist-threshold=0.03 / no-opt-cu-delta-qp / no-aq-motion / no-hdr10 / no-hdr10-opt / no-dhdr10-opt / no-idr-recovery-sei / analysis-reuse-level=0 / analysis-save-reuse-level=0 / analysis-load-reuse-level=0 / scale-factor=0 / refine-intra=0 / refine-inter=0 / refine-mv=1 / refine-ctu-distortion=0 / no-limit-sao / ctu-info=0 / no-lowpass-dct / refine-analysis-type=0 / copy-pic=1 / max-ausize-factor=1.0 / no-dynamic-refine / no-single-sei / no-hevc-aq / no-svt / no-field / qp-adaptation-range=1.00 / scenecut-aware-qp=0conformance-window-offsets / right=0 / bottom=0 / decoder-max-rate=0 / no-vbv-live-multi-pass
Язык : French
Default : Да
Forced : Нет

Аудио #1
Идентификатор : 2
Формат : AC-3
Формат/Информация : Audio Coding 3
Коммерческое название : Dolby Digital
Идентификатор кодека : A_AC3
Продолжительность : 1 ч. 27 м.
Вид битрейта : Постоянный
Битрейт : 192 Кбит/сек
Каналы : 2 канала
Channel layout : L R
Частота : 48,0 КГц
Частота кадров : 31,250 кадров/сек (1536 SPF)
Метод сжатия : С потерями
Размер потока : 120 Мбайт (1%)
Заголовок : DUB (Киностудия имени М. Горького) + вставки MVO
Язык : Russian
Service kind : Complete Main
Default : Да
Forced : Нет

Аудио #2
Идентификатор : 3
Формат : AC-3
Формат/Информация : Audio Coding 3
Коммерческое название : Dolby Digital
Идентификатор кодека : A_AC3
Продолжительность : 1 ч. 27 м.
Вид битрейта : Постоянный
Битрейт : 192 Кбит/сек
Каналы : 2 канала
Channel layout : L R
Частота : 48,0 КГц
Частота кадров : 31,250 кадров/сек (1536 SPF)
Метод сжатия : С потерями
Размер потока : 120 Мбайт (1%)
Заголовок : MVO (Film-Prestige)
Язык : Russian
Service kind : Complete Main
Default : Нет
Forced : Нет

Аудио #3
Идентификатор : 4
Формат : AC-3
Формат/Информация : Audio Coding 3
Коммерческое название : Dolby Digital
Идентификатор кодека : A_AC3
Продолжительность : 1 ч. 27 м.
Вид битрейта : Постоянный
Битрейт : 192 Кбит/сек
Каналы : 2 канала
Channel layout : L R
Частота : 48,0 КГц
Частота кадров : 31,250 кадров/сек (1536 SPF)
Метод сжатия : С потерями
Размер потока : 120 Мбайт (1%)
Заголовок : MVO (ТВ Центр)
Язык : Russian
Service kind : Complete Main
Default : Нет
Forced : Нет

Аудио #4
Идентификатор : 5
Формат : AC-3
Формат/Информация : Audio Coding 3
Коммерческое название : Dolby Digital
Идентификатор кодека : A_AC3
Продолжительность : 1 ч. 27 м.
Вид битрейта : Постоянный
Битрейт : 640 Кбит/сек
Каналы : 2 канала
Channel layout : L R
Частота : 48,0 КГц
Частота кадров : 31,250 кадров/сек (1536 SPF)
Метод сжатия : С потерями
Размер потока : 399 Мбайт (5%)
Заголовок : AVO (Роман Янкелевич)
Язык : Russian
Service kind : Complete Main
Default : Нет
Forced : Нет

Аудио #5
Идентификатор : 6
Формат : AC-3
Формат/Информация : Audio Coding 3
Коммерческое название : Dolby Digital
Идентификатор кодека : A_AC3
Продолжительность : 1 ч. 27 м.
Вид битрейта : Постоянный
Битрейт : 640 Кбит/сек
Каналы : 2 канала
Channel layout : L R
Частота : 48,0 КГц
Частота кадров : 31,250 кадров/сек (1536 SPF)
Метод сжатия : С потерями
Размер потока : 399 Мбайт (5%)
Язык : French
Service kind : Complete Main
Default : Нет
Forced : Нет

Текст #1
Идентификатор : 7
Формат : UTF-8
Идентификатор кодека : S_TEXT/UTF8
Идентификатор кодека/Информация : UTF-8 Plain Text
Продолжительность : 1 ч. 26 м.
Битрейт : 105 бит/сек
Count of elements : 933
Размер потока : 66,2 Кбайт (0%)
Заголовок : Full (Film Prestige)
Язык : Russian
Default : Нет
Forced : Нет

Текст #2
Идентификатор : 8
Формат : UTF-8
Идентификатор кодека : S_TEXT/UTF8
Идентификатор кодека/Информация : UTF-8 Plain Text
Продолжительность : 1 ч. 26 м.
Битрейт : 73 бит/сек
Count of elements : 1141
Размер потока : 46,7 Кбайт (0%)
Язык : French
Default : Нет
Forced : Нет

Текст #3
Идентификатор : 9
Формат : UTF-8
Идентификатор кодека : S_TEXT/UTF8
Идентификатор кодека/Информация : UTF-8 Plain Text
Продолжительность : 1 ч. 26 м.
Битрейт : 56 бит/сек
Count of elements : 1073
Размер потока : 35,5 Кбайт (0%)
Заголовок : Full BD
Язык : English
Default : Нет
Forced : Нет

Текст #4
Идентификатор : 10
Формат : UTF-8
Идентификатор кодека : S_TEXT/UTF8
Идентификатор кодека/Информация : UTF-8 Plain Text
Продолжительность : 1 ч. 25 м.
Битрейт : 57 бит/сек
Count of elements : 940
Размер потока : 35,9 Кбайт (0%)
Заголовок : Full DVD
Язык : English
Default : Нет
Forced : Нет

Меню
00:00:00.000 : fr:Le Commandant
00:07:08.375 : fr:Un Joueur Invétéré
00:12:28.875 : fr:Une Matinée Active
00:20:32.666 : fr:Le Bon Cheval
00:24:59.958 : fr:En Famille
00:30:06.208 : fr:Heureuse Rencontre
00:35:08.291 : fr:Soirée Galante
00:42:04.459 : fr:Souvenir d'Epsom
00:47:45.833 : fr:Plus un Sou
00:53:05.000 : fr:Le Pigeon Plumé
00:58:04.875 : fr:Nouvelle Proie
01:06:29.875 : fr:La Bérésina
01:14:04.291 : fr:Le Tout Pour Le Tout
01:17:16.457 : fr:Qui Perd Gagne
01:20:26.416 : fr:Le № 8
Загрузка...Cкриншот1 Джентльмен из Эпсома / Le gentleman d'Epsom (1962) BDRip 1080p [HEVC] 10 bit от OldGamer (RG RIPS CLUB)Загрузка...Cкриншот2 Джентльмен из Эпсома / Le gentleman d'Epsom (1962) BDRip 1080p [HEVC] 10 bit от OldGamer (RG RIPS CLUB)Загрузка...Cкриншот3 Джентльмен из Эпсома / Le gentleman d'Epsom (1962) BDRip 1080p [HEVC] 10 bit от OldGamer (RG RIPS CLUB)Загрузка...Cкриншот4 Джентльмен из Эпсома / Le gentleman d'Epsom (1962) BDRip 1080p [HEVC] 10 bit от OldGamer (RG RIPS CLUB)
Релиз-группа: RIPS CLUB
Сэмпл Торрент🧲 Магнет

Рейтинги КП и IMDB, кнопки "Позвать в чате" и "Спасибо", а также мультитрекерная статистика доступны только зарегистрированным/авторизованным пользователям!

Файлы: 1
  • Джентльмен.из.Эпсома.Le.gentleman.d'Epsom.1962.BDRip-HEVC.1080p.mkv   8.34 ГБ
Поблагодарили: 9
and50, donadar, han-nik, ivan_1965, Kiran, makss333, Mr. Fox, Rezident, torrentzulu
OldGamer
149508.34 ГБ

Добавление нового комментария

Добавление комментариев доступно только зарегистрированным/авторизованным пользователям.
Аватар не указан
  torrentzulu  
Битрейт - великолепен! Подбор дорог - отличный! Спасибо!