💬 Мини-чат

OldGamerНасколько я помню, даже мой первый стик 2014 года тянул hevc, хотя и подтупливал на перемотке
OldGamerВыбирайте по цене и отзывам.
OldGamerСообщение удалено (удалил: OldGamer)
OldGamerЛюбой, всё что выпускалось за последние 3 года, вполне тянет hevc. Чуть раньше в чате ссылку давал на обсуждения на 4пда.
SAHA55Подскажите,пожалуйста какой купить медио плеер для просмотра видео в HEVC x265 с переносного жёсткого на 1 Тб. TV старый Panasonic
  • OldGamer
  • abtr
  • dead_head
Отправка сообщений доступна только зарегистрированным/авторизованным пользователям.
Онлайн (за 10 мин.): 3

Форсаж 9 / F9 (2021) [Theatrical Cut, iTunes] BDRip 1080p [HEVC] 10 bit от OldGamer (RG RIPS CLUB)

HEVC
10 bit
Обложка Форсаж 9 / F9 (2021) [Theatrical Cut, iTunes] BDRip 1080p [HEVC] 10 bit от OldGamer (RG RIPS CLUB) Год: 2021
Страна: США, Таиланд, Канада
Студия: One Race Films, Original Film, Perfect Storm Entertainment, Roth/Kirschenbaum Films, Universal Pictures
Жанр: Боевик, Триллер, Криминал, Приключения
Продолжительность: 02:22:52

Режиссер: Джастин Лин
В ролях: Вин Дизель, Джон Сина, Тайриз Гибсон, Лудакрис, Джордана Брюстер, Натали Эммануэль, Мишель Родригес, Сон Ган, Шарлиз Терон, Анна Саваи

Описание: Доминик Торетто ведёт спокойную жизнь вместе с Летти и сыном Брайаном, но новая опасность всегда где-то рядом. В этот раз Доминику придётся встретиться с призраками прошлого, если он хочет спасти самых близких. Команда снова собирается вместе, чтобы предотвратить дерзкий план по захвату мира, который придумал самый опасный преступник и безбашенный водитель из всех, с кем они сталкивались ранее. Ситуация усложняется тем, что этот человек — брат Доминика Джейкоб, которого много лет назад изгнали из семьи.


Исходник: Blu-Ray Remux 1080p
Видео: 1920x804 (2.40:1), 8119 Кбит/сек, HEVC (Main10@L.4.1@High)
Аудио1: AC3, 6 ch, 384 Kbps - РусскийРусский, DUB (iTunes)
Аудио2: AC3, 6 ch, 384 Kbps - УкраинскийУкраинский, DUB
Аудио3: AC3, 6 ch, 640 Kbps - EnglishEnglish, Original
Субтитры: Русские полные (SRT), Украинские форсированные (SRT), English full (SRT)

Как за пару секунд удалить ненужные аудиодорожки и субтитры (Внимание! После удаления вы не сможете поддержать раздачу)

Лог (x265 info)
x265 [info]: frame I: 866, Avg QP:17.80 kb/s: 20622.97
x265 [info]: frame P: 47076, Avg QP:19.13 kb/s: 15019.17
x265 [info]: frame B: 157586, Avg QP:21.32 kb/s: 5988.24
x265 [info]: Weighted P-Frames: Y:6.7% UV:5.3%
x265 [info]: Weighted B-Frames: Y:5.9% UV:4.4%
x265 [info]: consecutive B-frames: 6.9% 7.8% 10.2% 42.5% 8.8% 14.5% 2.4% 6.1% 0.2% 0.1% 0.0% 0.1% 0.4% 0.0%
x265 [info]: encoded 205528 frames in 182345.00s (1.13 fps), 8118.43 kb/s, Avg QP:20.81
Медиаинфо
Общее
Уникальный идентификатор : 111305636287853454894032427674783028408 (0x53BCAF8FF8C72050145281FA504D94B8)
Полное имя : \\.\10.Форсаж.9.F9.Theatrical.Cut.2021.BDRip-HEVC.1080p.mkv
Формат : Matroska
Версия формата : Version 4
Размер файла : 9,51 Гбайт
Продолжительность : 2 ч. 22 м.
Общий поток : 9 530 Кбит/сек
Название фильма : 10.Форсаж.9.F9.Theatrical.Cut.2021.BDRip-HEVC.1080p
Дата кодирования : UTC 2021-09-14 01:14:52
Программа кодирования : mkvmerge v61.0.0 ('So') 64-bit
Библиотека кодирования : libebml v1.4.2 + libmatroska v1.6.4

Видео
Идентификатор : 1
Формат : HEVC
Формат/Информация : High Efficiency Video Coding
Профиль формата : Main 10@L4.1@High
Идентификатор кодека : V_MPEGH/ISO/HEVC
Продолжительность : 2 ч. 22 м.
Битрейт : 8 119 Кбит/сек
Ширина : 1 920 пикселей
Высота : 804 пикселя
Соотношение сторон : 2,40:1
Режим частоты кадров : Постоянный
Частота кадров : 23,976 (24000/1001) кадра/сек
Цветовое пространство : YUV
Субдискретизация насыщенности : 4:2:0
Битовая глубина : 10 бит
Бит/(Пиксели*Кадры) : 0.219
Размер потока : 8,10 Гбайт (85%)
Заголовок : F9 / Rip by OldGamer
Библиотека кодирования : x265 3.5+13-4c6880de4:[Windows][GCC 11.2.0][64 bit] 10bit
Настройки программы : cpuid=1111039 / frame-threads=3 / numa-pools=8 / wpp / no-pmode / no-pme / no-psnr / no-ssim / log-level=2 / input-csp=1 / input-res=1920x804 / interlace=0 / total-frames=205528 / level-idc=41 / high-tier=1 / uhd-bd=0 / ref=5 / no-allow-non-conformance / no-repeat-headers / annexb / no-aud / no-eob / no-eos / no-hrd / info / hash=0 / no-temporal-layers / open-gop / min-keyint=23 / keyint=240 / gop-lookahead=0 / bframes=13 / b-adapt=2 / b-pyramid / bframe-bias=0 / rc-lookahead=40 / lookahead-slices=0 / scenecut=40 / no-hist-scenecut / radl=0 / no-splice / no-intra-refresh / ctu=32 / min-cu-size=8 / rect / amp / max-tu-size=32 / tu-inter-depth=4 / tu-intra-depth=4 / limit-tu=1 / rdoq-level=2 / dynamic-rd=0.00 / no-ssim-rd / signhide / no-tskip / nr-intra=0 / nr-inter=0 / no-constrained-intra / no-strong-intra-smoothing / max-merge=5 / limit-refs=3 / no-limit-modes / me=3 / subme=7 / merange=57 / temporal-mvp / no-frame-dup / no-hme / weightp / weightb / no-analyze-src-pics / deblock=-3:-3 / no-sao / no-sao-non-deblock / rd=6 / selective-sao=0 / no-early-skip / no-rskip / no-fast-intra / no-tskip-fast / no-cu-lossless / b-intra / no-splitrd-skip / rdpenalty=0 / psy-rd=2.00 / psy-rdoq=1.00 / no-rd-refine / no-lossless / cbqpoffs=0 / crqpoffs=0 / rc=crf / crf=20.0 / qcomp=0.75 / qpstep=4 / stats-write=0 / stats-read=0 / vbv-maxrate=50000 / vbv-bufsize=50000 / vbv-init=0.9 / min-vbv-fullness=50.0 / max-vbv-fullness=80.0 / crf-max=0.0 / crf-min=0.0 / ipratio=1.40 / pbratio=1.30 / aq-mode=1 / aq-strength=1.00 / no-cutree / zone-count=1 / zones: / start-frame=192216 / end-frame=205528 / qp=36 / no-strict-cbr / qg-size=32 / no-rc-grain / qpmax=69 / qpmin=0 / no-const-vbv / sar=1 / overscan=0 / videoformat=5 / range=0 / colorprim=2 / transfer=2 / colormatrix=2 / chromaloc=0 / display-window=0 / cll=0,0 / min-luma=0 / max-luma=1023 / log2-max-poc-lsb=8 / vui-timing-info / vui-hrd-info / slices=1 / no-opt-qp-pps / no-opt-ref-list-length-pps / no-multi-pass-opt-rps / scenecut-bias=0.00 / hist-threshold=0.03 / no-opt-cu-delta-qp / no-aq-motion / no-hdr10 / no-hdr10-opt / no-dhdr10-opt / no-idr-recovery-sei / analysis-reuse-level=0 / analysis-save-reuse-level=0 / analysis-load-reuse-level=0 / scale-factor=0 / refine-intra=0 / refine-inter=0 / refine-mv=1 / refine-ctu-distortion=0 / no-limit-sao / ctu-info=0 / no-lowpass-dct / refine-analysis-type=0 / copy-pic=1 / max-ausize-factor=1.0 / no-dynamic-refine / no-single-sei / no-hevc-aq / no-svt / no-field / qp-adaptation-range=1.00 / scenecut-aware-qp=0conformance-window-offsets / right=0 / bottom=0 / decoder-max-rate=0 / no-vbv-live-multi-pass
Язык : English
Default : Да
Forced : Нет

Аудио #1
Идентификатор : 2
Формат : AC-3
Формат/Информация : Audio Coding 3
Коммерческое название : Dolby Digital
Идентификатор кодека : A_AC3
Продолжительность : 2 ч. 22 м.
Вид битрейта : Постоянный
Битрейт : 384 Кбит/сек
Каналы : 6 каналов
Channel layout : L R C LFE Ls Rs
Частота : 48,0 КГц
Частота кадров : 31,250 кадров/сек (1536 SPF)
Метод сжатия : С потерями
Размер потока : 392 Мбайт (4%)
Заголовок : DUB (iTunes)
Язык : Russian
Service kind : Complete Main
Default : Да
Forced : Нет

Аудио #2
Идентификатор : 3
Формат : AC-3
Формат/Информация : Audio Coding 3
Коммерческое название : Dolby Digital
Идентификатор кодека : A_AC3
Продолжительность : 2 ч. 22 м.
Вид битрейта : Постоянный
Битрейт : 384 Кбит/сек
Каналы : 6 каналов
Channel layout : L R C LFE Ls Rs
Частота : 48,0 КГц
Частота кадров : 31,250 кадров/сек (1536 SPF)
Метод сжатия : С потерями
Размер потока : 392 Мбайт (4%)
Заголовок : DUB
Язык : Ukrainian
Service kind : Complete Main
Default : Нет
Forced : Нет

Аудио #3
Идентификатор : 4
Формат : AC-3
Формат/Информация : Audio Coding 3
Коммерческое название : Dolby Digital
Идентификатор кодека : A_AC3
Продолжительность : 2 ч. 22 м.
Вид битрейта : Постоянный
Битрейт : 640 Кбит/сек
Каналы : 6 каналов
Channel layout : L R C LFE Ls Rs
Частота : 48,0 КГц
Частота кадров : 31,250 кадров/сек (1536 SPF)
Метод сжатия : С потерями
Размер потока : 654 Мбайт (7%)
Язык : English
Service kind : Complete Main
Default : Нет
Forced : Нет

Текст #1
Идентификатор : 5
Формат : UTF-8
Идентификатор кодека : S_TEXT/UTF8
Идентификатор кодека/Информация : UTF-8 Plain Text
Продолжительность : 2 ч. 12 м.
Битрейт : 55 бит/сек
Count of elements : 1419
Размер потока : 53,2 Кбайт (0%)
Заголовок : Full
Язык : Russian
Default : Нет
Forced : Нет

Текст #2
Идентификатор : 6
Формат : UTF-8
Идентификатор кодека : S_TEXT/UTF8
Идентификатор кодека/Информация : UTF-8 Plain Text
Продолжительность : 2 ч. 9 м.
Битрейт : 1 бит/сек
Count of elements : 40
Размер потока : 1,41 Кбайт (0%)
Заголовок : Forced
Язык : Ukrainian
Default : Нет
Forced : Нет

Текст #3
Идентификатор : 7
Формат : UTF-8
Идентификатор кодека : S_TEXT/UTF8
Идентификатор кодека/Информация : UTF-8 Plain Text
Продолжительность : 2 ч. 15 м.
Битрейт : 47 бит/сек
Count of elements : 1557
Размер потока : 47,2 Кбайт (0%)
Заголовок : Full
Язык : English
Default : Нет
Forced : Нет

Меню
00:00:00.000 : Глава 01
00:04:47.746 : Глава 02
00:11:11.212 : Глава 03
00:20:36.569 : Глава 04
00:25:26.567 : Глава 05
00:30:26.867 : Глава 06
00:34:20.016 : Глава 07
00:42:13.489 : Глава 08
00:49:39.768 : Глава 09
00:55:46.343 : Глава 10
00:59:57.969 : Глава 11
01:07:58.866 : Глава 12
01:19:29.515 : Глава 13
01:28:47.113 : Глава 14
01:34:53.438 : Глава 15
01:40:27.688 : Глава 16
01:50:56.858 : Глава 17
02:01:02.880 : Глава 18
02:05:22.265 : Глава 19
02:10:17.726 : Глава 20
Загрузка...Cкриншот1 Форсаж 9 / F9 (2021) [Theatrical Cut, iTunes] BDRip 1080p [HEVC] 10 bit от OldGamer (RG RIPS CLUB)Загрузка...Cкриншот2 Форсаж 9 / F9 (2021) [Theatrical Cut, iTunes] BDRip 1080p [HEVC] 10 bit от OldGamer (RG RIPS CLUB)Загрузка...Cкриншот3 Форсаж 9 / F9 (2021) [Theatrical Cut, iTunes] BDRip 1080p [HEVC] 10 bit от OldGamer (RG RIPS CLUB)Загрузка...Cкриншот4 Форсаж 9 / F9 (2021) [Theatrical Cut, iTunes] BDRip 1080p [HEVC] 10 bit от OldGamer (RG RIPS CLUB)
Релиз-группа: RIPS CLUB
Сэмпл Торрент🧲 Магнет

Рейтинги КП и IMDB, кнопки "Позвать в чате" и "Спасибо", а также мультитрекерная статистика доступны только зарегистрированным/авторизованным пользователям!

Файлы: 1
  • 10.Форсаж.9.F9.Theatrical.Cut.2021.BDRip-HEVC.1080p.mkv   9.51 ГБ
Поблагодарили: 10
alexyak, ancestor87, and50, donadar, Elico1977, ivan_1965, Kiran, makss333, Rezident, StarLord
OldGamer
0489190449.51 ГБ

Добавление нового комментария

Добавление комментариев доступно только зарегистрированным/авторизованным пользователям.