💬 Мини-чат

OldGamerНасколько я помню, даже мой первый стик 2014 года тянул hevc, хотя и подтупливал на перемотке
OldGamerВыбирайте по цене и отзывам.
OldGamerСообщение удалено (удалил: OldGamer)
OldGamerЛюбой, всё что выпускалось за последние 3 года, вполне тянет hevc. Чуть раньше в чате ссылку давал на обсуждения на 4пда.
SAHA55Подскажите,пожалуйста какой купить медио плеер для просмотра видео в HEVC x265 с переносного жёсткого на 1 Тб. TV старый Panasonic
  • A1eksandr1
  • Blaster
  • nazarpavluwun
Отправка сообщений доступна только зарегистрированным/авторизованным пользователям.
Онлайн (за 10 мин.): 3

Мандалорец / The Mandalorian (2019) [1 сезон] WEB-DLRip 1080p [HEVC] 10 bit [HDR] от Mr. Fox

HEVC
HDR
10 bit
Обложка Мандалорец / The Mandalorian (2019) [1 сезон] WEB-DLRip 1080p [HEVC] 10 bit [HDR] от Mr. Fox Год: 2019
Страна: США
Студия: Fairview Entertainment, Golem Creations, Lucasfilm Ltd., Walt Disney Studios
Жанр: Фантастика, Боевик, Приключения
Продолжительность: 05:18:38

Режиссер: Рик Фамуйива, Дэйв Филони, Брайс Даллас Ховард
В ролях: Педро Паскаль, Джина Карано, Джанкарло Эспозито, Карл Уэзерс, Темуэра Моррисон, Мин-На Вэнь, Ник Нолти, Кэти Сакхофф, Омид Абтахи, Розарио Доусон

Описание: Одинокий мандалорец-наёмник живёт на краю обитаемой галактики, куда не дотягивается закон Новой Республики. Представитель некогда могучей расы благородных воинов теперь вынужден влачить жалкое существование среди отбросов общества.

Серии
Эпизод 1: The Mandalorian
Эпизод 2: The Child
Эпизод 3: The Sin
Эпизод 4: Sanctuary
Эпизод 5: The Gunslinger
Эпизод 6: The Prisoner
Эпизод 7: The Reckoning
Эпизод 8: Redemption

Видео: 1920x804, ~3937-7019 Кбит/сек
Аудио1: AC3, 6 ch, 384 Kbps - РусскийРусский, Многоголосый (Jaskier)
Аудио2: AC3, 6 ch, 384 Kbps - УкраинскийУкраинский, Многоголосый (DniproFilm)
Аудио3: AC3, 6 ch, 640 Kbps - АнглийскийАнглийский, Оригинал
Субтитры: русские (форсированные, полные), украинские (форсированные, полные), английские (полные, SDH)

Как за пару секунд удалить ненужные аудиодорожки и субтитры (Внимание! После удаления вы не сможете поддержать раздачу)

Лог (x265 info)
x265 [info]: frame I: Avg QP:14.37, 15.32, 14.98, 15.81, 14.46, 15.31, 15.24, 14.35
x265 [info]: frame P: Avg QP:15.81, 16.71, 16.29, 17.21, 15.91, 16.76, 16.53, 15.79
x265 [info]: frame B: Avg QP:18.39, 19.02, 18.61, 19.50, 18.68, 19.17, 19.10, 18.40
Медиаинфо
General
Unique ID : 198266794461906748490504947681001424908 (0x9528CBAF4595425E20CF173A8727480C)
Complete name : E:\Torrent\Mandalorian Season 1\The.Mandalorian.S01E01.Chapter.1.mkv
Format : Matroska
Format version : Version 4
File size : 1.45 GiB
Duration : 39 min 34 s
Overall bit rate : 5 250 kb/s
Movie name : The Mandalorian Chapter 1
Encoded date : UTC 2021-09-09 12:14:37
Writing application : mkvmerge v60.0.0 ('Are We Copies?') 64-bit
Writing library : libebml v1.4.2 + libmatroska v1.6.4
Attachments : poster.the.mandalorian.jpg

Video
ID : 1
Format : HEVC
Format/Info : High Efficiency Video Coding
Format profile : Main 10@L4.1@High
HDR format : SMPTE ST 2086, HDR10 compatible
Codec ID : V_MPEGH/ISO/HEVC
Duration : 38 min 46 s
Bit rate : 3 937 kb/s
Width : 1 920 pixels
Height : 804 pixels
Display aspect ratio : 2.40:1
Frame rate mode : Constant
Frame rate : 23.976 (23976/1000) FPS
Original frame rate : 23.976 (24000/1001) FPS
Color space : YUV
Chroma subsampling : 4:2:0 (Type 2)
Bit depth : 10 bits
Bits/(Pixel*Frame) : 0.106
Stream size : 1.07 GiB (73%)
Writing library : x265 3.5+1-ce882936d:[Windows][MSVC 1928][64 bit] 10bit
Encoding settings : cpuid=1111039 / frame-threads=4 / numa-pools=16 / wpp / no-pmode / no-pme / no-psnr / no-ssim / log-level=2 / input-csp=1 / input-res=1920x804 / interlace=0 / total-frames=55773 / level-idc=41 / high-tier=1 / uhd-bd=0 / ref=5 / no-allow-non-conformance / repeat-headers / annexb / no-aud / no-hrd / info / hash=0 / no-temporal-layers / open-gop / min-keyint=23 / keyint=240 / gop-lookahead=0 / bframes=16 / b-adapt=2 / b-pyramid / bframe-bias=0 / rc-lookahead=60 / lookahead-slices=4 / scenecut=40 / hist-scenecut=0 / radl=0 / no-splice / no-intra-refresh / ctu=32 / min-cu-size=8 / rect / amp / max-tu-size=32 / tu-inter-depth=4 / tu-intra-depth=4 / limit-tu=1 / rdoq-level=2 / dynamic-rd=0.00 / no-ssim-rd / signhide / no-tskip / nr-intra=0 / nr-inter=0 / no-constrained-intra / no-strong-intra-smoothing / max-merge=4 / limit-refs=2 / limit-modes / me=3 / subme=7 / merange=57 / temporal-mvp / no-frame-dup / no-hme / weightp / weightb / no-analyze-src-pics / deblock=-3:-3 / no-sao / no-sao-non-deblock / rd=6 / selective-sao=0 / no-early-skip / no-rskip / no-fast-intra / no-tskip-fast / no-cu-lossless / no-b-intra / no-splitrd-skip / rdpenalty=0 / psy-rd=2.00 / psy-rdoq=1.00 / no-rd-refine / no-lossless / cbqpoffs=0 / crqpoffs=0 / rc=crf / crf=19.0 / qcomp=0.65 / qpstep=4 / stats-write=0 / stats-read=0 / vbv-maxrate=50000 / vbv-bufsize=50000 / vbv-init=0.9 / min-vbv-fullness=50.0 / max-vbv-fullness=80.0 / crf-max=0.0 / crf-min=0.0 / ipratio=1.40 / pbratio=1.30 / aq-mode=1 / aq-strength=1.00 / no-cutree / zone-count=0 / no-strict-cbr / qg-size=32 / no-rc-grain / qpmax=69 / qpmin=0 / no-const-vbv / sar=1 / overscan=0 / videoformat=5 / range=0 / colorprim=9 / transfer=16 / colormatrix=9 / chromaloc=1 / chromaloc-top=2 / chromaloc-bottom=2 / display-window=0 / master-display=G(8500,39850)B(6550,2300)R(35400,14600)WP(15635,16450)L(10000000,1) / cll=0,0 / min-luma=0 / max-luma=1023 / log2-max-poc-lsb=8 / vui-timing-info / vui-hrd-info / slices=1 / no-opt-qp-pps / no-opt-ref-list-length-pps / no-multi-pass-opt-rps / scenecut-bias=0.05 / hist-threshold=0.03 / no-opt-cu-delta-qp / no-aq-motion / hdr10 / hdr10-opt / no-dhdr10-opt / no-idr-recovery-sei / analysis-reuse-level=0 / analysis-save-reuse-level=0 / analysis-load-reuse-level=0 / scale-factor=0 / refine-intra=0 / refine-inter=0 / refine-mv=1 / refine-ctu-distortion=0 / no-limit-sao / ctu-info=0 / no-lowpass-dct / refine-analysis-type=0 / copy-pic=1 / max-ausize-factor=1.0 / no-dynamic-refine / no-single-sei / no-hevc-aq / no-svt / no-field / qp-adaptation-range=1.00 / scenecut-aware-qp=0conformance-window-offsets / right=0 / bottom=0 / decoder-max-rate=0 / no-vbv-live-multi-pass
Default : Yes
Forced : No
Color range : Limited
Color primaries : BT.2020
Transfer characteristics : PQ
Matrix coefficients : BT.2020 non-constant
Mastering display color primar : BT.2020
Mastering display luminance : min: 0.0001 cd/m2, max: 1000 cd/m2

Audio #1
ID : 2
Format : AC-3
Format/Info : Audio Coding 3
Commercial name : Dolby Digital
Codec ID : A_AC3
Duration : 38 min 46 s
Bit rate mode : Constant
Bit rate : 384 kb/s
Channel(s) : 6 channels
Channel layout : L R C LFE Ls Rs
Sampling rate : 48.0 kHz
Frame rate : 31.250 FPS (1536 SPF)
Compression mode : Lossy
Stream size : 106 MiB (7%)
Title : AC3 5.1 @ 384 kbps - MVO, Jaskier
Language : Russian
Service kind : Complete Main
Default : No
Forced : No

Audio #2
ID : 3
Format : AC-3
Format/Info : Audio Coding 3
Commercial name : Dolby Digital
Codec ID : A_AC3
Duration : 39 min 34 s
Bit rate mode : Constant
Bit rate : 384 kb/s
Channel(s) : 6 channels
Channel layout : L R C LFE Ls Rs
Sampling rate : 48.0 kHz
Frame rate : 31.250 FPS (1536 SPF)
Compression mode : Lossy
Stream size : 109 MiB (7%)
Title : AC-3 5.1 @ 384 kb/s # DniproFilm
Language : Ukrainian
Service kind : Complete Main
Default : Yes
Forced : Yes

Audio #3
ID : 4
Format : AC-3
Format/Info : Audio Coding 3
Commercial name : Dolby Digital
Codec ID : A_AC3
Duration : 38 min 46 s
Bit rate mode : Constant
Bit rate : 640 kb/s
Channel(s) : 6 channels
Channel layout : L R C LFE Ls Rs
Sampling rate : 48.0 kHz
Frame rate : 31.250 FPS (1536 SPF)
Compression mode : Lossy
Stream size : 177 MiB (12%)
Title : AC-3 5.1 @ 640 kb/s
Language : English
Service kind : Complete Main
Default : No
Forced : No

Text #1
ID : 5
Format : UTF-8
Codec ID : S_TEXT/UTF8
Codec ID/Info : UTF-8 Plain Text
Duration : 35 min 40 s
Bit rate : 2 b/s
Count of elements : 12
Stream size : 576 Bytes (0%)
Title : Forced
Language : Russian
Default : Yes
Forced : Yes

Text #2
ID : 6
Format : UTF-8
Codec ID : S_TEXT/UTF8
Codec ID/Info : UTF-8 Plain Text
Duration : 35 min 37 s
Bit rate : 52 b/s
Count of elements : 304
Stream size : 13.7 KiB (0%)
Title : Full
Language : Russian
Default : No
Forced : No

Text #3
ID : 7
Format : UTF-8
Codec ID : S_TEXT/UTF8
Codec ID/Info : UTF-8 Plain Text
Duration : 3 min 52 s
Bit rate : 20 b/s
Count of elements : 12
Stream size : 591 Bytes (0%)
Title : Forced
Language : Ukrainian
Default : No
Forced : No

Text #4
ID : 8
Format : UTF-8
Codec ID : S_TEXT/UTF8
Codec ID/Info : UTF-8 Plain Text
Duration : 35 min 6 s
Bit rate : 47 b/s
Count of elements : 293
Stream size : 12.1 KiB (0%)
Title : Full
Language : Ukrainian
Default : No
Forced : No

Text #5
ID : 9
Format : UTF-8
Codec ID : S_TEXT/UTF8
Codec ID/Info : UTF-8 Plain Text
Duration : 34 min 54 s
Bit rate : 29 b/s
Count of elements : 288
Stream size : 7.63 KiB (0%)
Title : Full
Language : English
Default : No
Forced : No

Text #6
ID : 10
Format : UTF-8
Codec ID : S_TEXT/UTF8
Codec ID/Info : UTF-8 Plain Text
Duration : 35 min 34 s
Bit rate : 41 b/s
Count of elements : 428
Stream size : 10.9 KiB (0%)
Title : Full SDH
Language : English
Default : No
Forced : No
Загрузка...Cкриншот1 Мандалорец / The Mandalorian (2019) [1 сезон] WEB-DLRip 1080p [HEVC] 10 bit [HDR] от Mr. FoxЗагрузка...Cкриншот2 Мандалорец / The Mandalorian (2019) [1 сезон] WEB-DLRip 1080p [HEVC] 10 bit [HDR] от Mr. FoxЗагрузка...Cкриншот3 Мандалорец / The Mandalorian (2019) [1 сезон] WEB-DLRip 1080p [HEVC] 10 bit [HDR] от Mr. FoxЗагрузка...Cкриншот4 Мандалорец / The Mandalorian (2019) [1 сезон] WEB-DLRip 1080p [HEVC] 10 bit [HDR] от Mr. Fox
Сэмпл Торрент🧲 Магнет

Рейтинги КП и IMDB, кнопки "Позвать в чате" и "Спасибо", а также мультитрекерная статистика доступны только зарегистрированным/авторизованным пользователям!

Файлы: 8
  • Mandalorian Season 1
    • The.Mandalorian.S01E01.Chapter.1.mkv   1.45 ГБ
    • The.Mandalorian.S01E02.Chapter.2.The.Child.mkv   1.54 ГБ
    • The.Mandalorian.S01E03.Chapter.3.The.Sin.mkv   1.93 ГБ
    • The.Mandalorian.S01E04.Chapter.4.Sanctuary.mkv   2.22 ГБ
    • The.Mandalorian.S01E05.Chapter.5.The.Gunslinger.mkv   1.7 ГБ
    • The.Mandalorian.S01E06.Chapter.6.The.Prisoner.mkv   2.55 ГБ
    • The.Mandalorian.S01E07.Chapter.7.The.Reckoning.mkv   2.31 ГБ
    • The.Mandalorian.S01E08.Chapter.8.Redemption.mkv   2.3 ГБ
Поблагодарили: 4
makss333, Rexfire, Spartanec1308, StarLord
Admin
01022 (8)  16 ГБ

Добавление нового комментария

Добавление комментариев доступно только зарегистрированным/авторизованным пользователям.