💬 Мини-чат

77carlsson77Раздайте, пожалуйста, Бездна / The Deep (1977) BDRip 1080p [HEVC] 10 bit от ADVOKAT69
77carlsson77Раздайте, пожалуйста, Бременские музыканты (1969-1973) BDRip 1080p [HEVC] 10 bit от ADVOKAT69
ADVOKAT69Маугли, Джентльмены удачи раздаю!
ADVOKAT69все хорошо!
FijiMAXРаздайте, пожалуйста, Знакомство с родителями: Трилогия / Meet the Parents: Trilogy (2000-2010) BDRip 1080p [HEVC] 10 bit от OldGamer (RG RIPS CLUB)
NiflungРаздайте, пожалуйста, Багровый пик / Crimson Peak (2015) BDRip 1080p [HEVC] 10 bit от -Star-Lord- (RG RIPS CLUB)
NiflungРаздайте, пожалуйста, Маугли (1967-1971) BDRip 1080p [HEVC] 10 bit от ADVOKAT69
NiflungРаздайте, пожалуйста, Волшебник страны Оз / The Wizard of Oz (1939) BDRip 1080p [HEVC] 10 bit от Мичман
77carlsson77Раздайте, пожалуйста, Замёрзшие / Frozen (2010) BDRip 1080p [HEVC] 10 bit от M@kSIMus
StarLordHANNIBAL, привет ✌
joker63HANNIBAL, Привет))
HANNIBALвсем здрасти
Mr. FoxBeebo, не планировал, но подумаю
BeeboMr.Fox, стоит ли ждать рип Чужие серди нас?
StarLordOldGamer, это классика жанра 😄
OldGamerух ты, в anime.club попаль...
  • Giggalo
  • 77carlsson77
  • AlexTwitt
  • niuQ2020
  • pmihail99
Отправка сообщений доступна только зарегистрированным/авторизованным пользователям.
Онлайн (за 10 мин.): 5

Главный герой / Free Guy (2021) BDRip 1080p [HEVC] 10 bit от -Star-Lord- (RG RIPS CLUB)

HEVC
10 bit
Обложка Главный герой / Free Guy (2021) BDRip 1080p [HEVC] 10 bit от -Star-Lord- (RG RIPS CLUB) Год: 2021
Страна: США, Канада
Студия: 20th Century Studios, 21 Laps Entertainment, Berlanti Productions
Жанр: Фантастика, Боевик, Комедия, Приключения
Продолжительность: 01:54:58

Режиссер: Шон Леви
В ролях: Райан Рейнольдс, Тайка Вайтити, Джоди Комер, Джо Кири, Мэттью Кардаропле, Уткарш Амбудкар, Лил Рел Ховери, Бритни Олдфорд, Camille Kostek, Оуэн Бурк

Описание: У сотрудника крупного банка всё идёт по накатанной, пока однажды он не выясняет, что окружающий его мир – это часть огромной видеоигры, а сам он в ней – всего лишь второстепенный персонаж. Хватит ли у него духу переписать свой код, обратить на себя внимание прекрасной девушки, и наконец, спасти мир? Одним словом, получится ли из него главный герой?


Видео: 1920x804, ~5285 Кбит/сек
Аудио1: AC3, 6 ch, 640 Kbps - РусскийРусский, Дублированный (KION)
Аудио2: AC3, 6 ch, 640 Kbps - РусскийРусский, Любительский двухголосый закадровый (Pazl Voice)
Аудио3: AC3, 6 ch, 448 Kbps - РусскийРусский, Профессиональный многоголосый закадровый (Jaskier)
Аудио4: AC3, 2 ch, 192 Kbps - УкраинскийУкраинский, Дублированный (iTunes)
Аудио5: AC3, 6 ch, 640 Kbps - АнглийскийАнглийский, Оригинал
Субтитры: русские (форс., полные x2), украинские (форс., полные), английские (форс., полные, SDH, SDH-Colored)

Как за пару секунд удалить ненужные аудиодорожки и субтитры (Внимание! После удаления вы не сможете поддержать раздачу)

Лог (x265 info)
x265 [info]: frame I: 1842, Avg QP:18.11 kb/s: 20029.13
x265 [info]: frame P: 33478, Avg QP:19.67 kb/s: 10406.67
x265 [info]: frame B: 130081, Avg QP:21.64 kb/s: 3757.45
x265 [info]: Weighted P-Frames: Y:6.1% UV:3.1%
x265 [info]: Weighted B-Frames: Y:4.4% UV:2.1%
x265 [info]: consecutive B-frames: 9.9% 7.8% 6.2% 33.4% 9.4% 16.4% 5.6% 5.5% 2.0% 1.6% 0.7% 0.6% 0.3% 0.2% 0.2% 0.1% 0.1%

encoded 165401 frames in 142946.07s (1.16 fps), 5284.50 kb/s, Avg QP:21.20
Медиаинфо
General
Unique ID : 40266374121303833449957071216956850587 (0x1E4B05856DC57C87C885464E2B7AC19B)
Complete name : Free Guy (2021) BDRip 1080p H.265 [3xRUS_UKR_ENG] [RIPS-CLUB].mkv
Format : Matroska
Format version : Version 4
File size : 6.31 GiB
Duration : 1 h 54 min
Overall bit rate : 7 853 kb/s
Movie name : Главный герой / Персонаж / Free Guy (2021)
Encoded date : UTC 2021-10-15 08:14:05
Writing application : mkvmerge v61.0.0 ('So') 64-bit
Writing library : libebml v1.4.2 + libmatroska v1.6.4
Cover : Yes
Attachments : Cover.jpg

Video
ID : 1
Format : HEVC
Format/Info : High Efficiency Video Coding
Format profile : Main 10@L4.1@High
Codec ID : V_MPEGH/ISO/HEVC
Duration : 1 h 54 min
Bit rate : 5 285 kb/s
Width : 1 920 pixels
Height : 804 pixels
Display aspect ratio : 2.40:1
Frame rate mode : Constant
Frame rate : 23.976 (24000/1001) FPS
Color space : YUV
Chroma subsampling : 4:2:0
Bit depth : 10 bits
Bits/(Pixel*Frame) : 0.143
Stream size : 4.24 GiB (67%)
Title : Главный герой / Персонаж / Free Guy (2021)
Writing library : x265 3.5+1-ce882936d:[Windows][GCC 10.2.0][64 bit] 10bit
Encoding settings : cpuid=1111039 / frame-threads=3 / numa-pools=12 / wpp / no-pmode / no-pme / no-psnr / no-ssim / log-level=2 / input-csp=1 / input-res=1920x804 / interlace=0 / total-frames=165401 / level-idc=41 / high-tier=1 / uhd-bd=0 / ref=5 / no-allow-non-conformance / no-repeat-headers / annexb / no-aud / no-hrd / info / hash=0 / no-temporal-layers / open-gop / min-keyint=23 / keyint=240 / gop-lookahead=0 / bframes=16 / b-adapt=2 / b-pyramid / bframe-bias=0 / rc-lookahead=60 / lookahead-slices=4 / scenecut=40 / hist-scenecut=0 / radl=0 / no-splice / no-intra-refresh / ctu=32 / min-cu-size=8 / rect / amp / max-tu-size=32 / tu-inter-depth=4 / tu-intra-depth=4 / limit-tu=1 / rdoq-level=2 / dynamic-rd=0.00 / no-ssim-rd / signhide / no-tskip / nr-intra=0 / nr-inter=0 / no-constrained-intra / no-strong-intra-smoothing / max-merge=5 / limit-refs=2 / limit-modes / me=3 / subme=7 / merange=57 / temporal-mvp / no-frame-dup / no-hme / weightp / weightb / no-analyze-src-pics / deblock=-3:-3 / no-sao / no-sao-non-deblock / rd=6 / selective-sao=0 / no-early-skip / no-rskip / no-fast-intra / no-tskip-fast / no-cu-lossless / no-b-intra / no-splitrd-skip / rdpenalty=0 / psy-rd=2.00 / psy-rdoq=1.00 / no-rd-refine / no-lossless / cbqpoffs=0 / crqpoffs=0 / rc=crf / crf=20.0 / qcomp=0.70 / qpstep=4 / stats-write=0 / stats-read=0 / vbv-maxrate=50000 / vbv-bufsize=50000 / vbv-init=0.9 / min-vbv-fullness=50.0 / max-vbv-fullness=80.0 / crf-max=0.0 / crf-min=0.0 / ipratio=1.40 / pbratio=1.30 / aq-mode=4 / aq-strength=1.00 / no-cutree / zone-count=0 / no-strict-cbr / qg-size=32 / no-rc-grain / qpmax=69 / qpmin=0 / no-const-vbv / sar=1 / overscan=0 / videoformat=5 / range=0 / colorprim=2 / transfer=2 / colormatrix=2 / chromaloc=0 / display-window=0 / cll=0,0 / min-luma=0 / max-luma=1023 / log2-max-poc-lsb=8 / vui-timing-info / vui-hrd-info / slices=1 / no-opt-qp-pps / no-opt-ref-list-length-pps / no-multi-pass-opt-rps / scenecut-bias=0.05 / hist-threshold=0.03 / no-opt-cu-delta-qp / no-aq-motion / no-hdr10 / no-hdr10-opt / no-dhdr10-opt / no-idr-recovery-sei / analysis-reuse-level=0 / analysis-save-reuse-level=0 / analysis-load-reuse-level=0 / scale-factor=0 / refine-intra=0 / refine-inter=0 / refine-mv=1 / refine-ctu-distortion=0 / no-limit-sao / ctu-info=0 / no-lowpass-dct / refine-analysis-type=0 / copy-pic=1 / max-ausize-factor=1.0 / no-dynamic-refine / no-single-sei / no-hevc-aq / no-svt / no-field / qp-adaptation-range=1.00 / scenecut-aware-qp=0conformance-window-offsets / right=0 / bottom=0 / decoder-max-rate=0 / no-vbv-live-multi-pass
Language : English
Default : Yes
Forced : Yes

Audio #1
ID : 2
Format : AC-3
Format/Info : Audio Coding 3
Commercial name : Dolby Digital
Codec ID : A_AC3
Duration : 1 h 54 min
Bit rate mode : Constant
Bit rate : 640 kb/s
Channel(s) : 6 channels
Channel layout : L R C LFE Ls Rs
Sampling rate : 48.0 kHz
Frame rate : 31.250 FPS (1536 SPF)
Compression mode : Lossy
Stream size : 526 MiB (8%)
Title : AC-3 / 5.1 Ch / 640 kbps / DUB / KION
Language : Russian
Service kind : Complete Main
Default : Yes
Forced : Yes

Audio #2
ID : 3
Format : AC-3
Format/Info : Audio Coding 3
Commercial name : Dolby Digital
Codec ID : A_AC3
Duration : 1 h 54 min
Bit rate mode : Constant
Bit rate : 640 kb/s
Channel(s) : 6 channels
Channel layout : L R C LFE Ls Rs
Sampling rate : 48.0 kHz
Frame rate : 31.250 FPS (1536 SPF)
Compression mode : Lossy
Stream size : 526 MiB (8%)
Title : AC-3 / 5.1 Ch / 640 kbps / DVO / Pazl Voice
Language : Russian
Service kind : Complete Main
Default : No
Forced : No

Audio #3
ID : 4
Format : AC-3
Format/Info : Audio Coding 3
Commercial name : Dolby Digital
Codec ID : A_AC3
Duration : 1 h 54 min
Bit rate mode : Constant
Bit rate : 448 kb/s
Channel(s) : 6 channels
Channel layout : L R C LFE Ls Rs
Sampling rate : 48.0 kHz
Frame rate : 31.250 FPS (1536 SPF)
Compression mode : Lossy
Stream size : 368 MiB (6%)
Title : AC-3 / 5.1 Ch / 448 kbps / MVO / Jaskier
Language : Russian
Service kind : Complete Main
Default : No
Forced : No

Audio #4
ID : 5
Format : AC-3
Format/Info : Audio Coding 3
Commercial name : Dolby Digital
Codec ID : A_AC3
Duration : 1 h 54 min
Bit rate mode : Constant
Bit rate : 192 kb/s
Channel(s) : 2 channels
Channel layout : L R
Sampling rate : 48.0 kHz
Frame rate : 31.250 FPS (1536 SPF)
Compression mode : Lossy
Stream size : 158 MiB (2%)
Title : AC-3 / 2.0 Ch / 192 kbps / DUB / iTunes
Language : Ukrainian
Service kind : Complete Main
Default : No
Forced : No

Audio #5
ID : 6
Format : AC-3
Format/Info : Audio Coding 3
Commercial name : Dolby Digital
Codec ID : A_AC3
Duration : 1 h 54 min
Bit rate mode : Constant
Bit rate : 640 kb/s
Channel(s) : 6 channels
Channel layout : L R C LFE Ls Rs
Sampling rate : 48.0 kHz
Frame rate : 31.250 FPS (1536 SPF)
Compression mode : Lossy
Stream size : 526 MiB (8%)
Title : AC-3 / 5.1 Ch / 640 kbps / Original
Language : English
Service kind : Complete Main
Default : No
Forced : No

Text #1
ID : 7
Format : UTF-8
Codec ID : S_TEXT/UTF8
Codec ID/Info : UTF-8 Plain Text
Duration : 1 h 32 min
Bit rate : 1 b/s
Count of elements : 34
Stream size : 1.29 KiB (0%)
Title : Forced
Language : Russian
Default : Yes
Forced : Yes

Text #2
ID : 8
Format : UTF-8
Codec ID : S_TEXT/UTF8
Codec ID/Info : UTF-8 Plain Text
Duration : 1 h 54 min
Bit rate : 107 b/s
Count of elements : 1895
Stream size : 89.8 KiB (0%)
Title : Full
Language : Russian
Default : No
Forced : No

Text #3
ID : 9
Format : UTF-8
Codec ID : S_TEXT/UTF8
Codec ID/Info : UTF-8 Plain Text
Duration : 1 h 45 min
Bit rate : 114 b/s
Count of elements : 1886
Stream size : 88.2 KiB (0%)
Title : Full from MENINSUB
Language : Russian
Default : No
Forced : No

Text #4
ID : 10
Format : UTF-8
Codec ID : S_TEXT/UTF8
Codec ID/Info : UTF-8 Plain Text
Duration : 1 h 32 min
Bit rate : 1 b/s
Count of elements : 34
Stream size : 1.17 KiB (0%)
Title : Forced
Language : Ukrainian
Default : No
Forced : No

Text #5
ID : 11
Format : UTF-8
Codec ID : S_TEXT/UTF8
Codec ID/Info : UTF-8 Plain Text
Duration : 1 h 54 min
Bit rate : 107 b/s
Count of elements : 1895
Stream size : 90.0 KiB (0%)
Title : Full
Language : Ukrainian
Default : No
Forced : No

Text #6
ID : 12
Format : UTF-8
Codec ID : S_TEXT/UTF8
Codec ID/Info : UTF-8 Plain Text
Duration : 13 s 597 ms
Bit rate : 98 b/s
Count of elements : 6
Stream size : 168 Bytes (0%)
Title : Forced
Language : English
Default : No
Forced : No

Text #7
ID : 13
Format : UTF-8
Codec ID : S_TEXT/UTF8
Codec ID/Info : UTF-8 Plain Text
Duration : 1 h 45 min
Bit rate : 80 b/s
Count of elements : 1902
Stream size : 62.4 KiB (0%)
Title : Full
Language : English
Default : No
Forced : No

Text #8
ID : 14
Format : UTF-8
Codec ID : S_TEXT/UTF8
Codec ID/Info : UTF-8 Plain Text
Duration : 1 h 45 min
Bit rate : 90 b/s
Count of elements : 2135
Stream size : 70.0 KiB (0%)
Title : SDH
Language : English
Default : No
Forced : No

Text #9
ID : 15
Format : UTF-8
Codec ID : S_TEXT/UTF8
Codec ID/Info : UTF-8 Plain Text
Duration : 1 h 45 min
Bit rate : 113 b/s
Count of elements : 2126
Stream size : 88.2 KiB (0%)
Title : SDH-Colored
Language : English
Default : No
Forced : No

Menu
00:00:00.000 : :Chapter 1
00:05:09.100 : :Chapter 2
00:08:43.815 : :Chapter 3
00:14:29.702 : :Chapter 4
00:21:25.701 : :Chapter 5
00:24:06.028 : :Chapter 6
00:28:25.245 : :Chapter 7
00:34:21.810 : :Chapter 8
00:39:40.837 : :Chapter 9
00:44:10.731 : :Chapter 10
00:48:47.967 : :Chapter 11
00:52:47.748 : :Chapter 12
00:56:18.375 : :Chapter 13
01:00:17.739 : :Chapter 14
01:04:41.920 : :Chapter 15
01:09:13.816 : :Chapter 16
01:15:13.300 : :Chapter 17
01:19:14.083 : :Chapter 18
01:23:59.326 : :Chapter 19
01:28:06.406 : :Chapter 20
01:33:07.415 : :Chapter 21
01:39:19.954 : :Chapter 22
01:44:22.506 : :Chapter 23
01:46:13.993 : :Chapter 24
Загрузка...Cкриншот1 Главный герой / Free Guy (2021) BDRip 1080p [HEVC] 10 bit от -Star-Lord- (RG RIPS CLUB)Загрузка...Cкриншот2 Главный герой / Free Guy (2021) BDRip 1080p [HEVC] 10 bit от -Star-Lord- (RG RIPS CLUB)Загрузка...Cкриншот3 Главный герой / Free Guy (2021) BDRip 1080p [HEVC] 10 bit от -Star-Lord- (RG RIPS CLUB)Загрузка...Cкриншот4 Главный герой / Free Guy (2021) BDRip 1080p [HEVC] 10 bit от -Star-Lord- (RG RIPS CLUB)
Релиз-группа: RIPS CLUB
Сэмпл Торрент🧲 Магнет

Раздача обновлена!
Более качественные дубляжи, добавлена дорожка Jaskier

Рейтинги КП и IMDB, кнопки "Позвать в чате" и "Спасибо", а также мультитрекерная статистика доступны только зарегистрированным/авторизованным пользователям!

Файлы: 1
  • Free Guy (2021) BDRip 1080p H.265 [3xRUS_UKR_ENG] [RIPS-CLUB].mkv   6.31 ГБ
Поблагодарили: 20
alexyak, and50, Beebo, bs158250, cdmitry, ChimeyJimmey, davidoff_k4, Diman, GIS88, han-nik, IRIT, Kiran, ko1ob, makss333, MIGRANT, Mr. Fox, mvclub, Nuclear70, VIS, z_artem
StarLord
11276122856.31 ГБ

Добавление нового комментария

Добавление комментариев доступно только зарегистрированным/авторизованным пользователям.
Аватар Spartanec1308
  Spartanec1308  
Помимо этого параметра x265 [info]: frame B: 130081, Avg QP:21.64 kb/s: 3757.45 есть и другие,как например этот Bits/(Pixel*Frame) : 0.143 .А он показывает что битрейта для данного разрешения не так уж и много.
Аватар ADVOKAT69
  ADVOKAT69  
StarLord писал(а):
Ибо мне кажется, что его таки немного не хватает)
Может и вправду пилюли надо выпить))
x265 [info]: frame B: 130081, Avg QP:21.64 kb/s: 3757.45 бейтрит в норме зачем больше?
Аватар StarLord
  StarLord  
OldGamer писал(а):
Зачем?
Для этого фильма вполне норм. Может быть при восьмикратном увеличении стопкадра что-то и покажется дефектным, но в этом случае нужно не битрейт доливать, а на приём к психиатру и новые пилюли выписывать.
Фильм не зашёл. Смотрел чисто из-за Джоди Комер, но, похоже, первый сезон Евы ей будет трудно превзойти. Имхо, рейтинг фильма неоправданно завышен.
Ибо мне кажется, что его таки немного не хватает)
Может и вправду пилюли надо выпить))
Аватар Mr. Fox
  Mr. Fox  
у меня по тесту с 4k HDR вообще 4300 получается
а фильм классный, отличная сказка, добрая и семейная. до просмотра не знал буду ли кодировать для коллекции, после просмотра - однозначный маст хэв
Аватар ADVOKAT69
  ADVOKAT69  
OldGamer писал(а):
Зачем?
Для этого фильма вполне норм. Может быть при восьмикратном увеличении стопкадра что-то и покажется дефектным, но в этом случае нужно не битрейт доливать, а на приём к психиатру и новые пилюли выписывать.
Фильм не зашёл. Смотрел чисто из-за Джоди Комер, но, похоже, первый сезон Евы ей будет трудно превзойти. Имхо, рейтинг фильма неоправданно завышен.
пилюли и психиатр там не помогут уже)))))))
Аватар OldGamer
  OldGamer  
StarLord писал(а):
QP:21.64
Можно было 21 ровно сделать)
Зачем?
Для этого фильма вполне норм. Может быть при восьмикратном увеличении стопкадра что-то и покажется дефектным, но в этом случае нужно не битрейт доливать, а на приём к психиатру и новые пилюли выписывать.
Фильм не зашёл. Смотрел чисто из-за Джоди Комер, но, похоже, первый сезон Евы ей будет трудно превзойти. Имхо, рейтинг фильма неоправданно завышен.
Аватар StarLord
  StarLord  
ADVOKAT69 писал(а):
ага мысли!достаточно почитать все коменты и все сразу понятно!а по логу видно что бейтрит в норме!
QP:21.64
Можно было 21 ровно сделать)
Аватар ADVOKAT69
  ADVOKAT69  
StarLord писал(а):
Не надо ничего удалять, и не надо никого банить. Человек выразил свои мысли. В чем-то он прав, битрейта можно было немного больше дать.
ага мысли!достаточно почитать все коменты и все сразу понятно!а по логу видно что бейтрит в норме!
Аватар StarLord
  StarLord  (Отредактировал StarLord: )    
ADVOKAT69 писал(а):
тут не удалять надо а банить!
Не надо ничего удалять, и не надо никого банить. Человек выразил свои мысли. В чем-то он прав, битрейта можно было немного больше дать.
Аватар ADVOKAT69
  ADVOKAT69  
Admin писал(а):
Как вы определили, что битрейт маленький, и каким он должен быть по вашим РАСЧЕТАМ? Необоснованные претензии по поводу битрейта буду удалять.
тут не удалять надо а банить!
Аватар StarLord
  StarLord  
Tony писал(а):
Что-то по скринам не ахти... Почему таком маленький битрейт??
Перед кодированием, мы проводим тестовые проходы. Мы не используем кодирование в битрейт, в один, два или даже в три прохода. Мы говорим кодеру, что мы кодируем в качество, то есть в CRF. Он задает нужный битрейт, для каждой сцены свой. Где сложная сцена - он может давать 20 мб/сек и больше. А где простенькая - 1 мб/сек. Мы ориентируемся на этот параметр - x265 [info]: frame B: 130081, Avg QP:21.64 kb/s: 3757.45. Он должен быть в пределах 18-21. В основном ориентируемся на 21, так как качество хорошее, но битрейт намного ниже, нежели при значении 18.