💬 Мини-чат

Для тех, кому интересен процесс переделки сайта - https://rips.club/changelog.html (обновлен 22.02.2024)
OldGamerz1M4p9i0, и этот релиз скачался
Adminatomicheart, встал, но у Вас в профиле не видно. Вам бы перекачать.
OldGamerz1M4p9i0, Хан Соло скачался, но релиз, который был на руторе, там аудиодорожек меньше, чем тут, а видеоряд тот же. Попробуйте оттуда, я пока что сидирую.
OldGamerХан Соло откуда-то по чайной ложке в час скачивается, за сутки 50%, наблюдаем-с дальше
Adminatomicheart, завтра посмотрю, он у меня должен быть.
atomicheartРаздайте, пожалуйста, Тихое место: Дилогия / A Quiet Place: Dilogy (2018-2020) UHD-BDRip 1080p [HEVC] 10 bit [HDR] от Mr. Fox
z1M4p9i0Раздайте, пожалуйста, Хан Соло: Звёздные войны. Истории / Solo: A Star Wars Story (2018) [Локализованная версия] BDRip 1080p [HEVC] 10 bit от Cthulhu
z1M4p9i0Раздайте, пожалуйста, Терминатор: Тёмные судьбы / Terminator: Dark Fate (2019) [iTunes] UHD-BDRip 1440p [HEVC] 10 bit от HANNIBAL
OldGamerKeynol, честно говоря, пока что не планировалось, так как у нас есть отличный рип этого фильма
KeynolПриветствую! А можно сделать HEVC 10 bit на Трон Наследие Hybrid ? там файл на 31 гиг :-( на рутрекере. Хороший, но очень массивный..
  • OldGamer
  • ancestor87
  • AndresUA
  • InSpector
Отправка сообщений доступна только зарегистрированным/авторизованным пользователям.
Онлайн (за 10 мин.): 4

Человек-волк / The Wolfman (2010) [Unrated Director's Cut] BDRip 1080p [HEVC] 10 bit от OldGamer (RG RIPS CLUB)

HEVC
10 bit
Обложка Человек-волк / The Wolfman (2010) [Unrated Director's Cut] BDRip 1080p [HEVC] 10 bit от OldGamer (RG RIPS CLUB) Год: 2010
Страна: США
Студия: Relativity Media, Stuber Productions, Universal Pictures
Жанр: Ужасы, Фэнтези, Триллер, Драма
Продолжительность: 01:58:58

Режиссер: Джо Джонстон
В ролях: Бенисио Дель Торо, Энтони Хопкинс, Эмили Блант, Хьюго Уивинг, Саймон Мерреллс, Джемма Уилан, Марио Марин-Боркес, Эйса Баттерфилд, Кристина Контес, Арт Малик

Описание: Эта история разворачивается в Великобритании. Герой возвращается на Родину из Америки для того, чтобы найти без вести пропавшего брата. До него доходят слухи о том, что в предместьях города обитает страшное существо, которое разрывает на части жителей окрестных деревень. Дело расследует полиция Скотланд-Ярда, вскоре их заинтересовывает джентльмен, приехавший на поиски брата.


Исходник: Blu-Ray Remux 1080p (rutracker)
Видео: 1920x1040, 7023 Kbps
Аудио1: AC3, 6 ch, 640 Kbps - РусскийРусский, DUB (Blu-ray CEE)
Аудио2: AC3, 6 ch, 640 Kbps - РусскийРусский, AVO (Андрей Гаврилов)
Аудио3: AC3, 6 ch, 640 Kbps - РусскийРусский, AVO (Юрий Немахов)
Аудио4: AC3, 6 ch, 448 Kbps - РусскийРусский, VO (Вячеслав Замез)
Аудио5: AC3, 6 ch, 640 Kbps - АнглийскийАнглийский
Субтитры: русские (full, forced, SDH), украинские, английские

Как за пару секунд удалить ненужные аудиодорожки и субтитры (Внимание! После удаления вы не сможете поддержать раздачу)

Лог (x265 info)
x265 [info]: frame I: 731, Avg QP:18.00 kb/s: 15568.58
x265 [info]: frame P: 24672, Avg QP:19.40 kb/s: 11953.51
x265 [info]: frame B: 145742, Avg QP:21.87 kb/s: 6144.00
x265 [info]: Weighted P-Frames: Y:12.5% UV:10.4%
x265 [info]: Weighted B-Frames: Y:12.8% UV:10.3%
x265 [info]: encoded 171145 frames in 153803.62s (1.11 fps), 7021.74 kb/s, Avg QP:21.50
Медиаинфо
Общее
Уникальный идентификатор : 71588699480123749430167372825026355644 (0x35DB7B646863607D2B7FADC633D7E1BC)
Полное имя : \\.\Человек-волк.The.Wolfman.2010.Unrated.Director's.Cut.BDRip-HEVC.1080p.mkv
Формат : Matroska
Версия формата : Version 4
Размер файла : 8,34 Гбайт
Продолжительность : 1 ч. 59 м.
Общий поток : 10,0 Мбит/сек
Частота кадров : 23,976 кадра/сек
Название фильма : Человек-волк / Человек-волк
Кодирование произвёл : OldGamer
Тип содержимого : Movie
Описание : «Бойся полной Луны»
Дата выпуска : 2010-02-10
Дата записи : 2010-02-10
Программа кодирования : mkvmerge v82.0 ('I'm The President') 64-bit
Библиотека кодирования : libebml v1.4.5 + libmatroska v1.7.1 / xvid5psp
Обложка : Yes
Attachments : cover.jpg / CronosPro-Bold.ttf / CronosPro-Semibold.ttf / CronosPro-SemiboldIt.ttf
ACTOR : Benicio del Toro, Anthony Hopkins, Emily Blunt, Hugo Weaving, Geraldine Chaplin, Art Malik, Antony Sher, David Schofield, Cristina Contes, David Sterne, Elizabeth Croft, Simon Merrells, Asa Butterfield, Olga Fedori, Lorraine Hilton, John Owens, Gemma...
ARTIST : Benicio del Toro, Anthony Hopkins, Emily Blunt, Hugo Weaving, Geraldine Chaplin, Art Malik, Antony Sher, David Schofield, Cristina Contes, David Sterne, Elizabeth Croft, Simon Merrells, Asa Butterfield, Olga Fedori, Lorraine Hilton, John Owens, Gemma...
DIRECTOR : Joe Johnston
GENRE : ужасы, история, драма, триллер
LAW_RATING : R
PRODUCER : Benicio del Toro, Sean Daniel, Scott Stuber, Rick Yorn
PRODUCTION_STUDIO : Stuber Pictures
RATING : R
SCREENPLAY_BY : Andrew Kevin Walker, David Self
SUMMARY : «Бойся полной Луны»
SYNOPSIS : Эта история разворачивается в Великобритании. Герой возвращается на Родину из Америки для того, чтобы найти без вести пропавшего брата. До него доходят слухи о том, что в предмеcтьях города обитает страшное существо, которое разрывает на части жителей окрестных деревень. Дело расследует полиция Скотланд-Ярда, вскоре их заинтересовывает джентльмен, приехавший на поиски брата.
WRITTEN_BY : Andrew Kevin Walker, David Self

Видео
Идентификатор : 1
Формат : HEVC
Формат/Информация : High Efficiency Video Coding
Профиль формата : Main 10@L4.1@High
Идентификатор кодека : V_MPEGH/ISO/HEVC
Продолжительность : 1 ч. 58 м.
Битрейт : 7 023 Кбит/сек
Ширина : 1 920 пикселей
Высота : 1 040 пикселей
Соотношение сторон : 1,85:1
Режим частоты кадров : Постоянный
Частота кадров : 23,976 (24000/1001) кадра/сек
Цветовое пространство : YUV
Субдискретизация насыщенности : 4:2:0
Битовая глубина : 10 бит
Бит/(Пиксели*Кадры) : 0.147
Размер потока : 5,84 Гбайт (70%)
Заголовок : The Wolfman / Rip by OldGamer
Библиотека кодирования : x265 3.5+110-8ee01d45b:[Windows][GCC 13.2.0][64 bit] 10bit
Настройки программы : cpuid=1111039 / frame-threads=3 / numa-pools=8 / wpp / no-pmode / no-pme / no-psnr / no-ssim / log-level=2 / input-csp=1 / input-res=1920x1040 / interlace=0 / total-frames=171145 / level-idc=41 / high-tier=1 / uhd-bd=0 / ref=5 / no-allow-non-conformance / no-repeat-headers / annexb / no-aud / no-eob / no-eos / no-hrd / info / hash=0 / temporal-layers=0 / open-gop / min-keyint=23 / keyint=240 / gop-lookahead=0 / bframes=16 / b-adapt=2 / b-pyramid / bframe-bias=0 / rc-lookahead=60 / lookahead-slices=0 / scenecut=40 / no-hist-scenecut / radl=0 / no-splice / no-intra-refresh / ctu=32 / min-cu-size=8 / rect / amp / max-tu-size=32 / tu-inter-depth=4 / tu-intra-depth=4 / limit-tu=1 / rdoq-level=2 / dynamic-rd=0.00 / no-ssim-rd / signhide / no-tskip / nr-intra=0 / nr-inter=0 / no-constrained-intra / no-strong-intra-smoothing / max-merge=5 / limit-refs=3 / no-limit-modes / me=3 / subme=7 / merange=57 / temporal-mvp / no-frame-dup / no-hme / weightp / weightb / no-analyze-src-pics / deblock=-2:-2 / no-sao / no-sao-non-deblock / rd=6 / selective-sao=0 / no-early-skip / no-rskip / no-fast-intra / no-tskip-fast / no-cu-lossless / b-intra / no-splitrd-skip / rdpenalty=0 / psy-rd=2.00 / psy-rdoq=1.00 / no-rd-refine / no-lossless / cbqpoffs=0 / crqpoffs=0 / rc=crf / crf=21.3 / qcomp=0.60 / qpstep=4 / stats-write=0 / stats-read=0 / vbv-maxrate=50000 / vbv-bufsize=50000 / vbv-init=0.9 / min-vbv-fullness=50.0 / max-vbv-fullness=80.0 / crf-max=0.0 / crf-min=0.0 / ipratio=1.40 / pbratio=1.30 / aq-mode=1 / aq-strength=1.00 / no-cutree / zone-count=1 / zones: / start-frame=163212 / end-frame=171145 / qp=36 / no-strict-cbr / qg-size=32 / no-rc-grain / qpmax=69 / qpmin=0 / no-const-vbv / sar=1 / overscan=0 / videoformat=5 / range=0 / colorprim=2 / transfer=2 / colormatrix=2 / chromaloc=0 / display-window=0 / cll=0,0 / min-luma=0 / max-luma=1023 / log2-max-poc-lsb=8 / vui-timing-info / vui-hrd-info / slices=1 / no-opt-qp-pps / no-opt-ref-list-length-pps / no-multi-pass-opt-rps / scenecut-bias=0.00 / no-opt-cu-delta-qp / no-aq-motion / no-hdr10 / no-hdr10-opt / no-dhdr10-opt / no-idr-recovery-sei / analysis-reuse-level=0 / analysis-save-reuse-level=0 / analysis-load-reuse-level=0 / scale-factor=0 / refine-intra=0 / refine-inter=0 / refine-mv=1 / refine-ctu-distortion=0 / no-limit-sao / ctu-info=0 / no-lowpass-dct / refine-analysis-type=0 / copy-pic=1 / max-ausize-factor=1.0 / no-dynamic-refine / no-single-sei / no-hevc-aq / no-svt / no-field / qp-adaptation-range=1.00 / scenecut-aware-qp=0conformance-window-offsets / right=0 / bottom=0 / decoder-max-rate=0 / no-vbv-live-multi-pass / no-mcstf / no-sbrc
Язык : English
Default : Да
Forced : Нет

Аудио #1
Идентификатор : 2
Формат : AC-3
Формат/Информация : Audio Coding 3
Коммерческое название : Dolby Digital
Идентификатор кодека : A_AC3
Продолжительность : 1 ч. 58 м.
Вид битрейта : Постоянный
Битрейт : 640 Кбит/сек
Каналы : 6 каналов
Channel layout : L R C LFE Ls Rs
Частота : 48,0 КГц
Частота кадров : 31,250 кадров/сек (1536 SPF)
Метод сжатия : С потерями
Размер потока : 545 Мбайт (6%)
Заголовок : DUB (Blu-ray CEE)
Язык : Russian
Service kind : Complete Main
Default : Да
Forced : Нет

Аудио #2
Идентификатор : 3
Формат : AC-3
Формат/Информация : Audio Coding 3
Коммерческое название : Dolby Digital
Идентификатор кодека : A_AC3
Продолжительность : 1 ч. 58 м.
Вид битрейта : Постоянный
Битрейт : 640 Кбит/сек
Каналы : 6 каналов
Channel layout : L R C LFE Ls Rs
Частота : 48,0 КГц
Частота кадров : 31,250 кадров/сек (1536 SPF)
Метод сжатия : С потерями
Размер потока : 545 Мбайт (6%)
Заголовок : AVO (Андрей Гаврилов)
Язык : Russian
Service kind : Complete Main
Default : Нет
Forced : Нет

Аудио #3
Идентификатор : 4
Формат : AC-3
Формат/Информация : Audio Coding 3
Коммерческое название : Dolby Digital
Идентификатор кодека : A_AC3
Продолжительность : 1 ч. 58 м.
Вид битрейта : Постоянный
Битрейт : 640 Кбит/сек
Каналы : 6 каналов
Channel layout : L R C LFE Ls Rs
Частота : 48,0 КГц
Частота кадров : 31,250 кадров/сек (1536 SPF)
Метод сжатия : С потерями
Размер потока : 545 Мбайт (6%)
Заголовок : AVO (Юрий Немахов)
Язык : Russian
Service kind : Complete Main
Default : Нет
Forced : Нет

Аудио #4
Идентификатор : 5
Формат : AC-3
Формат/Информация : Audio Coding 3
Коммерческое название : Dolby Digital
Идентификатор кодека : A_AC3
Продолжительность : 1 ч. 59 м.
Вид битрейта : Постоянный
Битрейт : 448 Кбит/сек
Каналы : 6 каналов
Channel layout : L R C LFE Ls Rs
Частота : 48,0 КГц
Частота кадров : 31,250 кадров/сек (1536 SPF)
Метод сжатия : С потерями
Размер потока : 382 Мбайт (4%)
Заголовок : VO (Вячеслав Замез)
Язык : Russian
Service kind : Complete Main
Default : Нет
Forced : Нет

Аудио #5
Идентификатор : 6
Формат : AC-3
Формат/Информация : Audio Coding 3
Коммерческое название : Dolby Digital
Идентификатор кодека : A_AC3
Продолжительность : 1 ч. 58 м.
Вид битрейта : Постоянный
Битрейт : 640 Кбит/сек
Каналы : 6 каналов
Channel layout : L R C LFE Ls Rs
Частота : 48,0 КГц
Частота кадров : 31,250 кадров/сек (1536 SPF)
Метод сжатия : С потерями
Размер потока : 545 Мбайт (6%)
Язык : English
Service kind : Complete Main
Default : Нет
Forced : Нет

Текст #1
Идентификатор : 7
Формат : UTF-8
Идентификатор кодека : S_TEXT/UTF8
Идентификатор кодека/Информация : UTF-8 Plain Text
Продолжительность : 3 м. 23 с.
Битрейт : 8 бит/сек
Частота кадров : 0,020 кадр/сек
Count of elements : 4
Размер потока : 224 байт (0%)
Заголовок : Forced
Язык : Russian
Default : Да
Forced : Нет

Текст #2
Идентификатор : 8
Формат : UTF-8
Идентификатор кодека : S_TEXT/UTF8
Идентификатор кодека/Информация : UTF-8 Plain Text
Продолжительность : 1 ч. 50 м.
Битрейт : 60 бит/сек
Частота кадров : 0,138 кадр/сек
Count of elements : 919
Размер потока : 48,6 Кбайт (0%)
Заголовок : Voronine
Язык : Russian
Default : Нет
Forced : Нет

Текст #3
Идентификатор : 9
Формат : UTF-8
Идентификатор кодека : S_TEXT/UTF8
Идентификатор кодека/Информация : UTF-8 Plain Text
Продолжительность : 1 ч. 50 м.
Битрейт : 66 бит/сек
Частота кадров : 0,171 кадр/сек
Count of elements : 1133
Размер потока : 54,1 Кбайт (0%)
Заголовок : Voronine-SDH
Язык : Russian
Default : Нет
Forced : Нет

Текст #4
Идентификатор : 10
Формат : UTF-8
Идентификатор кодека : S_TEXT/UTF8
Идентификатор кодека/Информация : UTF-8 Plain Text
Продолжительность : 1 ч. 51 м.
Битрейт : 52 бит/сек
Частота кадров : 0,130 кадр/сек
Count of elements : 870
Размер потока : 42,7 Кбайт (0%)
Язык : Ukrainian
Default : Нет
Forced : Нет

Текст #5
Идентификатор : 11
Формат : ASS
Идентификатор кодека : S_TEXT/ASS
Идентификатор кодека/Информация : Advanced Sub Station Alpha
Продолжительность : 1 ч. 50 м.
Битрейт : 65 бит/сек
Частота кадров : 0,138 кадр/сек
Count of elements : 912
Метод сжатия : Без потерь
Размер потока : 53,2 Кбайт (0%)
Язык : English
Default : Нет
Forced : Нет

Меню
00:00:00.000 : en:Full Moon
00:02:59.888 : en:Return Home
00:13:34.188 : en:Man or Beast?
00:22:50.577 : en:Horrors of the Past
00:27:39.282 : en:Once Bitten
00:34:37.533 : en:Do You Believe?
00:40:50.489 : en:Scotland Yard
00:48:28.363 : en:It's Not Safe
00:52:23.557 : en:Cursed
00:55:22.485 : en:Quite Dead
01:00:49.187 : en:Terrible Things
01:06:46.001 : en:In the Asylum
01:09:41.010 : en:Lycanthropy
01:14:07.567 : en:Rest Your Fears
01:22:06.463 : en:I Can Help
01:28:25.675 : en:There Is No Cure
01:34:25.910 : en:Silver Bullets
01:39:48.357 : en:The Show is Over
01:44:55.956 : en:Legend Lives On
01:52:06.844 : en:End Titles
Загрузка...Cкриншот1 Человек-волк / The Wolfman (2010) [Unrated Director's Cut] BDRip 1080p [HEVC] 10 bit от OldGamer (RG RIPS CLUB)Загрузка...Cкриншот2 Человек-волк / The Wolfman (2010) [Unrated Director's Cut] BDRip 1080p [HEVC] 10 bit от OldGamer (RG RIPS CLUB)Загрузка...Cкриншот3 Человек-волк / The Wolfman (2010) [Unrated Director's Cut] BDRip 1080p [HEVC] 10 bit от OldGamer (RG RIPS CLUB)Загрузка...Cкриншот4 Человек-волк / The Wolfman (2010) [Unrated Director's Cut] BDRip 1080p [HEVC] 10 bit от OldGamer (RG RIPS CLUB)
Релиз-группа: RIPS CLUB
Сэмпл Торрент🧲 Магнет

Раздача обновлена!
Перекодировано. Добавлены звуковые дорожки (Андрей Гаврилов, Юрий Немахов, Вячеслав Замез и английская) и полные субтитры.

Рейтинги КП и IMDB, кнопки "Позвать в чате" и "Спасибо", а также мультитрекерная статистика доступны только зарегистрированным/авторизованным пользователям!

Файлы: 1
  • Человек-волк.The.Wolfman.2010.Unrated.Director's.Cut.BDRip-HEVC.1080p.mkv   8.34 ГБ
Поблагодарили: 3
donadar, Kiran, MIGRANT
OldGamer
01331108.34 ГБ

Добавление нового комментария

Добавление комментариев доступно только зарегистрированным/авторизованным пользователям.