💬 Мини-чат

Для тех, кому интересен процесс переделки сайта - https://rips.club/changelog.html (обновлен 20.04.2024)
  • Странник
Отправка сообщений доступна только зарегистрированным/авторизованным пользователям.
Онлайн (за 10 мин.): 1

Гарет Джонс / Mr. Jones (2019) BDRip 1080p [HEVC] 10 bit от -Star-Lord- (RG RIPS CLUB)

HEVC
10 bit
Обложка Гарет Джонс / Mr. Jones (2019) BDRip 1080p [HEVC] 10 bit от -Star-Lord- (RG RIPS CLUB) Год: 2019
Страна: Польша, Великобритания, Украина
Студия: Film Produkcja, Crab Apple Films, Film.ua
Жанр: Триллер, Драма, Биография
Продолжительность: 01:58:44

Режиссер: Агнешка Холланд
В ролях: Джеймс Нортон, Ванесса Кирби, Питер Сарсгаард, Джозеф Моул, Кеннет Крэнэм, Селин Джонс, Кшиштоф Печиньский, Фенелла Вулгар, Мартин Бишоп, Джон Эдмондсон

Описание: В 1930-е годы в СССР приезжает молодой журналист из Уэльса Гарет Джонс, который мечтает взять интервью у Сталина. Став свидетелем жестоких репрессий и народных бедствий, Гарет с угрозой для жизни пишет статью о тёмной стороне советской утопии. Пока спецслужбы и сторонники Сталина ищут способ, как заставить его замолчать, начинающий писатель Джордж Оруэлл под впечатлением от его истории задумывает повесть «Скотный двор».


Видео: 1920x780, ~6894 Кбит/сек
Аудио1: AC3, 6 ch, 384 Kbps - УкраинскийУкраинский, Дублированный
Аудио2: AC3, 6 ch, 640 Kbps - АнглийскийАнглийский, Оригинал
Субтитры: английские, польские

Как за пару секунд удалить ненужные аудиодорожки и субтитры (Внимание! После удаления вы не сможете поддержать раздачу)

Лог (x265 info)
x265 [info]: frame I: 1070, Avg QP:15.93 kb/s: 16292.06
x265 [info]: frame P: 31773, Avg QP:17.38 kb/s: 12625.39
x265 [info]: frame B: 138137, Avg QP:19.94 kb/s: 5501.48
x265 [info]: Weighted P-Frames: Y:6.2% UV:4.4%
x265 [info]: Weighted B-Frames: Y:6.4% UV:3.5%
x265 [info]: consecutive B-frames: 6.2% 4.4% 6.4% 25.8% 10.0% 27.4% 7.2% 6.6% 2.3% 1.7% 0.8% 0.4% 0.3% 0.2% 0.2% 0.2% 0.1%

encoded 170980 frames in 152541.56s (1.12 fps), 6892.84 kb/s, Avg QP:19.44
Медиаинфо
General
Unique ID : 239482475689194531526538376300235881324 (0xB42AA5A8E86F7DB74A00535C62647B6C)
Complete name : Mr. Jones (2019) BDRip 1080p H.265 [UKR_ENG] [RIPS-CLUB].mkv
Format : Matroska
Format version : Version 4
File size : 6.57 GiB
Duration : 1 h 58 min
Overall bit rate : 7 921 kb/s
Movie name : Гарет Джонс (Цена правды) / Ціна правди (Obywatel Jones) / Mr. Jones (2019)
Encoded date : UTC 2021-10-05 07:25:57
Writing application : mkvmerge v20.0.0 ('I Am The Sun') 64-bit
Writing library : libebml v1.3.5 + libmatroska v1.4.8
Cover : Yes
Attachments : Cover.jpg

Video
ID : 1
Format : HEVC
Format/Info : High Efficiency Video Coding
Format profile : Main 10@L4.1@High
Codec ID : V_MPEGH/ISO/HEVC
Duration : 1 h 58 min
Bit rate : 6 894 kb/s
Width : 1 920 pixels
Height : 780 pixels
Display aspect ratio : 2.462
Frame rate mode : Constant
Frame rate : 24.000 FPS
Color space : YUV
Chroma subsampling : 4:2:0
Bit depth : 10 bits
Bits/(Pixel*Frame) : 0.192
Stream size : 5.72 GiB (87%)
Title : Гарет Джонс (Цена правды) / Ціна правди (Obywatel Jones) / Mr. Jones (2019)
Writing library : x265 3.5+1-ce882936d:[Windows][GCC 10.2.0][64 bit] 10bit
Encoding settings : cpuid=1111039 / frame-threads=3 / numa-pools=12 / wpp / no-pmode / no-pme / no-psnr / no-ssim / log-level=2 / input-csp=1 / input-res=1920x780 / interlace=0 / total-frames=170980 / level-idc=41 / high-tier=1 / uhd-bd=0 / ref=5 / no-allow-non-conformance / no-repeat-headers / annexb / no-aud / no-hrd / info / hash=0 / no-temporal-layers / open-gop / min-keyint=24 / keyint=240 / gop-lookahead=0 / bframes=16 / b-adapt=2 / b-pyramid / bframe-bias=0 / rc-lookahead=60 / lookahead-slices=4 / scenecut=40 / hist-scenecut=0 / radl=0 / no-splice / no-intra-refresh / ctu=32 / min-cu-size=8 / rect / amp / max-tu-size=32 / tu-inter-depth=4 / tu-intra-depth=4 / limit-tu=1 / rdoq-level=2 / dynamic-rd=0.00 / no-ssim-rd / signhide / no-tskip / nr-intra=0 / nr-inter=0 / no-constrained-intra / no-strong-intra-smoothing / max-merge=5 / limit-refs=2 / limit-modes / me=3 / subme=7 / merange=57 / temporal-mvp / no-frame-dup / no-hme / weightp / weightb / no-analyze-src-pics / deblock=-3:-3 / no-sao / no-sao-non-deblock / rd=6 / selective-sao=0 / no-early-skip / no-rskip / no-fast-intra / no-tskip-fast / no-cu-lossless / no-b-intra / no-splitrd-skip / rdpenalty=0 / psy-rd=2.00 / psy-rdoq=1.00 / no-rd-refine / no-lossless / cbqpoffs=0 / crqpoffs=0 / rc=crf / crf=20.8 / qcomp=0.70 / qpstep=4 / stats-write=0 / stats-read=0 / vbv-maxrate=50000 / vbv-bufsize=50000 / vbv-init=0.9 / min-vbv-fullness=50.0 / max-vbv-fullness=80.0 / crf-max=0.0 / crf-min=0.0 / ipratio=1.40 / pbratio=1.30 / aq-mode=3 / aq-strength=1.00 / no-cutree / zone-count=0 / no-strict-cbr / qg-size=32 / no-rc-grain / qpmax=69 / qpmin=0 / no-const-vbv / sar=1 / overscan=0 / videoformat=5 / range=0 / colorprim=2 / transfer=2 / colormatrix=2 / chromaloc=0 / display-window=0 / cll=0,0 / min-luma=0 / max-luma=1023 / log2-max-poc-lsb=8 / vui-timing-info / vui-hrd-info / slices=1 / no-opt-qp-pps / no-opt-ref-list-length-pps / no-multi-pass-opt-rps / scenecut-bias=0.05 / hist-threshold=0.03 / no-opt-cu-delta-qp / no-aq-motion / no-hdr10 / no-hdr10-opt / no-dhdr10-opt / no-idr-recovery-sei / analysis-reuse-level=0 / analysis-save-reuse-level=0 / analysis-load-reuse-level=0 / scale-factor=0 / refine-intra=0 / refine-inter=0 / refine-mv=1 / refine-ctu-distortion=0 / no-limit-sao / ctu-info=0 / no-lowpass-dct / refine-analysis-type=0 / copy-pic=1 / max-ausize-factor=1.0 / no-dynamic-refine / no-single-sei / no-hevc-aq / no-svt / no-field / qp-adaptation-range=1.00 / scenecut-aware-qp=0conformance-window-offsets / right=0 / bottom=0 / decoder-max-rate=0 / no-vbv-live-multi-pass
Language : English
Default : Yes
Forced : Yes

Audio #1
ID : 2
Format : AC-3
Format/Info : Audio Coding 3
Commercial name : Dolby Digital
Codec ID : A_AC3
Duration : 1 h 58 min
Bit rate mode : Constant
Bit rate : 384 kb/s
Channel(s) : 6 channels
Channel layout : L R C LFE Ls Rs
Sampling rate : 48.0 kHz
Frame rate : 31.250 FPS (1536 SPF)
Compression mode : Lossy
Stream size : 326 MiB (5%)
Title : AC-3 / 5.1 Ch / 384 kbps / DUB
Language : Ukrainian
Service kind : Complete Main
Default : Yes
Forced : Yes

Audio #2
ID : 3
Format : AC-3
Format/Info : Audio Coding 3
Commercial name : Dolby Digital
Codec ID : A_AC3
Duration : 1 h 58 min
Bit rate mode : Constant
Bit rate : 640 kb/s
Channel(s) : 6 channels
Channel layout : L R C LFE Ls Rs
Sampling rate : 48.0 kHz
Frame rate : 31.250 FPS (1536 SPF)
Compression mode : Lossy
Stream size : 544 MiB (8%)
Title : AC-3 / 5.1 Ch / 640 kbps / Original
Language : English
Service kind : Complete Main
Default : No
Forced : No

Text #1
ID : 4
Format : UTF-8
Codec ID : S_TEXT/UTF8
Codec ID/Info : UTF-8 Plain Text
Duration : 1 h 51 min
Bit rate : 36 b/s
Count of elements : 799
Stream size : 29.5 KiB (0%)
Title : Full
Language : English
Default : No
Forced : No

Text #2
ID : 5
Format : UTF-8
Codec ID : S_TEXT/UTF8
Codec ID/Info : UTF-8 Plain Text
Duration : 1 h 55 min
Bit rate : 37 b/s
Count of elements : 956
Stream size : 31.4 KiB (0%)
Title : Full
Language : Polish
Default : No
Forced : No

Menu
00:00:00.000 : :Chapter 01
00:20:06.166 : :Chapter 02
00:48:44.583 : :Chapter 03
01:09:12.333 : :Chapter 04
01:29:20.125 : :Chapter 05
01:44:06.041 : :Chapter 06
Загрузка...Cкриншот1 Гарет Джонс / Mr. Jones (2019) BDRip 1080p [HEVC] 10 bit от -Star-Lord- (RG RIPS CLUB)Загрузка...Cкриншот2 Гарет Джонс / Mr. Jones (2019) BDRip 1080p [HEVC] 10 bit от -Star-Lord- (RG RIPS CLUB)Загрузка...Cкриншот3 Гарет Джонс / Mr. Jones (2019) BDRip 1080p [HEVC] 10 bit от -Star-Lord- (RG RIPS CLUB)Загрузка...Cкриншот4 Гарет Джонс / Mr. Jones (2019) BDRip 1080p [HEVC] 10 bit от -Star-Lord- (RG RIPS CLUB)
Релиз-группа: RIPS CLUB
Сэмпл Торрент🧲 Магнет

Рейтинги КП и IMDB, кнопки "Позвать в чате" и "Спасибо", а также мультитрекерная статистика доступны только зарегистрированным/авторизованным пользователям!

Файлы: 1
  • Mr. Jones (2019) BDRip 1080p H.265 [UKR_ENG] [RIPS-CLUB].mkv   6.57 ГБ
Поблагодарили: 9
Andrey_alex, aquarius, diesel0000, donadar, hunter, ilyich05, IRIT, makss333, mvclub
StarLord
1126006.57 ГБ

Добавление нового комментария

Добавление комментариев доступно только зарегистрированным/авторизованным пользователям.
Аватар StarLord
  StarLord  
Как только появится русская дорожка под блюр, релиз будет обновлен.