💬 Мини-чат

ADVOKAT6977carlsson77, скачайте заново торрент файл!разадаю!
77carlsson77Раздайте, пожалуйста, Бездна / The Deep (1977) BDRip 1080p [HEVC] 10 bit от ADVOKAT69
77carlsson77Раздайте, пожалуйста, Бременские музыканты (1969-1973) BDRip 1080p [HEVC] 10 bit от ADVOKAT69
ADVOKAT69Маугли, Джентльмены удачи раздаю!
ADVOKAT69все хорошо!
FijiMAXРаздайте, пожалуйста, Знакомство с родителями: Трилогия / Meet the Parents: Trilogy (2000-2010) BDRip 1080p [HEVC] 10 bit от OldGamer (RG RIPS CLUB)
NiflungРаздайте, пожалуйста, Багровый пик / Crimson Peak (2015) BDRip 1080p [HEVC] 10 bit от -Star-Lord- (RG RIPS CLUB)
NiflungРаздайте, пожалуйста, Маугли (1967-1971) BDRip 1080p [HEVC] 10 bit от ADVOKAT69
NiflungРаздайте, пожалуйста, Волшебник страны Оз / The Wizard of Oz (1939) BDRip 1080p [HEVC] 10 bit от Мичман
77carlsson77Раздайте, пожалуйста, Замёрзшие / Frozen (2010) BDRip 1080p [HEVC] 10 bit от M@kSIMus
StarLordHANNIBAL, привет ✌
joker63HANNIBAL, Привет))
HANNIBALвсем здрасти
Mr. FoxBeebo, не планировал, но подумаю
BeeboMr.Fox, стоит ли ждать рип Чужие серди нас?
StarLordOldGamer, это классика жанра 😄
OldGamerух ты, в anime.club попаль...
  • vash1
Отправка сообщений доступна только зарегистрированным/авторизованным пользователям.
Онлайн (за 10 мин.): 1

Хребет дьявола / El espinazo del diablo (2001) [The Criterion Collection] BDRip 1080p [HEVC] 10 bit от -Star-Lord- (RG RIPS CLUB)

HEVC
10 bit
Обложка Хребет дьявола / El espinazo del diablo (2001) [The Criterion Collection] BDRip 1080p [HEVC] 10 bit от -Star-Lord- (RG RIPS CLUB) Год: 2001
Страна: Испания, Мексика
Студия: El Deseo S.A., Tequila Gang, Sogepaq, Canal+ España, Anhelo Producciones
Жанр: Ужасы, Драма
Продолжительность: 01:47:51

Режиссер: Гильермо дель Торо
В ролях: Мариса Паредес, Эдуардо Норьега, Федерико Луппи, Фернандо Тилве, Иниго Гарсес, Ирен Виседо, Хосе Мануэль Лоренцо, Франсиско Маэстре, Хунио Вальверде, Берта Охеа, Адриан Ламана

Описание: Пугающий рассказ о 12-летнем Карлосе, который после смерти отца попадает в школу Санта-Лусии на попечение директрисы Кармен и профессора Касареса. Отец мальчика был мятежником, убитым в сражении против режима Франко. И хотя приют перегружен большим количеством детей, директор школы сочувствующе принимает молодого Карлоса.


Видео: 1920x1040, ~7414 Кбит/сек
Аудио1: AC3, 6 ch, 448 Kbps - РусскийРусский, Дублированный (Лицензия)
Аудио2: AC3, 6 ch, 640 Kbps - РусскийРусский, Авторский одноголосый (С. Визгунов)
Аудио3: AC3, 2 ch, 192 Kbps - РусскийРусский, Профессиональный многоголосый закадровый
Аудио4: AC3, 2 ch, 192 Kbps - УкраинскийУкраинский, Профессиональный двухголосый закадровый (1+1)
Аудио5: AC3, 6 ch, 640 Kbps - ИспанскийИспанский, Оригинал
Аудио6: AC3, 6 ch, 192 Kbps - АнглийскийАнглийский, Commentary with director Guillermo del Toro
Субтитры: русские, украинские, английские, испанские

Как за пару секунд удалить ненужные аудиодорожки и субтитры (Внимание! После удаления вы не сможете поддержать раздачу)

Лог (x265 info)
x265 [info]: frame I: 1032, Avg QP:16.53 kb/s: 24907.55
x265 [info]: frame P: 30276, Avg QP:17.95 kb/s: 15508.10
x265 [info]: frame B: 123829, Avg QP:20.48 kb/s: 5288.06
x265 [info]: Weighted P-Frames: Y:5.2% UV:4.5%
x265 [info]: Weighted B-Frames: Y:4.0% UV:3.2%
x265 [info]: consecutive B-frames: 4.1% 2.5% 3.8% 31.1% 9.4% 44.2% 2.8% 1.6% 0.2% 0.2% 0.0% 0.1% 0.0% 0.0% 0.0% 0.0% 0.0%

encoded 155137 frames in 182521.46s (0.85 fps), 7413.08 kb/s, Avg QP:19.96
Медиаинфо
General
Unique ID : 293447218718135125429066055987045660144 (0xDCC3E0E97B314D36B98A0BA248D8F5F0)
Complete name : El espinazo del diablo (2001) [The Criterion Collection] BDRip 1080p H.265 [3xRUS_UKR_SPA] [RIPS-CLUB].mkv
Format : Matroska
Format version : Version 4
File size : 7.32 GiB
Duration : 1 h 47 min
Overall bit rate : 9 723 kb/s
Movie name : Хребет дьявола / Хребет диявола / The Devil's Backbone / El espinazo del diablo (2001) - Rip by -Star-Lord-
Encoded date : UTC 2021-10-19 07:36:22
Writing application : mkvmerge v61.0.0 ('So') 64-bit
Writing library : libebml v1.4.2 + libmatroska v1.6.4
Cover : Yes
Attachments : Cover.jpg

Video
ID : 1
Format : HEVC
Format/Info : High Efficiency Video Coding
Format profile : Main 10@L4.1@High
Codec ID : V_MPEGH/ISO/HEVC
Duration : 1 h 47 min
Bit rate : 7 414 kb/s
Width : 1 920 pixels
Height : 1 040 pixels
Display aspect ratio : 1.85:1
Frame rate mode : Constant
Frame rate : 23.976 (24000/1001) FPS
Color space : YUV
Chroma subsampling : 4:2:0
Bit depth : 10 bits
Bits/(Pixel*Frame) : 0.155
Stream size : 5.58 GiB (76%)
Title : Хребет дьявола / Хребет диявола / The Devil's Backbone / El espinazo del diablo (2001) - Rip by -Star-Lord-
Writing library : x265 3.5+1-ce882936d:[Windows][GCC 10.2.0][64 bit] 10bit
Encoding settings : cpuid=1111039 / frame-threads=3 / numa-pools=12 / wpp / no-pmode / no-pme / no-psnr / no-ssim / log-level=2 / input-csp=1 / input-res=1920x1040 / interlace=0 / total-frames=155137 / level-idc=41 / high-tier=1 / uhd-bd=0 / ref=5 / no-allow-non-conformance / no-repeat-headers / annexb / no-aud / no-hrd / info / hash=0 / no-temporal-layers / open-gop / min-keyint=23 / keyint=240 / gop-lookahead=0 / bframes=16 / b-adapt=2 / b-pyramid / bframe-bias=0 / rc-lookahead=60 / lookahead-slices=4 / scenecut=40 / hist-scenecut=0 / radl=0 / no-splice / no-intra-refresh / ctu=32 / min-cu-size=8 / rect / amp / max-tu-size=32 / tu-inter-depth=4 / tu-intra-depth=4 / limit-tu=1 / rdoq-level=2 / dynamic-rd=0.00 / no-ssim-rd / signhide / no-tskip / nr-intra=0 / nr-inter=0 / no-constrained-intra / no-strong-intra-smoothing / max-merge=5 / limit-refs=2 / limit-modes / me=3 / subme=7 / merange=57 / temporal-mvp / no-frame-dup / no-hme / weightp / weightb / no-analyze-src-pics / deblock=-3:-3 / no-sao / no-sao-non-deblock / rd=6 / selective-sao=0 / no-early-skip / no-rskip / no-fast-intra / no-tskip-fast / no-cu-lossless / no-b-intra / no-splitrd-skip / rdpenalty=0 / psy-rd=2.00 / psy-rdoq=1.00 / no-rd-refine / no-lossless / cbqpoffs=0 / crqpoffs=0 / rc=crf / crf=21.0 / qcomp=0.70 / qpstep=4 / stats-write=0 / stats-read=0 / vbv-maxrate=50000 / vbv-bufsize=50000 / vbv-init=0.9 / min-vbv-fullness=50.0 / max-vbv-fullness=80.0 / crf-max=0.0 / crf-min=0.0 / ipratio=1.40 / pbratio=1.30 / aq-mode=1 / aq-strength=1.00 / no-cutree / zone-count=0 / no-strict-cbr / qg-size=32 / no-rc-grain / qpmax=69 / qpmin=0 / no-const-vbv / sar=1 / overscan=0 / videoformat=5 / range=0 / colorprim=2 / transfer=2 / colormatrix=2 / chromaloc=0 / display-window=0 / cll=0,0 / min-luma=0 / max-luma=1023 / log2-max-poc-lsb=8 / vui-timing-info / vui-hrd-info / slices=1 / no-opt-qp-pps / no-opt-ref-list-length-pps / no-multi-pass-opt-rps / scenecut-bias=0.05 / hist-threshold=0.03 / no-opt-cu-delta-qp / no-aq-motion / no-hdr10 / no-hdr10-opt / no-dhdr10-opt / no-idr-recovery-sei / analysis-reuse-level=0 / analysis-save-reuse-level=0 / analysis-load-reuse-level=0 / scale-factor=0 / refine-intra=0 / refine-inter=0 / refine-mv=1 / refine-ctu-distortion=0 / no-limit-sao / ctu-info=0 / no-lowpass-dct / refine-analysis-type=0 / copy-pic=1 / max-ausize-factor=1.0 / no-dynamic-refine / no-single-sei / no-hevc-aq / no-svt / no-field / qp-adaptation-range=1.00 / scenecut-aware-qp=0conformance-window-offsets / right=0 / bottom=0 / decoder-max-rate=0 / no-vbv-live-multi-pass
Language : English
Default : Yes
Forced : Yes

Audio #1
ID : 2
Format : AC-3
Format/Info : Audio Coding 3
Commercial name : Dolby Digital
Codec ID : A_AC3
Duration : 1 h 47 min
Bit rate mode : Constant
Bit rate : 448 kb/s
Channel(s) : 6 channels
Channel layout : L R C LFE Ls Rs
Sampling rate : 48.0 kHz
Frame rate : 31.250 FPS (1536 SPF)
Compression mode : Lossy
Stream size : 346 MiB (5%)
Title : AC-3 / 5.1 Ch / 448 kbps / DUB
Language : Russian
Service kind : Complete Main
Default : Yes
Forced : Yes

Audio #2
ID : 3
Format : AC-3
Format/Info : Audio Coding 3
Commercial name : Dolby Digital
Codec ID : A_AC3
Duration : 1 h 47 min
Bit rate mode : Constant
Bit rate : 640 kb/s
Channel(s) : 5 channels
Channel layout : L R C Ls Rs
Sampling rate : 48.0 kHz
Frame rate : 31.250 FPS (1536 SPF)
Compression mode : Lossy
Stream size : 494 MiB (7%)
Title : AC-3 / 5.1 Ch / 640 kbps / AVO / С. Визгунов
Language : Russian
Service kind : Complete Main
Default : No
Forced : No

Audio #3
ID : 4
Format : AC-3
Format/Info : Audio Coding 3
Commercial name : Dolby Digital
Codec ID : A_AC3
Duration : 1 h 47 min
Bit rate mode : Constant
Bit rate : 192 kb/s
Channel(s) : 2 channels
Channel layout : L R
Sampling rate : 48.0 kHz
Frame rate : 31.250 FPS (1536 SPF)
Compression mode : Lossy
Stream size : 148 MiB (2%)
Title : AC-3 / 2.0 Ch / 192 kbps / MVO
Language : Russian
Service kind : Complete Main
Default : No
Forced : No

Audio #4
ID : 5
Format : AC-3
Format/Info : Audio Coding 3
Commercial name : Dolby Digital
Codec ID : A_AC3
Duration : 1 h 47 min
Bit rate mode : Constant
Bit rate : 192 kb/s
Channel(s) : 2 channels
Channel layout : L R
Sampling rate : 48.0 kHz
Frame rate : 31.250 FPS (1536 SPF)
Compression mode : Lossy
Stream size : 148 MiB (2%)
Title : AC-3 / 2.0 Ch / 192 kbps / DVO / 1+1
Language : Ukrainian
Service kind : Complete Main
Default : No
Forced : No

Audio #5
ID : 6
Format : AC-3
Format/Info : Audio Coding 3
Commercial name : Dolby Digital
Codec ID : A_AC3
Duration : 1 h 47 min
Bit rate mode : Constant
Bit rate : 640 kb/s
Channel(s) : 6 channels
Channel layout : L R C LFE Ls Rs
Sampling rate : 48.0 kHz
Frame rate : 31.250 FPS (1536 SPF)
Compression mode : Lossy
Stream size : 494 MiB (7%)
Title : AC-3 / 5.1 Ch / 640 kbps / Original
Language : Spanish
Service kind : Complete Main
Default : No
Forced : No

Audio #6
ID : 7
Format : AC-3
Format/Info : Audio Coding 3
Commercial name : Dolby Digital
Codec ID : A_AC3
Duration : 1 h 47 min
Bit rate mode : Constant
Bit rate : 192 kb/s
Channel(s) : 2 channels
Channel layout : L R
Sampling rate : 48.0 kHz
Frame rate : 31.250 FPS (1536 SPF)
Compression mode : Lossy
Stream size : 148 MiB (2%)
Title : AC-3 / 2.0 Ch / 192 kbps / Original / Commentary with director Guillermo del Toro
Language : English
Service kind : Complete Main
Default : No
Forced : No

Text #1
ID : 8
Format : UTF-8
Codec ID : S_TEXT/UTF8
Codec ID/Info : UTF-8 Plain Text
Duration : 1 h 43 min
Bit rate : 43 b/s
Count of elements : 759
Stream size : 33.3 KiB (0%)
Title : Full
Language : Russian
Default : No
Forced : No

Text #2
ID : 9
Format : UTF-8
Codec ID : S_TEXT/UTF8
Codec ID/Info : UTF-8 Plain Text
Duration : 1 h 43 min
Bit rate : 42 b/s
Count of elements : 648
Stream size : 31.9 KiB (0%)
Title : Full
Language : Ukrainian
Default : No
Forced : No

Text #3
ID : 10
Format : UTF-8
Codec ID : S_TEXT/UTF8
Codec ID/Info : UTF-8 Plain Text
Duration : 1 h 43 min
Bit rate : 27 b/s
Count of elements : 725
Stream size : 20.6 KiB (0%)
Title : Full
Language : English
Default : No
Forced : No

Text #4
ID : 11
Format : UTF-8
Codec ID : S_TEXT/UTF8
Codec ID/Info : UTF-8 Plain Text
Duration : 1 h 43 min
Bit rate : 27 b/s
Count of elements : 715
Stream size : 20.6 KiB (0%)
Title : Full
Language : Spanish
Default : No
Forced : No

Menu
00:00:00.000 : Opening credits
00:03:54.943 : Carlos
00:06:57.667 : Galvez and Owl
00:09:51.049 : Left behind
00:12:54.399 : Bed no. 12
00:14:32.330 : Jacinto and Conchita
00:17:24.669 : The One Who Sighs
00:20:46.287 : Off-limits for orphans
00:26:48.398 : "Many of you will die"
00:37:40.967 : At the pool
00:40:37.310 : The Devil's Backbone
00:42:48.357 : Swap meet
00:44:56.944 : The last time
00:47:43.152 : The legend of Santi
00:54:18.547 : Condemned
00:55:42.464 : "Show me where Santi is"
01:00:23.036 : "We have to go"
01:02:02.427 : Prince without a kingdom
01:06:25.231 : Prophecy fulfilled
01:10:26.597 : A new poem
01:15:53.758 : Armed and waiting
01:17:31.272 : The truth revealed
01:23:38.263 : "Say you're sorry"
01:28:08.950 : Santi's wish
01:29:44.045 : Jacinto returns
01:31:30.276 : Escape
01:37:20.043 : Gold
01:39:22.081 : A fitting punishment
Загрузка...Cкриншот1 Хребет дьявола / El espinazo del diablo (2001) [The Criterion Collection] BDRip 1080p [HEVC] 10 bit от -Star-Lord- (RG RIPS CLUB)Загрузка...Cкриншот2 Хребет дьявола / El espinazo del diablo (2001) [The Criterion Collection] BDRip 1080p [HEVC] 10 bit от -Star-Lord- (RG RIPS CLUB)Загрузка...Cкриншот3 Хребет дьявола / El espinazo del diablo (2001) [The Criterion Collection] BDRip 1080p [HEVC] 10 bit от -Star-Lord- (RG RIPS CLUB)Загрузка...Cкриншот4 Хребет дьявола / El espinazo del diablo (2001) [The Criterion Collection] BDRip 1080p [HEVC] 10 bit от -Star-Lord- (RG RIPS CLUB)
Релиз-группа: RIPS CLUB
Сэмпл Торрент🧲 Магнет

Рейтинги КП и IMDB, кнопки "Позвать в чате" и "Спасибо", а также мультитрекерная статистика доступны только зарегистрированным/авторизованным пользователям!

Файлы: 1
  • El espinazo del diablo (2001) [The Criterion Collection] BDRip 1080p H.265 [3xRUS_UKR_SPA] [RIPS-CLUB].mkv   7.32 ГБ
Поблагодарили: 10
alexposad, and50, denisspb, IRIT, ivan_1965, Kilop77, ko1ob, makss333, SergKote, TaurohtaR
StarLord
0120827.32 ГБ

Добавление нового комментария

Добавление комментариев доступно только зарегистрированным/авторизованным пользователям.