💬 Мини-чат

KEYSРаздайте, пожалуйста, Тело Дженнифер / Jennifer's Body (2009) [Unrated Cut] BDRip 1080p [HEVC] 10 bit от XuMuK
KEYSРаздайте, пожалуйста, Зажигание / Combustión (2013) BDRip 1080p [HEVC] 10 bit от HANNIBAL
ADVOKAT69michael90, 👍без проблем!пожалуйста!
michael90ADVOKAT69, большое спасибо😎
ADVOKAT69michael90, раздаю
michael90Раздайте, пожалуйста, Джентльмены удачи (1971) BDRip 1080p [HEVC] 10 bit от ADVOKAT69
StarLordOldGamer, немного уменьшил список :)
OldGamerСкоро вся первая страница будет состоять из публикаций "Скоро" 😂
Adminzzzlayasss, сделайте скриншоты вкладок с хэш-суммой и трекерами и мне в приват или в ЛС
Adminzzzlayasss, в Вашем профиле я вообще не вижу, чтобы Вы это качали, так что мы даже не уверены, что Вы скачивали торрент-файл именно у нас.
OldGamerох уж в 2022 то году думать, что торренты скачиваются с сайта...
zzzlayasssСообщение удалено (удалил: zzzlayasss)
zzzlayasssOldGamer, у меня потери - 0, что тут разбирать?
OldGamerс моей стороны трассировка до пользователей саркор-телеком проходит успешно, так что разберитесь с принципом работы торрентов и ищите решение на своей стороне
OldGamerzzzlayasss, дело хозяйское
zzzlayasssOldGamer, Ни с железом, ни со скоростью интернета у меня нет проблем. Сейчас поставил на закачку релиз от ктулху, он в два раза меньше, но уже половина скачано, если докачаю быстрее 16-ти ваших мегабайт, то буду избавляться от вашего 11,66 гигового вашего, всё настроение испоганено такой долгой закачкой.
OldGamerzzzlayasss, у меня нет никаких проблем
zzzlayasssЛюди добрые, обьясните мне, я реально не понимаю, вчера поставил на закачку два фильма, РЭД и РЭД-2, второй фильм скачался буквально за каких-то пол часа, но вот с фильмом РЭД у меня какие-то немыслимые качели, или у релизера проблемы с файлом и он мне не может раздать последние 16 мегабайт, или он просто издевается, объясните мне пожалуйста, что тут реально происходит.
zzzlayasssСообщение удалено (удалил: zzzlayasss)
zzzlayasssОсталось докачать 16 мегабайт, но я уже почти сутки сижу и жду.
  • OldGamer
  • 77carlsson77
  • AlexTwitt
Отправка сообщений доступна только зарегистрированным/авторизованным пользователям.
Онлайн (за 10 мин.): 3

Багровый пик / Crimson Peak (2015) BDRip 1080p [HEVC] 10 bit от -Star-Lord- (RG RIPS CLUB)

HEVC
10 bit
Обложка Багровый пик / Crimson Peak (2015) BDRip 1080p [HEVC] 10 bit от -Star-Lord- (RG RIPS CLUB) Год: 2015
Страна: США, Канада
Студия: Legendary Pictures
Жанр: Ужасы, Фэнтези, Триллер, Драма
Продолжительность: 01:58:43

Режиссер: Гильермо дель Торо
В ролях: Миа Васиковска, Джессика Честейн, Том Хиддлстон, Чарли Ханнэм, Джим Бивер, Берн Горман, Лесли Хоуп, Даг Джонс, Джонатан Хайд, Брюс Грэй

Описание: Дурная слава преследует дом, что возвышается над городом. С приходом зимы он утопает в кровавых снегах. Говорят, дело в глине, проступающей на поверхность. Но ни единая душа не рискует ступить на ледяной склон… кроме нее. Она влюблена в таинственного незнакомца, живущего в древних стенах со своей сестрой. Багровый пик пробудился и уже не уснет.


Исходник: Crimson Peak 2015 1080p Blu-ray Remux AVC DTS-X 7.1 - KRaLiMaRKo
Видео: 1920x1040, ~5495 Кбит/сек
Аудио1: DTS, 6 ch, 768 Kbps - РусскийРусский, Дублированный (Blu-Ray)
Аудио2: AC3, 2 ch, 192 Kbps - УкраинскийУкраинский, Дублированный (1+1)
Аудио3: AC3, 2 ch, 192 Kbps - УкраинскийУкраинский, Дублированный (MIC, Студія "LeDoyen")
Аудио4: AC3, 6 ch, 640 Kbps - АнглийскийАнглийский, Оригинал
Аудио5: AC3, 2 ch, 192 Kbps - АнглийскийАнглийский, Feature Commentary with Co-Writer/Director Guillermo del Toro
Субтитры: русские (форс., полные), украинские (форс., полные), английские (полные, SDH)

Как за пару секунд удалить ненужные аудиодорожки и субтитры (Внимание! После удаления вы не сможете поддержать раздачу)

Лог (x265 info)
x265 [info]: frame I: 1481, Avg QP:16.54 kb/s: 23007.97
x265 [info]: frame P: 35950, Avg QP:18.13 kb/s: 11367.32
x265 [info]: frame B: 133368, Avg QP:20.55 kb/s: 3716.76
x265 [info]: Weighted P-Frames: Y:4.9% UV:4.1%
x265 [info]: Weighted B-Frames: Y:4.2% UV:3.4%
x265 [info]: consecutive B-frames: 6.4% 3.6% 4.7% 38.6% 12.3% 31.0% 2.0% 1.1% 0.1% 0.1% 0.0% 0.0% 0.0% 0.0% 0.0% 0.0% 0.0%

encoded 170799 frames in 214955.52s (0.79 fps), 5494.34 kb/s, Avg QP:20.00
Медиаинфо
General
Unique ID : 227156560217679003286645734862580356684 (0xAAE4C31B85FA6F7C16477610FBC8164C)
Complete name : Crimson Peak (2015) BDRip 1080p H.265 [RUS_2xUKR_ENG] [RIPS-CLUB].mkv
Format : Matroska
Format version : Version 4
File size : 6.21 GiB
Duration : 1 h 58 min
Overall bit rate : 7 484 kb/s
Movie name : Багровый пик / Багряний пік / Crimson Peak (2015)
Encoded date : UTC 2021-11-24 08:35:03
Writing application : mkvmerge v61.0.0 ('So') 64-bit
Writing library : libebml v1.4.2 + libmatroska v1.6.4
Cover : Yes
Attachments : Cover.jpg

Video
ID : 1
Format : HEVC
Format/Info : High Efficiency Video Coding
Format profile : Main 10@L4.1@High
Codec ID : V_MPEGH/ISO/HEVC
Duration : 1 h 58 min
Bit rate : 5 495 kb/s
Width : 1 920 pixels
Height : 1 040 pixels
Display aspect ratio : 1.85:1
Frame rate mode : Constant
Frame rate : 23.976 (24000/1001) FPS
Color space : YUV
Chroma subsampling : 4:2:0
Bit depth : 10 bits
Bits/(Pixel*Frame) : 0.115
Stream size : 4.56 GiB (73%)
Title : Багровый пик / Багряний пік / Crimson Peak (2015)
Writing library : x265 3.5+1-ce882936d:[Windows][GCC 10.2.0][64 bit] 10bit
Encoding settings : cpuid=1111039 / frame-threads=3 / numa-pools=12 / wpp / no-pmode / no-pme / no-psnr / no-ssim / log-level=2 / input-csp=1 / input-res=1920x1040 / interlace=0 / total-frames=170799 / level-idc=41 / high-tier=1 / uhd-bd=0 / ref=5 / no-allow-non-conformance / no-repeat-headers / annexb / no-aud / no-hrd / info / hash=0 / no-temporal-layers / open-gop / min-keyint=23 / keyint=240 / gop-lookahead=0 / bframes=16 / b-adapt=2 / b-pyramid / bframe-bias=0 / rc-lookahead=60 / lookahead-slices=4 / scenecut=40 / hist-scenecut=0 / radl=0 / no-splice / no-intra-refresh / ctu=32 / min-cu-size=8 / rect / amp / max-tu-size=32 / tu-inter-depth=4 / tu-intra-depth=4 / limit-tu=1 / rdoq-level=2 / dynamic-rd=0.00 / no-ssim-rd / signhide / no-tskip / nr-intra=0 / nr-inter=0 / no-constrained-intra / no-strong-intra-smoothing / max-merge=5 / limit-refs=2 / limit-modes / me=3 / subme=7 / merange=57 / temporal-mvp / no-frame-dup / no-hme / weightp / weightb / no-analyze-src-pics / deblock=-3:-3 / no-sao / no-sao-non-deblock / rd=6 / selective-sao=0 / no-early-skip / no-rskip / no-fast-intra / no-tskip-fast / no-cu-lossless / no-b-intra / no-splitrd-skip / rdpenalty=0 / psy-rd=2.00 / psy-rdoq=1.00 / no-rd-refine / no-lossless / cbqpoffs=0 / crqpoffs=0 / rc=crf / crf=21.0 / qcomp=0.60 / qpstep=4 / stats-write=0 / stats-read=0 / vbv-maxrate=50000 / vbv-bufsize=50000 / vbv-init=0.9 / min-vbv-fullness=50.0 / max-vbv-fullness=80.0 / crf-max=0.0 / crf-min=0.0 / ipratio=1.40 / pbratio=1.30 / aq-mode=1 / aq-strength=1.00 / no-cutree / zone-count=0 / no-strict-cbr / qg-size=32 / no-rc-grain / qpmax=69 / qpmin=0 / no-const-vbv / sar=1 / overscan=0 / videoformat=5 / range=0 / colorprim=2 / transfer=2 / colormatrix=2 / chromaloc=0 / display-window=0 / cll=0,0 / min-luma=0 / max-luma=1023 / log2-max-poc-lsb=8 / vui-timing-info / vui-hrd-info / slices=1 / no-opt-qp-pps / no-opt-ref-list-length-pps / no-multi-pass-opt-rps / scenecut-bias=0.05 / hist-threshold=0.03 / no-opt-cu-delta-qp / no-aq-motion / no-hdr10 / no-hdr10-opt / no-dhdr10-opt / no-idr-recovery-sei / analysis-reuse-level=0 / analysis-save-reuse-level=0 / analysis-load-reuse-level=0 / scale-factor=0 / refine-intra=0 / refine-inter=0 / refine-mv=1 / refine-ctu-distortion=0 / no-limit-sao / ctu-info=0 / no-lowpass-dct / refine-analysis-type=0 / copy-pic=1 / max-ausize-factor=1.0 / no-dynamic-refine / no-single-sei / no-hevc-aq / no-svt / no-field / qp-adaptation-range=1.00 / scenecut-aware-qp=0conformance-window-offsets / right=0 / bottom=0 / decoder-max-rate=0 / no-vbv-live-multi-pass
Language : English
Default : Yes
Forced : Yes

Audio #1
ID : 2
Format : DTS
Format/Info : Digital Theater Systems
Codec ID : A_DTS
Duration : 1 h 58 min
Bit rate mode : Constant
Bit rate : 768 kb/s
Channel(s) : 6 channels
Channel layout : C L R Ls Rs LFE
Sampling rate : 48.0 kHz
Frame rate : 93.750 FPS (512 SPF)
Bit depth : 24 bits
Compression mode : Lossy
Stream size : 652 MiB (10%)
Title : DTS / 5.1 Ch / 768 kbps / DUB / Blu-Ray
Language : Russian
Default : Yes
Forced : Yes

Audio #2
ID : 3
Format : AC-3
Format/Info : Audio Coding 3
Commercial name : Dolby Digital
Codec ID : A_AC3
Duration : 1 h 58 min
Bit rate mode : Constant
Bit rate : 192 kb/s
Channel(s) : 2 channels
Channel layout : L R
Sampling rate : 48.0 kHz
Frame rate : 31.250 FPS (1536 SPF)
Compression mode : Lossy
Stream size : 163 MiB (3%)
Title : AC-3 / 2.0 Ch / 192 kbps / DUB / 1+1 [stereo]
Language : Ukrainian
Service kind : Complete Main
Default : No
Forced : No

Audio #3
ID : 4
Format : AC-3
Format/Info : Audio Coding 3
Commercial name : Dolby Digital
Codec ID : A_AC3
Duration : 1 h 58 min
Bit rate mode : Constant
Bit rate : 192 kb/s
Channel(s) : 2 channels
Channel layout : L R
Sampling rate : 48.0 kHz
Frame rate : 31.250 FPS (1536 SPF)
Compression mode : Lossy
Stream size : 163 MiB (3%)
Title : AC-3 / 2.0 Ch / 192 kbps / DUB / MIC / Студія "LeDoyen"
Language : Ukrainian
Service kind : Complete Main
Default : No
Forced : No

Audio #4
ID : 5
Format : AC-3
Format/Info : Audio Coding 3
Commercial name : Dolby Digital
Codec ID : A_AC3
Duration : 1 h 58 min
Bit rate mode : Constant
Bit rate : 640 kb/s
Channel(s) : 6 channels
Channel layout : L R C LFE Ls Rs
Sampling rate : 48.0 kHz
Frame rate : 31.250 FPS (1536 SPF)
Bit depth : 16 bits
Compression mode : Lossy
Stream size : 543 MiB (9%)
Title : AC-3 / 5.1 Ch / 640 kbps / Original
Language : English
Service kind : Complete Main
Default : No
Forced : No

Audio #5
ID : 6
Format : AC-3
Format/Info : Audio Coding 3
Commercial name : Dolby Digital
Format settings : Dolby Surround
Codec ID : A_AC3
Duration : 1 h 58 min
Bit rate mode : Constant
Bit rate : 192 kb/s
Channel(s) : 2 channels
Channel layout : L R
Sampling rate : 48.0 kHz
Frame rate : 31.250 FPS (1536 SPF)
Compression mode : Lossy
Stream size : 163 MiB (3%)
Title : AC-3 / 2.0 Ch / 192 kbps / Original / Feature Commentary with Co-Writer/Director Guillermo del Toro
Language : English
Service kind : Complete Main
Default : No
Forced : No

Text #1
ID : 7
Format : UTF-8
Codec ID : S_TEXT/UTF8
Codec ID/Info : UTF-8 Plain Text
Duration : 1 h 54 min
Bit rate : 1 b/s
Count of elements : 24
Stream size : 997 Bytes (0%)
Title : Forced
Language : Russian
Default : Yes
Forced : Yes

Text #2
ID : 8
Format : UTF-8
Codec ID : S_TEXT/UTF8
Codec ID/Info : UTF-8 Plain Text
Duration : 1 h 57 min
Bit rate : 75 b/s
Count of elements : 1353
Stream size : 64.9 KiB (0%)
Title : Full
Language : Russian
Default : No
Forced : No

Text #3
ID : 9
Format : UTF-8
Codec ID : S_TEXT/UTF8
Codec ID/Info : UTF-8 Plain Text
Duration : 1 h 36 min
Bit rate : 1 b/s
Count of elements : 23
Stream size : 925 Bytes (0%)
Title : Forced
Language : Ukrainian
Default : No
Forced : No

Text #4
ID : 10
Format : UTF-8
Codec ID : S_TEXT/UTF8
Codec ID/Info : UTF-8 Plain Text
Duration : 1 h 52 min
Bit rate : 74 b/s
Count of elements : 1346
Stream size : 61.4 KiB (0%)
Title : Full
Language : Ukrainian
Default : No
Forced : No

Text #5
ID : 11
Format : UTF-8
Codec ID : S_TEXT/UTF8
Codec ID/Info : UTF-8 Plain Text
Duration : 1 h 50 min
Bit rate : 47 b/s
Count of elements : 1364
Stream size : 38.7 KiB (0%)
Title : Full
Language : English
Default : No
Forced : No

Text #6
ID : 12
Format : UTF-8
Codec ID : S_TEXT/UTF8
Codec ID/Info : UTF-8 Plain Text
Duration : 1 h 50 min
Bit rate : 51 b/s
Count of elements : 1527
Stream size : 41.5 KiB (0%)
Title : SDH
Language : English
Default : No
Forced : No

Menu
00:00:00.000 : :Chapter 1
00:06:02.528 : :Chapter 2
00:11:01.202 : :Chapter 3
00:15:29.720 : :Chapter 4
00:21:13.105 : :Chapter 5
00:25:52.926 : :Chapter 6
00:31:14.664 : :Chapter 7
00:39:26.822 : :Chapter 8
00:45:40.612 : :Chapter 9
00:51:57.030 : :Chapter 10
00:56:11.576 : :Chapter 11
01:02:05.096 : :Chapter 12
01:08:19.929 : :Chapter 13
01:14:24.835 : :Chapter 14
01:20:19.105 : :Chapter 15
01:25:54.149 : :Chapter 16
01:30:38.891 : :Chapter 17
01:36:09.638 : :Chapter 18
01:43:21.069 : :Chapter 19
01:51:24.135 : :Chapter 20
Загрузка...Cкриншот1 Багровый пик / Crimson Peak (2015) BDRip 1080p [HEVC] 10 bit от -Star-Lord- (RG RIPS CLUB)Загрузка...Cкриншот2 Багровый пик / Crimson Peak (2015) BDRip 1080p [HEVC] 10 bit от -Star-Lord- (RG RIPS CLUB)Загрузка...Cкриншот3 Багровый пик / Crimson Peak (2015) BDRip 1080p [HEVC] 10 bit от -Star-Lord- (RG RIPS CLUB)Загрузка...Cкриншот4 Багровый пик / Crimson Peak (2015) BDRip 1080p [HEVC] 10 bit от -Star-Lord- (RG RIPS CLUB)
Релиз-группа: RIPS CLUB
Сэмпл Торрент🧲 Магнет

Рейтинги КП и IMDB, кнопки "Позвать в чате" и "Спасибо", а также мультитрекерная статистика доступны только зарегистрированным/авторизованным пользователям!

Файлы: 1
  • Crimson Peak (2015) BDRip 1080p H.265 [RUS_2xUKR_ENG] [RIPS-CLUB].mkv   6.21 ГБ
Поблагодарили: 11
Kiran, makss333, MIGRANT, mvclub, Niflung, normalllhuman, Nuclear70, SergKote, torrentzulu, vash1, z_artem
StarLord
0158726.21 ГБ

Добавление нового комментария

Добавление комментариев доступно только зарегистрированным/авторизованным пользователям.