💬 Мини-чат

77carlsson77Раздайте, пожалуйста, Бездна / The Deep (1977) BDRip 1080p [HEVC] 10 bit от ADVOKAT69
77carlsson77Раздайте, пожалуйста, Бременские музыканты (1969-1973) BDRip 1080p [HEVC] 10 bit от ADVOKAT69
ADVOKAT69Маугли, Джентльмены удачи раздаю!
ADVOKAT69все хорошо!
FijiMAXРаздайте, пожалуйста, Знакомство с родителями: Трилогия / Meet the Parents: Trilogy (2000-2010) BDRip 1080p [HEVC] 10 bit от OldGamer (RG RIPS CLUB)
NiflungРаздайте, пожалуйста, Багровый пик / Crimson Peak (2015) BDRip 1080p [HEVC] 10 bit от -Star-Lord- (RG RIPS CLUB)
NiflungРаздайте, пожалуйста, Маугли (1967-1971) BDRip 1080p [HEVC] 10 bit от ADVOKAT69
NiflungРаздайте, пожалуйста, Волшебник страны Оз / The Wizard of Oz (1939) BDRip 1080p [HEVC] 10 bit от Мичман
77carlsson77Раздайте, пожалуйста, Замёрзшие / Frozen (2010) BDRip 1080p [HEVC] 10 bit от M@kSIMus
StarLordHANNIBAL, привет ✌
joker63HANNIBAL, Привет))
HANNIBALвсем здрасти
Mr. FoxBeebo, не планировал, но подумаю
BeeboMr.Fox, стоит ли ждать рип Чужие серди нас?
StarLordOldGamer, это классика жанра 😄
OldGamerух ты, в anime.club попаль...
  • Giggalo
  • Spartanec1308
  • 77carlsson77
  • AlexTwitt
  • pmihail99
Отправка сообщений доступна только зарегистрированным/авторизованным пользователям.
Онлайн (за 10 мин.): 5

Грань / Fringe (2010-2011) [2 сезон] BDRip 1080p [HEVC] 10 bit от OldGamer (RG RIPS CLUB)

HEVC
10 bit
Обложка Грань / Fringe (2010-2011) [2 сезон] BDRip 1080p [HEVC] 10 bit от OldGamer (RG RIPS CLUB) Год: 2010-2011
Страна: США, Канада
Студия: Bad Robot, FB2 Films, Fringe Element Films, Warner Bros. Television
Жанр: Фантастика, Триллер, Драма, Детектив
Продолжительность: 16:50:10

Режиссер: Джо Чаппелль, Брэд Андерсон, Фред Туа
В ролях: Анна Торв, Джошуа Джексон, Джон Ноубл, Джесика Николь, Лэнс Реддик, Блэр Браун, Майкл Серверис, Кирк Асеведо, Сет Гейбл, Леонард Нимой

Описание: Специальный агент ФБР Оливия Данэм, безумный учёный Уолтер Бишоп и его сын Питер исследуют аспекты науки «за гранью», такие как телепатия, левитация, реинкарнация… Они становятся свидетелями ряда загадочных событий, которые попадают под общую «схему». Новорождённый ребёнок за считанные минуты взрослеет и умирает. Автобус наполняется странным веществом, которое мгновенно затвердевает, парализуя пассажиров, как комаров в янтаре. Все это выглядит так, будто кто-то экспериментирует над целым миром… Оливия, Питер и Уолтер берутся за расследование этих странных событий. Они обнаруживают связь «схемы» с корпорацией «Мэссив Дайнэмик», которая является ведущей глобальной исследовательской компанией, с множеством патентов на новые и важные технологии.


Исходник: Blu-Ray Remux 1080p
Видео: 1918x1080 (16:9), 5650-7087 Кбит/сек, HEVC (Main10@L.4.1@High)
Аудио1: AC3, 2 ch, 192 Kbps - РусскийРусский, DUB (TV3)
Аудио2: AC3, 6 ch, 448 Kbps - РусскийРусский, MVO (LostFilm)
Аудио3: AC3, 6 ch, 640 Kbps - EnglishEnglish, Original
Субтитры: Русские форсированные (ASS), English full (ASS, SRT)

Как за пару секунд удалить ненужные аудиодорожки и субтитры (Внимание! После удаления вы не сможете поддержать раздачу)

Лог (x265 info)
x265 [info]: frame I: 269, Avg QP:17.77 kb/s: 15166.52
x265 [info]: frame P: 11671, Avg QP:18.97 kb/s: 12225.21
x265 [info]: frame B: 51294, Avg QP:20.99 kb/s: 5077.22
x265 [info]: Weighted P-Frames: Y:5.0% UV:4.0%
x265 [info]: Weighted B-Frames: Y:5.5% UV:4.2%
x265 [info]: consecutive B-frames: 2.2% 3.2% 3.7% 25.0% 6.9% 50.0% 2.6% 4.9% 0.3% 0.3% 0.1% 0.2% 0.1% 0.1% 0.2% 0.2%
x265 [info]: encoded 63234 frames in 101969.15s (0.62 fps), 6439.43 kb/s, Avg QP:20.61
Медиаинфо
Общее
Уникальный идентификатор : 69212606870997475223507771133284978777 (0x3411DCFB57E7956A7244E856A2A21059)
Полное имя : \\.\Грань.Fringe.S02.BDRip-HEVC.1080p\Fringe.S02E04.Momentum.Deferred.mkv
Формат : Matroska
Версия формата : Version 4
Размер файла : 2,37 Гбайт
Продолжительность : 43 м. 58 с.
Общий поток : 7 721 Кбит/сек
Дата кодирования : UTC 2021-09-26 18:43:20
Программа кодирования : mkvmerge v61.0.0 ('So') 64-bit
Библиотека кодирования : libebml v1.4.2 + libmatroska v1.6.4
Attachments : Cosmos_Light.ttf / Gals .ttf

Видео
Идентификатор : 1
Формат : HEVC
Формат/Информация : High Efficiency Video Coding
Профиль формата : Main 10@L4.1@High
Идентификатор кодека : V_MPEGH/ISO/HEVC
Продолжительность : 43 м. 57 с.
Битрейт : 6 440 Кбит/сек
Ширина : 1 918 пикселей
Высота : 1 080 пикселей
Соотношение сторон : 16:9
Режим частоты кадров : Постоянный
Частота кадров : 23,976 (24000/1001) кадра/сек
Цветовое пространство : YUV
Субдискретизация насыщенности : 4:2:0
Битовая глубина : 10 бит
Бит/(Пиксели*Кадры) : 0.130
Размер потока : 1,98 Гбайт (83%)
Заголовок : Fringe S02E04 / Rip by OldGamer
Библиотека кодирования : x265 3.5+9-bf91444e0:[Windows][GCC 10.2.1][64 bit] 10bit
Настройки программы : cpuid=1111039 / frame-threads=3 / numa-pools=12 / wpp / no-pmode / no-pme / no-psnr / no-ssim / log-level=2 / input-csp=1 / input-res=1918x1080 / interlace=0 / total-frames=63234 / level-idc=41 / high-tier=1 / uhd-bd=0 / ref=5 / no-allow-non-conformance / no-repeat-headers / annexb / no-aud / no-eob / no-eos / no-hrd / info / hash=0 / no-temporal-layers / open-gop / min-keyint=23 / keyint=240 / gop-lookahead=0 / bframes=15 / b-adapt=2 / b-pyramid / bframe-bias=0 / rc-lookahead=40 / lookahead-slices=0 / scenecut=40 / hist-scenecut=0 / radl=0 / no-splice / no-intra-refresh / ctu=32 / min-cu-size=8 / rect / amp / max-tu-size=32 / tu-inter-depth=4 / tu-intra-depth=4 / limit-tu=1 / rdoq-level=2 / dynamic-rd=0.00 / no-ssim-rd / signhide / no-tskip / nr-intra=0 / nr-inter=0 / no-constrained-intra / no-strong-intra-smoothing / max-merge=5 / limit-refs=3 / no-limit-modes / me=3 / subme=7 / merange=57 / temporal-mvp / no-frame-dup / no-hme / weightp / weightb / no-analyze-src-pics / deblock=-2:-2 / no-sao / no-sao-non-deblock / rd=6 / selective-sao=0 / no-early-skip / rskip / no-fast-intra / no-tskip-fast / no-cu-lossless / b-intra / no-splitrd-skip / rdpenalty=0 / psy-rd=2.00 / psy-rdoq=1.00 / no-rd-refine / no-lossless / cbqpoffs=0 / crqpoffs=0 / rc=crf / crf=21.0 / qcomp=0.60 / qpstep=4 / stats-write=0 / stats-read=0 / vbv-maxrate=50000 / vbv-bufsize=50000 / vbv-init=0.9 / min-vbv-fullness=50.0 / max-vbv-fullness=80.0 / crf-max=0.0 / crf-min=0.0 / ipratio=1.40 / pbratio=1.30 / aq-mode=1 / aq-strength=1.00 / no-cutree / zone-count=1 / zones: / start-frame=62223 / end-frame=63234 / qp=36 / no-strict-cbr / qg-size=32 / no-rc-grain / qpmax=69 / qpmin=0 / no-const-vbv / sar=1 / overscan=0 / videoformat=5 / range=0 / colorprim=2 / transfer=2 / colormatrix=2 / chromaloc=0 / display-window=0 / cll=0,0 / min-luma=0 / max-luma=1023 / log2-max-poc-lsb=8 / vui-timing-info / vui-hrd-info / slices=1 / no-opt-qp-pps / no-opt-ref-list-length-pps / no-multi-pass-opt-rps / scenecut-bias=0.00 / hist-threshold=0.03 / no-opt-cu-delta-qp / no-aq-motion / no-hdr10 / no-hdr10-opt / no-dhdr10-opt / no-idr-recovery-sei / analysis-reuse-level=0 / analysis-save-reuse-level=0 / analysis-load-reuse-level=0 / scale-factor=0 / refine-intra=0 / refine-inter=0 / refine-mv=1 / refine-ctu-distortion=0 / no-limit-sao / ctu-info=0 / no-lowpass-dct / refine-analysis-type=0 / copy-pic=1 / max-ausize-factor=1.0 / no-dynamic-refine / no-single-sei / no-hevc-aq / no-svt / no-field / qp-adaptation-range=1.00 / scenecut-aware-qp=0conformance-window-offsets / right=0 / bottom=0 / decoder-max-rate=0 / no-vbv-live-multi-pass
Язык : English
Default : Да
Forced : Нет

Аудио #1
Идентификатор : 2
Формат : AC-3
Формат/Информация : Audio Coding 3
Коммерческое название : Dolby Digital
Идентификатор кодека : A_AC3
Продолжительность : 43 м. 55 с.
Вид битрейта : Постоянный
Битрейт : 192 Кбит/сек
Каналы : 2 канала
Channel layout : L R
Частота : 48,0 КГц
Частота кадров : 31,250 кадров/сек (1536 SPF)
Метод сжатия : С потерями
Размер потока : 60,3 Мбайт (2%)
Заголовок : DUB (TV3)
Язык : Russian
Service kind : Complete Main
Default : Да
Forced : Нет

Аудио #2
Идентификатор : 3
Формат : AC-3
Формат/Информация : Audio Coding 3
Коммерческое название : Dolby Digital
Идентификатор кодека : A_AC3
Продолжительность : 43 м. 58 с.
Вид битрейта : Постоянный
Битрейт : 448 Кбит/сек
Каналы : 6 каналов
Channel layout : L R C LFE Ls Rs
Частота : 48,0 КГц
Частота кадров : 31,250 кадров/сек (1536 SPF)
Метод сжатия : С потерями
Размер потока : 141 Мбайт (6%)
Заголовок : MVO (LostFilm)
Язык : Russian
Service kind : Complete Main
Default : Нет
Forced : Нет

Аудио #3
Идентификатор : 4
Формат : AC-3
Формат/Информация : Audio Coding 3
Коммерческое название : Dolby Digital
Идентификатор кодека : A_AC3
Продолжительность : 43 м. 58 с.
Вид битрейта : Постоянный
Битрейт : 640 Кбит/сек
Каналы : 6 каналов
Channel layout : L R C LFE Ls Rs
Частота : 48,0 КГц
Частота кадров : 31,250 кадров/сек (1536 SPF)
Метод сжатия : С потерями
Размер потока : 201 Мбайт (8%)
Язык : English
Service kind : Complete Main
Default : Нет
Forced : Нет

Текст #1
Идентификатор : 5
Формат : ASS
Идентификатор кодека : S_TEXT/ASS
Идентификатор кодека/Информация : Advanced Sub Station Alpha
Продолжительность : 36 м. 15 с.
Битрейт : 3 бит/сек
Count of elements : 12
Метод сжатия : Без потерь
Размер потока : 897 байт (0%)
Заголовок : Forced
Язык : Russian
Default : Да
Forced : Нет

Текст #2
Идентификатор : 6
Формат : ASS
Идентификатор кодека : S_TEXT/ASS
Идентификатор кодека/Информация : Advanced Sub Station Alpha
Продолжительность : 43 м. 51 с.
Битрейт : 129 бит/сек
Count of elements : 618
Метод сжатия : Без потерь
Размер потока : 41,7 Кбайт (0%)
Заголовок : Styled
Язык : English
Default : Нет
Forced : Нет

Текст #3
Идентификатор : 7
Формат : UTF-8
Идентификатор кодека : S_TEXT/UTF8
Идентификатор кодека/Информация : UTF-8 Plain Text
Продолжительность : 43 м. 51 с.
Битрейт : 71 бит/сек
Count of elements : 618
Размер потока : 23,1 Кбайт (0%)
Заголовок : Unstyled
Язык : English
Default : Нет
Forced : Нет

Меню
00:00:00.000 : 00:00:00.000
00:00:47.464 : 00:00:47.464
00:03:11.233 : 00:03:11.233
00:09:11.968 : 00:09:11.968
00:14:46.094 : 00:14:46.094
00:24:38.102 : 00:24:38.102
00:32:26.611 : 00:32:26.611
00:37:56.483 : 00:37:56.483
00:43:18.805 : 00:43:18.805
Загрузка...Cкриншот1 Грань / Fringe (2010-2011) [2 сезон] BDRip 1080p [HEVC] 10 bit от OldGamer (RG RIPS CLUB)Загрузка...Cкриншот2 Грань / Fringe (2010-2011) [2 сезон] BDRip 1080p [HEVC] 10 bit от OldGamer (RG RIPS CLUB)Загрузка...Cкриншот3 Грань / Fringe (2010-2011) [2 сезон] BDRip 1080p [HEVC] 10 bit от OldGamer (RG RIPS CLUB)Загрузка...Cкриншот4 Грань / Fringe (2010-2011) [2 сезон] BDRip 1080p [HEVC] 10 bit от OldGamer (RG RIPS CLUB)
Релиз-группа: RIPS CLUB
Сэмпл Торрент🧲 Магнет

Рейтинги КП и IMDB, кнопки "Позвать в чате" и "Спасибо", а также мультитрекерная статистика доступны только зарегистрированным/авторизованным пользователям!

Файлы: 23
  • Грань.Fringe.S02.BDRip-HEVC.1080p
    • Fringe.S02E01.A.New.Day.in.the.Old.Town.mkv   2.42 ГБ
    • Fringe.S02E02.Night.Of.Desirable.Objects.mkv   2.21 ГБ
    • Fringe.S02E03.Fracture.mkv   2.32 ГБ
    • Fringe.S02E04.Momentum.Deferred.mkv   2.37 ГБ
    • Fringe.S02E05.Dream.Logic.mkv   2.18 ГБ
    • Fringe.S02E06.Earthling.mkv   2.33 ГБ
    • Fringe.S02E07.Of.Human.Action.mkv   2.32 ГБ
    • Fringe.S02E08.August.mkv   2.19 ГБ
    • Fringe.S02E09.Snakehead.mkv   2.2 ГБ
    • Fringe.S02E10.Grey.Matters.mkv   2.24 ГБ
    • Fringe.S02E11.Unearthed.mkv   2.57 ГБ
    • Fringe.S02E12.Johari.Window.mkv   2.15 ГБ
    • Fringe.S02E13.What.Lies.Below.mkv   2.5 ГБ
    • Fringe.S02E14.The.Bishop.Revival.mkv   2.22 ГБ
    • Fringe.S02E15.Jacksonville.mkv   2.46 ГБ
    • Fringe.S02E16.Peter.mkv   2.28 ГБ
    • Fringe.S02E17.Olivia.In.the.Lab.With.the.Revolver.mkv   2.18 ГБ
    • Fringe.S02E18.White.Tulip.mkv   2.18 ГБ
    • Fringe.S02E19.The.Man.From.The.Other.Side.mkv   2.38 ГБ
    • Fringe.S02E20.Brown.Betty.mkv   2.24 ГБ
    • Fringe.S02E21.Northwest.Passage.mkv   2.24 ГБ
    • Fringe.S02E22.Over.There.Part.1.mkv   2.13 ГБ
    • Fringe.S02E23.Over.There.Part.2.mkv   2.15 ГБ
Поблагодарили: 8
Brooklyn, gelOru, Kiran, makss333, Mr. Fox, normalllhuman, StarLord, TaurohtaR
OldGamer
42601 (23)  52.47 ГБ

Добавление нового комментария

Добавление комментариев доступно только зарегистрированным/авторизованным пользователям.
Аватар OldGamer
  OldGamer  
Egor писал(а):
Плохо,что без полных русских субтитров,мог бы и прицепить,за качество первого сезона-благодарю...
любой каприз за ваши деньги
Аватар не указан
  Egor  
Плохо,что без полных русских субтитров,мог бы и прицепить,за качество первого сезона-благодарю...
Аватар OldGamer
  OldGamer  
3 сезон не раньше февраля 2022
Аватар Mr. Fox
  Mr. Fox  
Класс!!! 👍