💬 Мини-чат

ADVOKAT6977carlsson77, скачайте заново торрент файл!разадаю!
77carlsson77Раздайте, пожалуйста, Бездна / The Deep (1977) BDRip 1080p [HEVC] 10 bit от ADVOKAT69
77carlsson77Раздайте, пожалуйста, Бременские музыканты (1969-1973) BDRip 1080p [HEVC] 10 bit от ADVOKAT69
ADVOKAT69Маугли, Джентльмены удачи раздаю!
ADVOKAT69все хорошо!
FijiMAXРаздайте, пожалуйста, Знакомство с родителями: Трилогия / Meet the Parents: Trilogy (2000-2010) BDRip 1080p [HEVC] 10 bit от OldGamer (RG RIPS CLUB)
NiflungРаздайте, пожалуйста, Багровый пик / Crimson Peak (2015) BDRip 1080p [HEVC] 10 bit от -Star-Lord- (RG RIPS CLUB)
NiflungРаздайте, пожалуйста, Маугли (1967-1971) BDRip 1080p [HEVC] 10 bit от ADVOKAT69
NiflungРаздайте, пожалуйста, Волшебник страны Оз / The Wizard of Oz (1939) BDRip 1080p [HEVC] 10 bit от Мичман
77carlsson77Раздайте, пожалуйста, Замёрзшие / Frozen (2010) BDRip 1080p [HEVC] 10 bit от M@kSIMus
StarLordHANNIBAL, привет ✌
joker63HANNIBAL, Привет))
HANNIBALвсем здрасти
Mr. FoxBeebo, не планировал, но подумаю
BeeboMr.Fox, стоит ли ждать рип Чужие серди нас?
StarLordOldGamer, это классика жанра 😄
OldGamerух ты, в anime.club попаль...
  • Admin
  • Spartanec1308
  • garant3v
Отправка сообщений доступна только зарегистрированным/авторизованным пользователям.
Онлайн (за 10 мин.): 3

Жизнь за гранью / After.Life (2009) BDRip 1080p [HEVC] 10 bit от Spartanec1308

HEVC
10 bit
Обложка Жизнь за гранью / After.Life (2009) BDRip 1080p [HEVC] 10 bit от Spartanec1308 Год: 2009
Страна: США
Студия: Harbor Light Entertainment, Lleuju Productions, Plum Pictures
Жанр: Триллер, Драма, Детектив
Продолжительность: 01:42:53

Режиссер: Агнешка Войтович-Восло
В ролях: Кристина Риччи, Лиам Нисон, Джастин Лонг, Чандлер Кентербери, Джош Чарльз, Селия Уэстон, Шулер Хенсли, Лорел Брайс, Лори Коул, Майкл Джеррард...

Описание: Поссорившись со своим женихом Полом Колманом, Анна Тэйлор попадает в автомобильную аварию и приходит в себя в… похоронном бюро. Элиот Дикон уверяет Анну, что она мертва и что ему необходимо подготовить тело к церемонии погребения. Элиот поясняет, что обладает редким даром — способностью общаться с недавно умершими людьми, чья душа ожидает отхода в иной мир. Однако мисс Тэйлор не верит ему, полагая, что по-прежнему жива.


Видео: 1920x800, 10,4 Мбит/сек, 0.282 бит/(Пиксели*Кадры), 23,976 кадр/сек, HEVC (Main10@L.4.1@High) 10 бит
Аудио1: AC3, 6 ch, 384 Kbps - РусскийРусский, Дублированный (Лицензия)
Аудио2: AC3, 6 ch, 640 Kbps - РусскийРусский, Одноголосый (Ю.Сербин)
Аудио3: AC3, 6 ch, 640 Kbps - АнглийскийАнглийский, Оригинал
Субтитры: Русские , английские

Как за пару секунд удалить ненужные аудиодорожки и субтитры (Внимание! После удаления вы не сможете поддержать раздачу)

Лог (x265 info)
x265 [info]: frame I: 1501, Avg QP:17.47 kb/s: 27994.27
x265 [info]: frame P: 22533, Avg QP:18.80 kb/s: 18252.91
x265 [info]: frame B: 123978, Avg QP:21.24 kb/s: 8730.92
x265 [info]: Weighted P-Frames: Y:5.0% UV:3.7%
x265 [info]: Weighted B-Frames: Y:4.7% UV:3.2%
x265 [info]: consecutive B-frames: 10.0% 2.0% 3.0% 13.7% 7.4% 26.2% 9.0% 9.9% 6.4% 3.6% 3.1% 3.0% 1.0% 0.5% 1.2%

encoded 148012 frames in 184819.81s (0.80 fps), 10375.87 kb/s, Avg QP:20.83
Медиаинфо
Формат : Matroska
Версия формата : Version 4
Размер файла : 8,66 Гбайт
Продолжительность : 1 ч. 42 м.
Общий поток : 12,0 Мбит/сек
Название фильма : by Spartanec
Дата кодирования : UTC 2021-10-17 08:58:18
Программа кодирования : mkvmerge v7.0.0 ('Where We Going') 64bit built on Jun 9 2014 15:16:27
Библиотека кодирования : libebml v1.3.0 + libmatroska v1.4.1
Обложка : Yes
Attachments : cover.jpg

Видео
Идентификатор : 1
Формат : HEVC
Формат/Информация : High Efficiency Video Coding
Профиль формата : Main 10@L4.1@High
Идентификатор кодека : V_MPEGH/ISO/HEVC
Продолжительность : 1 ч. 42 м.
Битрейт : 10,4 Мбит/сек
Ширина : 1920 пикселей
Высота : 800 пикселей
Соотношение сторон : 2,40:1
Режим частоты кадров : Постоянный
Частота кадров : 23,976 (23976/1000) кадра/сек
Частота кадров в оригинале : 23,976 (24000/1001) кадра/сек
Цветовое пространство : YUV
Субдискретизация насыщенности : 4:2:0
Битовая глубина : 10 бит
Бит/(Пиксели*Кадры) : 0.282
Размер потока : 7,46 Гбайт (86%)
Заголовок : Spartanec
Библиотека кодирования : x265 3.5+10-82786fccc:[Windows][GCC 11.1.0][64 bit] 10bit
Настройки программы : cpuid=1111039 / frame-threads=4 / numa-pools=16 / wpp / no-pmode / no-pme / no-psnr / no-ssim / log-level=2 / input-csp=1 / input-res=1920x800 / interlace=0 / total-frames=148012 / level-idc=41 / high-tier=1 / uhd-bd=0 / ref=5 / no-allow-non-conformance / no-repeat-headers / annexb / no-aud / no-eob / no-eos / no-hrd / info / hash=0 / no-temporal-layers / open-gop / min-keyint=23 / keyint=240 / gop-lookahead=0 / bframes=14 / b-adapt=2 / b-pyramid / bframe-bias=0 / rc-lookahead=60 / lookahead-slices=1 / scenecut=40 / hist-scenecut=0 / radl=0 / no-splice / no-intra-refresh / ctu=32 / min-cu-size=8 / rect / amp / max-tu-size=32 / tu-inter-depth=4 / tu-intra-depth=4 / limit-tu=1 / rdoq-level=1 / dynamic-rd=0.00 / no-ssim-rd / signhide / no-tskip / nr-intra=0 / nr-inter=0 / no-constrained-intra / no-strong-intra-smoothing / max-merge=5 / limit-refs=0 / no-limit-modes / me=3 / subme=7 / merange=57 / temporal-mvp / no-frame-dup / no-hme / weightp / weightb / no-analyze-src-pics / deblock=-2:-2 / no-sao / no-sao-non-deblock / rd=6 / selective-sao=0 / no-early-skip / no-rskip / no-fast-intra / no-tskip-fast / no-cu-lossless / b-intra / no-splitrd-skip / rdpenalty=0 / psy-rd=2.00 / psy-rdoq=1.00 / no-rd-refine / no-lossless / cbqpoffs=0 / crqpoffs=0 / rc=crf / crf=20.3 / qcomp=0.70 / qpstep=4 / stats-write=0 / stats-read=0 / vbv-maxrate=50000 / vbv-bufsize=50000 / vbv-init=0.9 / min-vbv-fullness=50.0 / max-vbv-fullness=80.0 / crf-max=0.0 / crf-min=0.0 / ipratio=1.40 / pbratio=1.30 / aq-mode=2 / aq-strength=1.00 / no-cutree / zone-count=0 / no-strict-cbr / qg-size=32 / no-rc-grain / qpmax=69 / qpmin=0 / no-const-vbv / sar=1 / overscan=0 / videoformat=5 / range=0 / colorprim=1 / transfer=1 / colormatrix=1 / chromaloc=0 / display-window=0 / cll=0,0 / min-luma=0 / max-luma=1023 / log2-max-poc-lsb=8 / vui-timing-info / vui-hrd-info / slices=1 / no-opt-qp-pps / no-opt-ref-list-length-pps / no-multi-pass-opt-rps / scenecut-bias=0.05 / hist-threshold=0.03 / no-opt-cu-delta-qp / no-aq-motion / no-hdr10 / no-hdr10-opt / no-dhdr10-opt / no-idr-recovery-sei / analysis-reuse-level=0 / analysis-save-reuse-level=0 / analysis-load-reuse-level=0 / scale-factor=0 / refine-intra=0 / refine-inter=0 / refine-mv=0 / refine-ctu-distortion=0 / no-limit-sao / ctu-info=0 / no-lowpass-dct / refine-analysis-type=0 / copy-pic=1 / max-ausize-factor=1.0 / no-dynamic-refine / no-single-sei / no-hevc-aq / no-svt / no-field / qp-adaptation-range=1.00 / scenecut-aware-qp=0conformance-window-offsets / right=0 / bottom=0 / decoder-max-rate=0 / no-vbv-live-multi-pass
Default : Да
Forced : Нет
Цветовой диапазон : Limited
Основные цвета : BT.709
Характеристики трансфера : BT.709
Коэффициенты матрицы : BT.709

Аудио #1
Идентификатор : 2
Формат : AC-3
Формат/Информация : Audio Coding 3
Коммерческое название : Dolby Digital
Идентификатор кодека : A_AC3
Продолжительность : 1 ч. 42 м.
Вид битрейта : Постоянный
Битрейт : 384 Кбит/сек
Каналы : 6 каналов
ChannelLayout : L R C LFE Ls Rs
Частота : 48,0 КГц
Частота кадров : 31,250 кадров/сек (1536 SPF)
Битовая глубина : 16 бит
Метод сжатия : С потерями
Размер потока : 282 Мбайт (3%)
Заголовок : Дубляж
ServiceKind/ : Complete Main
Default : Да
Forced : Нет

Аудио #2
Идентификатор : 3
Формат : AC-3
Формат/Информация : Audio Coding 3
Коммерческое название : Dolby Digital
Идентификатор кодека : A_AC3
Продолжительность : 1 ч. 42 м.
Вид битрейта : Постоянный
Битрейт : 640 Кбит/сек
Каналы : 6 каналов
ChannelLayout : L R C LFE Ls Rs
Частота : 48,0 КГц
Частота кадров : 31,250 кадров/сек (1536 SPF)
Битовая глубина : 16 бит
Метод сжатия : С потерями
Размер потока : 471 Мбайт (5%)
Заголовок : AVO Сербин
ServiceKind/ : Complete Main
Default : Нет
Forced : Нет

Аудио #3
Идентификатор : 4
Формат : AC-3
Формат/Информация : Audio Coding 3
Коммерческое название : Dolby Digital
Идентификатор кодека : A_AC3
Продолжительность : 1 ч. 42 м.
Вид битрейта : Постоянный
Битрейт : 640 Кбит/сек
Каналы : 6 каналов
ChannelLayout : L R C LFE Ls Rs
Частота : 48,0 КГц
Частота кадров : 31,250 кадров/сек (1536 SPF)
Битовая глубина : 16 бит
Метод сжатия : С потерями
Размер потока : 471 Мбайт (5%)
Заголовок : Оригинал
ServiceKind/ : Complete Main
Default : Нет
Forced : Нет

Текст #1
Идентификатор : 5
Формат : UTF-8
Идентификатор кодека : S_TEXT/UTF8
Идентификатор кодека/Информация : UTF-8 Plain Text
Продолжительность : 1 ч. 40 м.
Битрейт : 58 бит/сек
ElementCount : 968
Размер потока : 43,3 Кбайт (0%)
Default : Да
Forced : Нет

Текст #2
Идентификатор : 6
Формат : UTF-8
Идентификатор кодека : S_TEXT/UTF8
Идентификатор кодека/Информация : UTF-8 Plain Text
Продолжительность : 1 ч. 41 м.
Битрейт : 37 бит/сек
ElementCount : 1078
Размер потока : 28,1 Кбайт (0%)
Default : Нет
Forced : Нет

Меню
00:00:00.000 : :1. Somewhere Else
00:03:59.114 : :2. Final Respects
00:10:38.805 : :3. Misunderstanding
00:14:13.978 : :4. Massive Internal Trauma
00:20:48.038 : :5. Devastating News
00:30:44.634 : :6. "The Dead Can't Harm the Dead"
00:41:26.901 : :7. Feels More Like Hell
00:47:25.342 : :8. "You Will Never Live Again"
00:59:30.859 : :9. Ghostly Vision
01:05:01.231 : :10. Nothing to Say
01:11:23.362 : :11. "You Can't Help Her Anymore"
01:17:07.456 : :12. Too Scared to Love
01:24:21.265 : :13. The Funeral
01:29:47.674 : :14. Premature Burial
01:34:39.382 : :15. The Night Anna Came Out of the Grave
01:37:14.787 : :16. End Credits
Загрузка...Cкриншот1 Жизнь за гранью / After.Life (2009) BDRip 1080p [HEVC] 10 bit от Spartanec1308Загрузка...Cкриншот2 Жизнь за гранью / After.Life (2009) BDRip 1080p [HEVC] 10 bit от Spartanec1308Загрузка...Cкриншот3 Жизнь за гранью / After.Life (2009) BDRip 1080p [HEVC] 10 bit от Spartanec1308Загрузка...Cкриншот4 Жизнь за гранью / After.Life (2009) BDRip 1080p [HEVC] 10 bit от Spartanec1308
Сэмпл Торрент🧲 Магнет

Рейтинги КП и IMDB, кнопки "Позвать в чате" и "Спасибо", а также мультитрекерная статистика доступны только зарегистрированным/авторизованным пользователям!

Файлы: 1
  • Жизнь за гранью (2009) BDRip 1080p [HEVC] 10bit by Spartanec.mkv   8.66 ГБ
Поблагодарили: 9
and50, Brooklyn, Chestnoc, makss333, MIGRANT, Nuclear70, StarLord, Tastod, TaurohtaR
Spartanec1308
034208.66 ГБ

Добавление нового комментария

Добавление комментариев доступно только зарегистрированным/авторизованным пользователям.