💬 Мини-чат

77carlsson77Раздайте, пожалуйста, Бездна / The Deep (1977) BDRip 1080p [HEVC] 10 bit от ADVOKAT69
77carlsson77Раздайте, пожалуйста, Бременские музыканты (1969-1973) BDRip 1080p [HEVC] 10 bit от ADVOKAT69
ADVOKAT69Маугли, Джентльмены удачи раздаю!
ADVOKAT69все хорошо!
FijiMAXРаздайте, пожалуйста, Знакомство с родителями: Трилогия / Meet the Parents: Trilogy (2000-2010) BDRip 1080p [HEVC] 10 bit от OldGamer (RG RIPS CLUB)
NiflungРаздайте, пожалуйста, Багровый пик / Crimson Peak (2015) BDRip 1080p [HEVC] 10 bit от -Star-Lord- (RG RIPS CLUB)
NiflungРаздайте, пожалуйста, Маугли (1967-1971) BDRip 1080p [HEVC] 10 bit от ADVOKAT69
NiflungРаздайте, пожалуйста, Волшебник страны Оз / The Wizard of Oz (1939) BDRip 1080p [HEVC] 10 bit от Мичман
77carlsson77Раздайте, пожалуйста, Замёрзшие / Frozen (2010) BDRip 1080p [HEVC] 10 bit от M@kSIMus
StarLordHANNIBAL, привет ✌
joker63HANNIBAL, Привет))
HANNIBALвсем здрасти
Mr. FoxBeebo, не планировал, но подумаю
BeeboMr.Fox, стоит ли ждать рип Чужие серди нас?
StarLordOldGamer, это классика жанра 😄
OldGamerух ты, в anime.club попаль...
  • Admin
  • 77carlsson77
  • abtr
  • mvazquez
  • pmihail99
Отправка сообщений доступна только зарегистрированным/авторизованным пользователям.
Онлайн (за 10 мин.): 5

Невезучие / Tais-Toi! (2003) BDRip 1080p [HEVC] 10 bit от Spartanec1308

HEVC
10 bit
Обложка Невезучие / Tais-Toi! (2003) BDRip 1080p [HEVC] 10 bit от Spartanec1308 Год: 2003
Страна: Франция, Италия
Студия: Canal+ [fr], DD Productions, EFVE, Filmauro S.r.l., Sofica Sofinergie 5
Жанр: Комедия, Криминал
Продолжительность: 01:27:07

Режиссер: Франсис Вебер
В ролях: Жерар Депардьё, Жан Рено, Ришар Берри, Андре Дюссолье, Жан-Пьер Мало, Жан-Мишель Нуари, Лоран Гамелон, Орельен Рекуан, Венсан Москато, Тикки Ольгадо, Мишель Омон, Леонор Варела, Люк Брабан, Эдриан Сейнт-Жоре, Жоан Либеро, Гай Деламарш, Ребекка Поток, Стефан Буше, Людовик Бертийо, Тьерри Ашанти, Доминик Парент, Жерар Рено, Петронилла Мосс, Гийом де Тонкедек, Жан Делл, Стефан Жако, Филипп Бриго, Тьерри Ненец, Франсуа Жамард, Жюльен Кафаро, Валентен Мерле, Армель Дойч, Леон Клеменс, Люк Бернар, Патрик Медиони

Описание: Перед заключением Руби успевает спрятать награбленные деньги, украденные у мафии. В тюрьме он знакомится с верзилой Квентином, и теперь они вместе думают, как выбраться на волю и вытащить деньги из тайника. К тому же Руби мечтает отомстить своим бывшим компаньонам за смерть своей возлюбленной. Но ему всё время не везёт.


Видео: 1920x808, 8323 Кбит/сек, 0.282 бит/(Пиксели*Кадры), 23,976 кадр/сек, HEVC (Main10@L.4.1@High) 10 бит
Аудио1: AC3, 6 ch, 448 Kbps - РусскийРусский, Дублированный (Лицензия)
Аудио2: AC3, 6 ch, 640 Kbps - ФранцузскийФранцузский, Оригинал
Субтитры: Английские

Как за пару секунд удалить ненужные аудиодорожки и субтитры (Внимание! После удаления вы не сможете поддержать раздачу)

Лог (x265 info)
x265 [info]: frame I: 1115, Avg QP:17.65 kb/s: 21691.58
x265 [info]: frame P: 23002, Avg QP:18.96 kb/s: 14034.85
x265 [info]: frame B: 101211, Avg QP:20.98 kb/s: 6876.77
x265 [info]: Weighted P-Frames: Y:9.1% UV:6.0%
x265 [info]: Weighted B-Frames: Y:7.7% UV:3.7%
x265 [info]: consecutive B-frames: 6.2% 2.9% 4.3% 21.5% 8.7% 45.1% 3.9% 4.0% 0.8% 1.6% 0.2% 0.7% 0.1%

encoded 125328 frames in 150897.54s (0.83 fps), 8322.32 kb/s, Avg QP:20.58
Медиаинфо
Формат : Matroska
Версия формата : Version 4
Размер файла : 5,73 Гбайт
Продолжительность : 1 ч. 27 м.
Общий поток : 9413 Кбит/сек
Название фильма : by Spartanec
Дата кодирования : UTC 2021-10-22 15:06:50
Программа кодирования : mkvmerge v7.0.0 ('Where We Going') 64bit built on Jun 9 2014 15:16:27
Библиотека кодирования : libebml v1.3.0 + libmatroska v1.4.1
Обложка : Yes
Attachments : cover.jpg

Видео
Идентификатор : 1
Формат : HEVC
Формат/Информация : High Efficiency Video Coding
Профиль формата : Main 10@L4.1@High
Идентификатор кодека : V_MPEGH/ISO/HEVC
Продолжительность : 1 ч. 27 м.
Битрейт : 8323 Кбит/сек
Ширина : 1920 пикселей
Высота : 808 пикселей
Соотношение сторон : 2,40:1
Режим частоты кадров : Постоянный
Частота кадров : 23,976 (23976/1000) кадра/сек
Частота кадров в оригинале : 23,976 (24000/1001) кадра/сек
Цветовое пространство : YUV
Субдискретизация насыщенности : 4:2:0
Битовая глубина : 10 бит
Бит/(Пиксели*Кадры) : 0.224
Размер потока : 5,06 Гбайт (88%)
Заголовок : Spartanec
Библиотека кодирования : x265 3.5+10-82786fccc:[Windows][GCC 11.1.0][64 bit] 10bit
Настройки программы : cpuid=1111039 / frame-threads=4 / numa-pools=16 / wpp / no-pmode / no-pme / no-psnr / no-ssim / log-level=2 / input-csp=1 / input-res=1920x808 / interlace=0 / total-frames=125328 / level-idc=41 / high-tier=1 / uhd-bd=0 / ref=5 / no-allow-non-conformance / no-repeat-headers / annexb / no-aud / no-eob / no-eos / no-hrd / info / hash=0 / no-temporal-layers / open-gop / min-keyint=23 / keyint=240 / gop-lookahead=0 / bframes=12 / b-adapt=2 / b-pyramid / bframe-bias=0 / rc-lookahead=60 / lookahead-slices=1 / scenecut=40 / hist-scenecut=0 / radl=0 / no-splice / no-intra-refresh / ctu=32 / min-cu-size=8 / rect / amp / max-tu-size=32 / tu-inter-depth=4 / tu-intra-depth=4 / limit-tu=1 / rdoq-level=1 / dynamic-rd=0.00 / no-ssim-rd / signhide / no-tskip / nr-intra=0 / nr-inter=0 / no-constrained-intra / no-strong-intra-smoothing / max-merge=5 / limit-refs=0 / no-limit-modes / me=3 / subme=7 / merange=57 / temporal-mvp / no-frame-dup / no-hme / weightp / weightb / no-analyze-src-pics / deblock=-2:-2 / no-sao / no-sao-non-deblock / rd=6 / selective-sao=0 / no-early-skip / no-rskip / no-fast-intra / no-tskip-fast / no-cu-lossless / b-intra / no-splitrd-skip / rdpenalty=0 / psy-rd=2.00 / psy-rdoq=1.00 / no-rd-refine / no-lossless / cbqpoffs=0 / crqpoffs=0 / rc=crf / crf=20.0 / qcomp=0.70 / qpstep=4 / stats-write=0 / stats-read=0 / vbv-maxrate=50000 / vbv-bufsize=50000 / vbv-init=0.9 / min-vbv-fullness=50.0 / max-vbv-fullness=80.0 / crf-max=0.0 / crf-min=0.0 / ipratio=1.40 / pbratio=1.30 / aq-mode=2 / aq-strength=1.00 / no-cutree / zone-count=0 / no-strict-cbr / qg-size=32 / no-rc-grain / qpmax=69 / qpmin=0 / no-const-vbv / sar=1 / overscan=0 / videoformat=5 / range=0 / colorprim=1 / transfer=1 / colormatrix=1 / chromaloc=0 / display-window=0 / cll=0,0 / min-luma=0 / max-luma=1023 / log2-max-poc-lsb=8 / vui-timing-info / vui-hrd-info / slices=1 / no-opt-qp-pps / no-opt-ref-list-length-pps / no-multi-pass-opt-rps / scenecut-bias=0.05 / hist-threshold=0.03 / no-opt-cu-delta-qp / no-aq-motion / no-hdr10 / no-hdr10-opt / no-dhdr10-opt / no-idr-recovery-sei / analysis-reuse-level=0 / analysis-save-reuse-level=0 / analysis-load-reuse-level=0 / scale-factor=0 / refine-intra=0 / refine-inter=0 / refine-mv=0 / refine-ctu-distortion=0 / no-limit-sao / ctu-info=0 / no-lowpass-dct / refine-analysis-type=0 / copy-pic=1 / max-ausize-factor=1.0 / no-dynamic-refine / no-single-sei / no-hevc-aq / no-svt / no-field / qp-adaptation-range=1.00 / scenecut-aware-qp=0conformance-window-offsets / right=0 / bottom=0 / decoder-max-rate=0 / no-vbv-live-multi-pass
Default : Да
Forced : Нет
Цветовой диапазон : Limited
Основные цвета : BT.709
Характеристики трансфера : BT.709
Коэффициенты матрицы : BT.709

Аудио #1
Идентификатор : 2
Формат : AC-3
Формат/Информация : Audio Coding 3
Коммерческое название : Dolby Digital
Идентификатор кодека : A_AC3
Продолжительность : 1 ч. 27 м.
Вид битрейта : Постоянный
Битрейт : 448 Кбит/сек
Каналы : 6 каналов
ChannelLayout : L R C LFE Ls Rs
Частота : 48,0 КГц
Частота кадров : 31,250 кадров/сек (1536 SPF)
Битовая глубина : 16 бит
Метод сжатия : С потерями
Размер потока : 279 Мбайт (5%)
Заголовок : Дубляж
ServiceKind/ : Complete Main
Default : Да
Forced : Нет

Аудио #2
Идентификатор : 3
Формат : AC-3
Формат/Информация : Audio Coding 3
Коммерческое название : Dolby Digital
Идентификатор кодека : A_AC3
Продолжительность : 1 ч. 27 м.
Вид битрейта : Постоянный
Битрейт : 640 Кбит/сек
Каналы : 6 каналов
ChannelLayout : L R C LFE Ls Rs
Частота : 48,0 КГц
Частота кадров : 31,250 кадров/сек (1536 SPF)
Битовая глубина : 16 бит
Метод сжатия : С потерями
Размер потока : 399 Мбайт (7%)
Заголовок : Оригинал
ServiceKind/ : Complete Main
Default : Нет
Forced : Нет

Текст
Идентификатор : 4
Формат : UTF-8
Идентификатор кодека : S_TEXT/UTF8
Идентификатор кодека/Информация : UTF-8 Plain Text
Продолжительность : 1 ч. 22 м.
Битрейт : 58 бит/сек
ElementCount : 1242
Размер потока : 35,6 Кбайт (0%)
Default : Да
Forced : Нет
Загрузка...Cкриншот1 Невезучие / Tais-Toi! (2003) BDRip 1080p [HEVC] 10 bit от Spartanec1308Загрузка...Cкриншот2 Невезучие / Tais-Toi! (2003) BDRip 1080p [HEVC] 10 bit от Spartanec1308Загрузка...Cкриншот3 Невезучие / Tais-Toi! (2003) BDRip 1080p [HEVC] 10 bit от Spartanec1308Загрузка...Cкриншот4 Невезучие / Tais-Toi! (2003) BDRip 1080p [HEVC] 10 bit от Spartanec1308
Сэмпл Торрент🧲 Магнет

Рейтинги КП и IMDB, кнопки "Позвать в чате" и "Спасибо", а также мультитрекерная статистика доступны только зарегистрированным/авторизованным пользователям!

Файлы: 1
  • Невезучие (2003) BDRip 1080p [HEVC] 10bit by Spartanec.mkv   5.73 ГБ
Поблагодарили: 12
and50, Chestnoc, diesel0000, donadar, FFantasy, garant3v, IRIT, makss333, Nuclear70, OldGamer, TaurohtaR, Undervest
Spartanec1308
046405.73 ГБ

Добавление нового комментария

Добавление комментариев доступно только зарегистрированным/авторизованным пользователям.