💬 Мини-чат

Для тех, кому интересен процесс переделки сайта - https://rips.club/changelog.html (обновлен 20.04.2024)
  • AlexStallone
  • Un1kum
Отправка сообщений доступна только зарегистрированным/авторизованным пользователям.
Онлайн (за 10 мин.): 2

Район №9 / District 9 (2009) UHD-BDRip 1080p [HEVC] 10 bit [HDR] от Mr. Fox

HEVC
HDR
10 bit
Обложка Район №9 / District 9 (2009) UHD-BDRip 1080p [HEVC] 10 bit [HDR] от Mr. Fox Год: 2009
Страна: ЮАР, США, Новая Зеландия, Канада
Студия: Key Creatives, QED International, WingNut Films, Wintergreen Productions
Жанр: Фантастика, Триллер, Боевик, Драма
Продолжительность: 01:52:15

Режиссер: Нил Бломкамп
В ролях: Шарлто Копли, Джейсон Коуп, Натали Болтт, Сильвен Страйк, Элизабет Мкандави, Джон Самнер, Уильям Аллен Янг, Грег Мелвилл-Смит, Ник Блейк, Морена Буса Сесатса

Описание: Инопланетяне установили первый контакт с Землей. Люди были готовы ко всему — от враждебного вторжения до невероятного технологического прорыва. Ни того, ни другого не произошло. Пришельцы оказались беженцами со своей собственной планеты, и пока мировое сообщество решало, что с ними делать дальше, для них был организован временный лагерь в южноафриканском Районе №9. Через 20 лет обычному госслужащему поручается задание: вручить инопланетным гостям ордера на выселение.


Видео: 1920x1038, ~9356 Кбит/сек
Аудио1: AC3, 6 ch, 640 Kbps - РусскийРусский, Дублированный (Лицензия)
Аудио2: AC3, 6 ch, 640 Kbps - УкраинскийУкраинский, Дублированный (Лицензия)
Аудио3: AC3, 6 ch, 640 Kbps - АнглийскийАнглийский, Оригинал
Субтитры: русские (форсированные, полные), украинские (форсированные), английские (форсированные, полные)

Как за пару секунд удалить ненужные аудиодорожки и субтитры (Внимание! После удаления вы не сможете поддержать раздачу)

Лог (x265 info)
x265 [info]: frame I: Avg QP:17.21 kb/s
x265 [info]: frame P: Avg QP:18.58 kb/s
x265 [info]: frame B: Avg QP:20.97 kb/s
Медиаинфо
General
Unique ID : 310143017018231043205206811179838473470 (0xE9535F52729870E8FC4D6EFE64CE04FE)
Complete name : E:\Torrent\District 9 (2009).mkv
Format : Matroska
Format version : Version 4
File size : 8.84 GiB
Duration : 1 h 52 min
Overall bit rate : 11.3 Mb/s
Movie name : District 9 (2009)
Encoded date : UTC 2021-11-10 20:42:14
Writing application : mkvmerge v62.0.0 ('Apollo') 64-bit
Writing library : libebml v1.4.2 + libmatroska v1.6.4
Cover : Yes
Attachments : cover

Video
ID : 1
Format : HEVC
Format/Info : High Efficiency Video Coding
Format profile : Main 10@L4.1@High
HDR format : SMPTE ST 2086, HDR10 compatible
Codec ID : V_MPEGH/ISO/HEVC
Duration : 1 h 52 min
Bit rate : 9 356 kb/s
Width : 1 920 pixels
Height : 1 038 pixels
Display aspect ratio : 1.85:1
Frame rate mode : Constant
Frame rate : 23.976 (23976/1000) FPS
Original frame rate : 23.976 (24000/1001) FPS
Color space : YUV
Chroma subsampling : 4:2:0 (Type 2)
Bit depth : 10 bits
Bits/(Pixel*Frame) : 0.196
Stream size : 7.34 GiB (83%)
Writing library : x265 3.5+1-ce882936d:[Windows][MSVC 1928][64 bit] 10bit
Encoding settings : cpuid=1111039 / frame-threads=4 / numa-pools=16 / wpp / no-pmode / no-pme / no-psnr / no-ssim / log-level=2 / input-csp=1 / input-res=1920x1038 / interlace=0 / total-frames=161495 / level-idc=41 / high-tier=1 / uhd-bd=0 / ref=5 / no-allow-non-conformance / repeat-headers / annexb / no-aud / no-hrd / info / hash=0 / no-temporal-layers / open-gop / min-keyint=23 / keyint=240 / gop-lookahead=0 / bframes=12 / b-adapt=2 / b-pyramid / bframe-bias=0 / rc-lookahead=60 / lookahead-slices=4 / scenecut=40 / hist-scenecut=0 / radl=0 / no-splice / no-intra-refresh / ctu=32 / min-cu-size=8 / rect / amp / max-tu-size=32 / tu-inter-depth=4 / tu-intra-depth=4 / limit-tu=1 / rdoq-level=2 / dynamic-rd=0.00 / no-ssim-rd / signhide / no-tskip / nr-intra=0 / nr-inter=0 / no-constrained-intra / no-strong-intra-smoothing / max-merge=4 / limit-refs=2 / limit-modes / me=3 / subme=7 / merange=57 / temporal-mvp / no-frame-dup / no-hme / weightp / weightb / no-analyze-src-pics / deblock=-3:-3 / no-sao / no-sao-non-deblock / rd=6 / selective-sao=0 / no-early-skip / no-rskip / no-fast-intra / no-tskip-fast / no-cu-lossless / no-b-intra / no-splitrd-skip / rdpenalty=0 / psy-rd=2.00 / psy-rdoq=1.00 / no-rd-refine / no-lossless / cbqpoffs=0 / crqpoffs=0 / rc=crf / crf=19.0 / qcomp=0.65 / qpstep=4 / stats-write=0 / stats-read=0 / vbv-maxrate=50000 / vbv-bufsize=50000 / vbv-init=0.9 / min-vbv-fullness=50.0 / max-vbv-fullness=80.0 / crf-max=0.0 / crf-min=0.0 / ipratio=1.40 / pbratio=1.30 / aq-mode=1 / aq-strength=1.00 / no-cutree / zone-count=0 / no-strict-cbr / qg-size=32 / no-rc-grain / qpmax=69 / qpmin=0 / no-const-vbv / sar=1 / overscan=0 / videoformat=5 / range=0 / colorprim=9 / transfer=16 / colormatrix=9 / chromaloc=1 / chromaloc-top=2 / chromaloc-bottom=2 / display-window=0 / master-display=G(13250,34500)B(7500,3000)R(34000,16000)WP(15635,16450)L(40000000,50) / cll=2376,517 / min-luma=0 / max-luma=1023 / log2-max-poc-lsb=8 / vui-timing-info / vui-hrd-info / slices=1 / no-opt-qp-pps / no-opt-ref-list-length-pps / no-multi-pass-opt-rps / scenecut-bias=0.05 / hist-threshold=0.03 / no-opt-cu-delta-qp / no-aq-motion / hdr10 / hdr10-opt / no-dhdr10-opt / no-idr-recovery-sei / analysis-reuse-level=0 / analysis-save-reuse-level=0 / analysis-load-reuse-level=0 / scale-factor=0 / refine-intra=0 / refine-inter=0 / refine-mv=1 / refine-ctu-distortion=0 / no-limit-sao / ctu-info=0 / no-lowpass-dct / refine-analysis-type=0 / copy-pic=1 / max-ausize-factor=1.0 / no-dynamic-refine / no-single-sei / no-hevc-aq / no-svt / no-field / qp-adaptation-range=1.00 / scenecut-aware-qp=0conformance-window-offsets / right=0 / bottom=0 / decoder-max-rate=0 / no-vbv-live-multi-pass
Default : Yes
Forced : No
Color range : Limited
Color primaries : BT.2020
Transfer characteristics : PQ
Matrix coefficients : BT.2020 non-constant
Mastering display color primar : Display P3
Mastering display luminance : min: 0.0050 cd/m2, max: 4000 cd/m2
Maximum Content Light Level : 2376 cd/m2
Maximum Frame-Average Light Le : 517 cd/m2

Audio #1
ID : 2
Format : AC-3
Format/Info : Audio Coding 3
Commercial name : Dolby Digital
Codec ID : A_AC3
Duration : 1 h 52 min
Bit rate mode : Constant
Bit rate : 640 kb/s
Channel(s) : 6 channels
Channel layout : L R C LFE Ls Rs
Sampling rate : 48.0 kHz
Frame rate : 31.250 FPS (1536 SPF)
Compression mode : Lossy
Stream size : 514 MiB (6%)
Title : Дубляж (Лицензия)
Language : Russian
Service kind : Complete Main
Default : Yes
Forced : Yes

Audio #2
ID : 3
Format : AC-3
Format/Info : Audio Coding 3
Commercial name : Dolby Digital
Codec ID : A_AC3
Duration : 1 h 52 min
Bit rate mode : Constant
Bit rate : 640 kb/s
Channel(s) : 6 channels
Channel layout : L R C LFE Ls Rs
Sampling rate : 48.0 kHz
Frame rate : 31.250 FPS (1536 SPF)
Compression mode : Lossy
Stream size : 514 MiB (6%)
Title : Дубляж (Ліцензія)
Language : Ukrainian
Service kind : Complete Main
Default : No
Forced : No

Audio #3
ID : 4
Format : AC-3
Format/Info : Audio Coding 3
Commercial name : Dolby Digital
Codec ID : A_AC3
Duration : 1 h 52 min
Bit rate mode : Constant
Bit rate : 640 kb/s
Channel(s) : 6 channels
Channel layout : L R C LFE Ls Rs
Sampling rate : 48.0 kHz
Frame rate : 31.250 FPS (1536 SPF)
Compression mode : Lossy
Stream size : 514 MiB (6%)
Title : Original
Language : English
Service kind : Complete Main
Default : No
Forced : No

Text #1
ID : 5
Format : UTF-8
Codec ID : S_TEXT/UTF8
Codec ID/Info : UTF-8 Plain Text
Duration : 1 h 43 min
Bit rate : 16 b/s
Count of elements : 291
Stream size : 12.8 KiB (0%)
Title : Forced
Language : Russian
Default : Yes
Forced : Yes

Text #2
ID : 6
Format : UTF-8
Codec ID : S_TEXT/UTF8
Codec ID/Info : UTF-8 Plain Text
Duration : 1 h 43 min
Bit rate : 97 b/s
Count of elements : 1299
Stream size : 74.5 KiB (0%)
Title : Full
Language : Russian
Default : No
Forced : No

Text #3
ID : 7
Format : UTF-8
Codec ID : S_TEXT/UTF8
Codec ID/Info : UTF-8 Plain Text
Duration : 1 h 37 min
Bit rate : 14 b/s
Count of elements : 263
Stream size : 10.7 KiB (0%)
Title : Forced
Language : Ukrainian
Default : No
Forced : No

Text #4
ID : 8
Format : ASS
Codec ID : S_TEXT/ASS
Codec ID/Info : Advanced Sub Station Alpha
Duration : 1 h 43 min
Bit rate : 124 b/s
Count of elements : 1426
Compression mode : Lossless
Stream size : 94.9 KiB (0%)
Title : Forced
Language : English
Default : No
Forced : No

Text #5
ID : 9
Format : UTF-8
Codec ID : S_TEXT/UTF8
Codec ID/Info : UTF-8 Plain Text
Duration : 1 h 43 min
Bit rate : 74 b/s
Count of elements : 1427
Stream size : 56.8 KiB (0%)
Title : Full
Language : English
Default : No
Forced : No

Menu
00:00:00.000 : en:Глава 01
00:06:22.340 : en:Глава 02
00:13:25.346 : en:Глава 03
00:20:33.357 : en:Глава 04
00:27:08.752 : en:Глава 05
00:34:13.718 : en:Глава 06
00:41:57.932 : en:Глава 07
00:47:01.944 : en:Глава 08
00:54:07.953 : en:Глава 09
01:00:00.597 : en:Глава 10
01:08:25.977 : en:Глава 11
01:13:37.872 : en:Глава 12
01:21:02.191 : en:Глава 13
01:26:40.362 : en:Глава 14
01:33:41.366 : en:Глава 15
01:38:44.502 : en:Глава 16
01:46:11.782 : en:Глава 17
Загрузка...Cкриншот1 Район №9 / District 9 (2009) UHD-BDRip 1080p [HEVC] 10 bit [HDR] от Mr. FoxЗагрузка...Cкриншот2 Район №9 / District 9 (2009) UHD-BDRip 1080p [HEVC] 10 bit [HDR] от Mr. FoxЗагрузка...Cкриншот3 Район №9 / District 9 (2009) UHD-BDRip 1080p [HEVC] 10 bit [HDR] от Mr. FoxЗагрузка...Cкриншот4 Район №9 / District 9 (2009) UHD-BDRip 1080p [HEVC] 10 bit [HDR] от Mr. Fox
Сэмпл Торрент🧲 Магнет

Рейтинги КП и IMDB, кнопки "Позвать в чате" и "Спасибо", а также мультитрекерная статистика доступны только зарегистрированным/авторизованным пользователям!

Файлы: 1
  • District 9 (2009).mkv   8.84 ГБ
Поблагодарили: 11
alexyak, and50, AndresUA, Beebo, Kiran, makss333, MIGRANT, Nuclear70, SergKote, Vinnipyx, Херсонец
Admin
1216138.84 ГБ

Добавление нового комментария

Добавление комментариев доступно только зарегистрированным/авторизованным пользователям.
Аватар не указан
  dark_side  
Приветствую, если есть возможность, раздайте, дальше я перехвачу раздачу на несколько месяцев