💬 Мини-чат

Для тех, кому интересен процесс переделки сайта - https://rips.club/changelog.html (обновлен 22.02.2024)
OldGamerz1M4p9i0, и этот релиз скачался
Adminatomicheart, встал, но у Вас в профиле не видно. Вам бы перекачать.
OldGamerz1M4p9i0, Хан Соло скачался, но релиз, который был на руторе, там аудиодорожек меньше, чем тут, а видеоряд тот же. Попробуйте оттуда, я пока что сидирую.
OldGamerХан Соло откуда-то по чайной ложке в час скачивается, за сутки 50%, наблюдаем-с дальше
Adminatomicheart, завтра посмотрю, он у меня должен быть.
atomicheartРаздайте, пожалуйста, Тихое место: Дилогия / A Quiet Place: Dilogy (2018-2020) UHD-BDRip 1080p [HEVC] 10 bit [HDR] от Mr. Fox
z1M4p9i0Раздайте, пожалуйста, Хан Соло: Звёздные войны. Истории / Solo: A Star Wars Story (2018) [Локализованная версия] BDRip 1080p [HEVC] 10 bit от Cthulhu
z1M4p9i0Раздайте, пожалуйста, Терминатор: Тёмные судьбы / Terminator: Dark Fate (2019) [iTunes] UHD-BDRip 1440p [HEVC] 10 bit от HANNIBAL
OldGamerKeynol, честно говоря, пока что не планировалось, так как у нас есть отличный рип этого фильма
KeynolПриветствую! А можно сделать HEVC 10 bit на Трон Наследие Hybrid ? там файл на 31 гиг :-( на рутрекере. Хороший, но очень массивный..
  • Admin
  • OldGamer
  • bronsonw200
  • InSpector
  • pmihail99
  • Тренер по Йоге
Отправка сообщений доступна только зарегистрированным/авторизованным пользователям.
Онлайн (за 10 мин.): 6

Флетч жив / Fletch Lives (1989) BDRip 1080p [HEVC] 10 bit от OldGamer (RG RIPS CLUB)

HEVC
10 bit
Обложка Флетч жив / Fletch Lives (1989) BDRip 1080p [HEVC] 10 bit от OldGamer (RG RIPS CLUB) Год: 1989
Страна: США
Студия: Universal Pictures, Vincent Pictures
Жанр: Комедия, Криминал, Детектив
Продолжительность: 01:34:53

Режиссер: Майкл Ритчи
В ролях: Чеви Чейз, Хэл Холбрук, Джулианна Филлипс, Р. Ли Эрми, Ричард Либертини, Рэндал «Текс» Кобб, Кливон Литтл, Джордж Уайнер, Патриша Кэлембер, Джеффри Льюис

Описание: Журналист-хамелеон отправляется на запущенную плантацию, доставшуюся ему в наследство от родной тётушки. Флетч служит настоящим магнитом для всевозможных проблем. Сразу после прибытия новоиспеченного плантатора в новые владения начинаются неприятности. Сначала отдаёт богу душу безобидный юрист, затем живущий по соседству адвокат советует репортёру уехать из городка, а обаятельная дамочка, торгующая недвижимостью, делает Флетчу предложение, от которого невозможно отказаться! Проницательный Флетч начинает распутывать безумную головоломку местных интриг, прибегнув к помощи своего «убойного» арсенала потрясающих перевоплощений!


Исходник: Blu-Ray Remux 1080p
Видео: 1920x1040 (1.85:1), 7425 Кбит/сек, HEVC (Main10@L.4.1@High)
Аудио1: AC3, 2 ch, 192 Kbps - РусскийРусский, DUB (6-й канал)
Аудио2: AC3, 4 ch, 320 Kbps - РусскийРусский, DVO (НТВ)
Аудио3: AC3, 2 ch, 192 Kbps - РусскийРусский, DVO (Universal)
Аудио4: AC3, 2 ch, 192 Kbps - РусскийРусский, DVO (Премьер Видео Фильм)
Аудио5: AC3, 2 ch, 192 Kbps - РусскийРусский, AVO (Алексей Михалёв)
Аудио6: AC3, 2 ch, 192 Kbps - УкраинскийУкраинский, MVO (НЛО)
Аудио7: AC3, 2 ch, 640 Kbps - EnglishEnglish, Original
Субтитры: English full (SRT)

Как за пару секунд удалить ненужные аудиодорожки и субтитры (Внимание! После удаления вы не сможете поддержать раздачу)

Лог (x265 info)
x265 [info]: frame I: 572, Avg QP:17.39 kb/s: 18102.81
x265 [info]: frame P: 24835, Avg QP:18.52 kb/s: 14665.39
x265 [info]: frame B: 111091, Avg QP:20.65 kb/s: 5750.05
x265 [info]: Weighted P-Frames: Y:7.1% UV:5.4%
x265 [info]: Weighted B-Frames: Y:3.7% UV:2.5%
x265 [info]: consecutive B-frames: 1.5% 2.1% 3.0% 24.8% 8.4% 48.4% 8.3% 1.7% 0.4% 0.6% 0.1% 0.1% 0.1% 0.4%
x265 [info]: encoded 136498 frames in 102501.98s (1.33 fps), 7423.91 kb/s, Avg QP:20.25
Медиаинфо
Общее
Уникальный идентификатор : 210167847576484830311251107286568563341 (0x9E1CDAE7CCF41327A2817B8571AA728D)
Полное имя : \\.\Флетч.жив.Fletch.Lives.1989.BDRip-HEVC.1080p.mkv
Формат : Matroska
Версия формата : Version 4
Размер файла : 6,20 Гбайт
Продолжительность : 1 ч. 34 м.
Общий поток : 9 348 Кбит/сек
Название фильма : Флетч.жив.Fletch.Lives.1989.BDRip-HEVC.1080p
Дата кодирования : UTC 2021-11-17 01:49:31
Программа кодирования : mkvmerge v63.0.0 ('Everything') 64-bit
Библиотека кодирования : libebml v1.4.2 + libmatroska v1.6.4
Attachments : poster.jpg

Видео
Идентификатор : 1
Формат : HEVC
Формат/Информация : High Efficiency Video Coding
Профиль формата : Main 10@L4.1@High
Идентификатор кодека : V_MPEGH/ISO/HEVC
Продолжительность : 1 ч. 34 м.
Битрейт : 7 425 Кбит/сек
Ширина : 1 920 пикселей
Высота : 1 040 пикселей
Соотношение сторон : 1,85:1
Режим частоты кадров : Постоянный
Частота кадров : 23,976 (24000/1001) кадра/сек
Цветовое пространство : YUV
Субдискретизация насыщенности : 4:2:0
Битовая глубина : 10 бит
Бит/(Пиксели*Кадры) : 0.155
Размер потока : 4,92 Гбайт (79%)
Заголовок : Fletch Lives / Rip by OldGamer
Библиотека кодирования : x265 3.5+19-8003e4382:[Windows][GCC 11.2.0][64 bit] 10bit
Настройки программы : cpuid=1111039 / frame-threads=4 / numa-pools=16 / wpp / no-pmode / no-pme / no-psnr / no-ssim / log-level=2 / input-csp=1 / input-res=1920x1040 / interlace=0 / total-frames=136498 / level-idc=41 / high-tier=1 / uhd-bd=0 / ref=5 / no-allow-non-conformance / no-repeat-headers / annexb / no-aud / no-eob / no-eos / no-hrd / info / hash=0 / no-temporal-layers / open-gop / min-keyint=23 / keyint=240 / gop-lookahead=0 / bframes=13 / b-adapt=2 / b-pyramid / bframe-bias=0 / rc-lookahead=40 / lookahead-slices=0 / scenecut=40 / no-hist-scenecut / radl=0 / no-splice / no-intra-refresh / ctu=32 / min-cu-size=8 / rect / amp / max-tu-size=32 / tu-inter-depth=4 / tu-intra-depth=4 / limit-tu=1 / rdoq-level=2 / dynamic-rd=0.00 / no-ssim-rd / signhide / no-tskip / nr-intra=0 / nr-inter=0 / no-constrained-intra / no-strong-intra-smoothing / max-merge=5 / limit-refs=3 / no-limit-modes / me=3 / subme=7 / merange=57 / temporal-mvp / no-frame-dup / no-hme / weightp / weightb / no-analyze-src-pics / deblock=-3:-3 / no-sao / no-sao-non-deblock / rd=6 / selective-sao=0 / no-early-skip / no-rskip / no-fast-intra / no-tskip-fast / no-cu-lossless / b-intra / no-splitrd-skip / rdpenalty=0 / psy-rd=2.00 / psy-rdoq=1.00 / no-rd-refine / no-lossless / cbqpoffs=0 / crqpoffs=0 / rc=crf / crf=19.4 / qcomp=0.60 / qpstep=4 / stats-write=0 / stats-read=0 / vbv-maxrate=50000 / vbv-bufsize=50000 / vbv-init=0.9 / min-vbv-fullness=50.0 / max-vbv-fullness=80.0 / crf-max=0.0 / crf-min=0.0 / ipratio=1.40 / pbratio=1.30 / aq-mode=1 / aq-strength=1.00 / no-cutree / zone-count=1 / zones: / start-frame=130703 / end-frame=136498 / qp=36 / no-strict-cbr / qg-size=32 / no-rc-grain / qpmax=69 / qpmin=0 / no-const-vbv / sar=1 / overscan=0 / videoformat=5 / range=0 / colorprim=2 / transfer=2 / colormatrix=2 / chromaloc=0 / display-window=0 / cll=0,0 / min-luma=0 / max-luma=1023 / log2-max-poc-lsb=8 / vui-timing-info / vui-hrd-info / slices=1 / no-opt-qp-pps / no-opt-ref-list-length-pps / no-multi-pass-opt-rps / scenecut-bias=0.00 / hist-threshold=0.03 / no-opt-cu-delta-qp / no-aq-motion / no-hdr10 / no-hdr10-opt / no-dhdr10-opt / no-idr-recovery-sei / analysis-reuse-level=0 / analysis-save-reuse-level=0 / analysis-load-reuse-level=0 / scale-factor=0 / refine-intra=0 / refine-inter=0 / refine-mv=1 / refine-ctu-distortion=0 / no-limit-sao / ctu-info=0 / no-lowpass-dct / refine-analysis-type=0 / copy-pic=1 / max-ausize-factor=1.0 / no-dynamic-refine / no-single-sei / no-hevc-aq / no-svt / no-field / qp-adaptation-range=1.00 / scenecut-aware-qp=0conformance-window-offsets / right=0 / bottom=0 / decoder-max-rate=0 / no-vbv-live-multi-pass
Язык : English
Default : Да
Forced : Нет

Аудио #1
Идентификатор : 2
Формат : AC-3
Формат/Информация : Audio Coding 3
Коммерческое название : Dolby Digital
Идентификатор кодека : A_AC3
Продолжительность : 1 ч. 34 м.
Вид битрейта : Постоянный
Битрейт : 192 Кбит/сек
Каналы : 2 канала
Channel layout : L R
Частота : 48,0 КГц
Частота кадров : 31,250 кадров/сек (1536 SPF)
Метод сжатия : С потерями
Задержка видео : 24 мс.
Размер потока : 130 Мбайт (2%)
Заголовок : DUB (6-й канал)
Язык : Russian
Service kind : Complete Main
Default : Да
Forced : Нет

Аудио #2
Идентификатор : 3
Формат : AC-3
Формат/Информация : Audio Coding 3
Коммерческое название : Dolby Digital
Идентификатор кодека : A_AC3
Продолжительность : 1 ч. 34 м.
Вид битрейта : Постоянный
Битрейт : 320 Кбит/сек
Каналы : 4 канала
Channel layout : L R C Cb
Частота : 48,0 КГц
Частота кадров : 31,250 кадров/сек (1536 SPF)
Метод сжатия : С потерями
Задержка видео : 24 мс.
Размер потока : 217 Мбайт (3%)
Заголовок : DVO (НТВ)
Язык : Russian
Service kind : Complete Main
Default : Нет
Forced : Нет

Аудио #3
Идентификатор : 4
Формат : AC-3
Формат/Информация : Audio Coding 3
Коммерческое название : Dolby Digital
Идентификатор кодека : A_AC3
Продолжительность : 1 ч. 34 м.
Вид битрейта : Постоянный
Битрейт : 192 Кбит/сек
Каналы : 2 канала
Channel layout : L R
Частота : 48,0 КГц
Частота кадров : 31,250 кадров/сек (1536 SPF)
Метод сжатия : С потерями
Задержка видео : 24 мс.
Размер потока : 130 Мбайт (2%)
Заголовок : DVO (Universal)
Язык : Russian
Service kind : Complete Main
Default : Нет
Forced : Нет

Аудио #4
Идентификатор : 5
Формат : AC-3
Формат/Информация : Audio Coding 3
Коммерческое название : Dolby Digital
Идентификатор кодека : A_AC3
Продолжительность : 1 ч. 34 м.
Вид битрейта : Постоянный
Битрейт : 192 Кбит/сек
Каналы : 2 канала
Channel layout : L R
Частота : 48,0 КГц
Частота кадров : 31,250 кадров/сек (1536 SPF)
Метод сжатия : С потерями
Задержка видео : 23 мс.
Размер потока : 130 Мбайт (2%)
Заголовок : DVO (Премьер Видео Фильм)
Язык : Russian
Service kind : Complete Main
Default : Нет
Forced : Нет

Аудио #5
Идентификатор : 6
Формат : AC-3
Формат/Информация : Audio Coding 3
Коммерческое название : Dolby Digital
Идентификатор кодека : A_AC3
Продолжительность : 1 ч. 34 м.
Вид битрейта : Постоянный
Битрейт : 192 Кбит/сек
Каналы : 2 канала
Channel layout : L R
Частота : 48,0 КГц
Частота кадров : 31,250 кадров/сек (1536 SPF)
Метод сжатия : С потерями
Задержка видео : 24 мс.
Размер потока : 130 Мбайт (2%)
Заголовок : AVO (Алексей Михалёв)
Язык : Russian
Service kind : Complete Main
Default : Нет
Forced : Нет

Аудио #6
Идентификатор : 7
Формат : AC-3
Формат/Информация : Audio Coding 3
Коммерческое название : Dolby Digital
Идентификатор кодека : A_AC3
Продолжительность : 1 ч. 34 м.
Вид битрейта : Постоянный
Битрейт : 192 Кбит/сек
Каналы : 2 канала
Channel layout : L R
Частота : 48,0 КГц
Частота кадров : 31,250 кадров/сек (1536 SPF)
Метод сжатия : С потерями
Задержка видео : 21 мс.
Размер потока : 130 Мбайт (2%)
Заголовок : MVO (НЛО)
Язык : Ukrainian
Service kind : Complete Main
Default : Нет
Forced : Нет

Аудио #7
Идентификатор : 8
Формат : AC-3
Формат/Информация : Audio Coding 3
Коммерческое название : Dolby Digital
Идентификатор кодека : A_AC3
Продолжительность : 1 ч. 34 м.
Вид битрейта : Постоянный
Битрейт : 640 Кбит/сек
Каналы : 2 канала
Channel layout : L R
Частота : 48,0 КГц
Частота кадров : 31,250 кадров/сек (1536 SPF)
Метод сжатия : С потерями
Размер потока : 434 Мбайт (7%)
Язык : English
Service kind : Complete Main
Default : Нет
Forced : Нет

Текст
Идентификатор : 9
Формат : UTF-8
Идентификатор кодека : S_TEXT/UTF8
Идентификатор кодека/Информация : UTF-8 Plain Text
Продолжительность : 1 ч. 34 м.
Битрейт : 84 бит/сек
Count of elements : 1399
Размер потока : 58,4 Кбайт (0%)
Язык : English
Default : Нет
Forced : Нет

Меню
00:00:00.000 : en:Main Titles
00:04:53.919 : en:Downs and Ups
00:09:31.863 : en:Isles of Disappointment
00:13:21.801 : en:Murder Charge
00:19:51.190 : en:Call me Ham
00:26:31.507 : en:The Klan Rallies
00:31:09.409 : en:Bug Buster
00:37:32.041 : en:That New Time Religion
00:45:26.974 : en:What Body?
00:49:54.533 : en:Coon Hunt
00:55:13.602 : en:Daddy's Little Girl
00:58:25.210 : en:Behind the Scenes
01:07:01.267 : en:Mr. Harley
01:14:17.870 : en:Yazoo Love Canal
01:19:02.237 : en:The Beau of the Ball
01:30:52.989 : en:End Titles
Загрузка...Cкриншот1 Флетч жив / Fletch Lives (1989) BDRip 1080p [HEVC] 10 bit от OldGamer (RG RIPS CLUB)Загрузка...Cкриншот2 Флетч жив / Fletch Lives (1989) BDRip 1080p [HEVC] 10 bit от OldGamer (RG RIPS CLUB)Загрузка...Cкриншот3 Флетч жив / Fletch Lives (1989) BDRip 1080p [HEVC] 10 bit от OldGamer (RG RIPS CLUB)Загрузка...Cкриншот4 Флетч жив / Fletch Lives (1989) BDRip 1080p [HEVC] 10 bit от OldGamer (RG RIPS CLUB)
Релиз-группа: RIPS CLUB
Сэмпл Торрент🧲 Магнет

Рейтинги КП и IMDB, кнопки "Позвать в чате" и "Спасибо", а также мультитрекерная статистика доступны только зарегистрированным/авторизованным пользователям!

Файлы: 1
  • Флетч.жив.Fletch.Lives.1989.BDRip-HEVC.1080p.mkv   6.2 ГБ
Поблагодарили: 12
and50, diesel0000, Elico1977, han-nik, ilyich05, IRIT, ko1ob, makss333, Nuclear70, SoulBoy, StarLord, torrentzulu
OldGamer
0373106.2 ГБ

Добавление нового комментария

Добавление комментариев доступно только зарегистрированным/авторизованным пользователям.