💬 Мини-чат

Убедительная просьба не обсуждать тут политику.
AdminЛёшикоБэст, вроде потихоньку идёт. Подождем, если не докачается, то встану.
AdminЛёшикоБэст, перекачайте торрент, а то в профиле не отображается ждете или уже нет
ЛёшикоБэстРаздайте, пожалуйста, Неудержимые / The Expendables (2010) [Theatrical Cut] BDRip 1080p [HEVC] 10 bit от Spartanec1308
OldGamerДа, есть.
ЛёшикоБэстДоброго вечера) Скажите пожалуйста, есть ли в планах сделать релиз дилогии "Зорро" с Антонио Бандерасом?
HANNIBALAdmin, 👍
AdminГоро, встал
ГороРаздайте, пожалуйста, Хищники / Predators (2010) BDRip 1080p [HEVC] 10 bit от HANNIBAL
AdminHANNIBAL, привет. Не помню за сколько брал, но продление в этот раз обошлось примерно в $14 со всякими комиссиями. А аренда VDS обходится примерно в $30-35 за год. Не исключено, что всё это подорожает. Пока что пожертвования с трудом покрывают расходы. Иногда если требуется и со своего кармана оплачиваю, не страшно. Прорвемся.
HANNIBALсколько сейчас стоит
HANNIBALAdmin, ПРИВЕТ
AdminНаконец-то получил банковскую карту. Продлил доменное имя (адрес сайта) на год.
  • ivan_1965
Отправка сообщений доступна только зарегистрированным/авторизованным пользователям.
Онлайн (за 10 мин.): 1

Добытчица / The Breadwinner (2017) BDRip 1080p [HEVC] 10 bit от -Star-Lord- (RG RIPS CLUB)

HEVC
10 bit
Обложка Добытчица / The Breadwinner (2017) BDRip 1080p [HEVC] 10 bit от -Star-Lord- (RG RIPS CLUB) Год: 2017
Страна: Ирландия, Канада, Люксембург
Студия: Aircraft Pictures, Cartoon Saloon
Жанр: Мультфильм, Семейный, Драма
Продолжительность: 01:33:25

Режиссер: Нора Туми
В ролях: Саара Чодри, Лаара Сэдик, Али Ризви, Нурин Гуламгаус, Кава Ада, Сома Бхатия, Али Казми, Кэйн Махон

Описание: История упрямой девочки, которая переодевается мальчиком для того, чтобы обеспечивать свою семью.


Видео: 1920x802, ~2044 Кбит/сек
Аудио1: AC3, 6 ch, 640 Kbps - РусскийРусский, Профессиональный многоголосый закадровый (HDRezka Studio)
Аудио2: AC3, 6 ch, 640 Kbps - РусскийРусский, Любительский двухголосый закадровый (NewStation)
Аудио3: AC3, 6 ch, 640 Kbps - РусскийРусский, Любительский одноголосый закадровый (PiratVoice)
Аудио4: DTS, 6 ch, 1509 Kbps - УкраинскийУкраинский, Многоголосый (AniTube and VRdub)
Аудио5: DTS, 6 ch, 1509 Kbps - АнглийскийАнглийский, Оригинал
Аудио6: AC3, 2 ch, 192 Kbps - АнглийскийАнглийский, Commentary by Director Nora Twomey, Co-Art Director Ciaran Duffy, Sequence Director Jeremy Purcell, and Animation Director Fabian Erlinghauser
Субтитры: русские (полные х3), украинские, английские (полные, SDH)

Как за пару секунд удалить ненужные аудиодорожки и субтитры (Внимание! После удаления вы не сможете поддержать раздачу)

Лог (x265 info)
x265 [info]: frame I: 1004, Avg QP:13.14 kb/s: 20220.04
x265 [info]: frame P: 29028, Avg QP:15.01 kb/s: 5642.86
x265 [info]: frame B: 104363, Avg QP:19.70 kb/s: 866.40
x265 [info]: Weighted P-Frames: Y:6.3% UV:4.9%
x265 [info]: Weighted B-Frames: Y:6.7% UV:4.9%
x265 [info]: consecutive B-frames: 10.7% 7.4% 9.3% 40.1% 6.8% 6.2% 4.2% 10.6% 2.1% 1.6% 0.3% 0.2% 0.1% 0.1% 0.1% 0.1% 0.1%

encoded 134395 frames in 94722.29s (1.42 fps), 2042.65 kb/s, Avg QP:18.63
Медиаинфо
General
Unique ID : 106430901927104384694903368022471246992 (0x5011D89A34096B25E5E11A3899F08490)
Complete name : he Breadwinner (2017) BDRip 1080p H.265 [3xRUS_UKR_ENG] [RIPS-CLUB].mkv
Format : Matroska
Format version : Version 4
File size : 4.69 GiB
Duration : 1 h 33 min
Overall bit rate : 7 186 kb/s
Movie name : Добытчица / Годувальниця (Хлібодавець) / The Breadwinner (2017)
Encoded date : UTC 2021-11-16 12:12:24
Writing application : mkvmerge v61.0.0 ('So') 64-bit
Writing library : libebml v1.4.2 + libmatroska v1.6.4
Cover : Yes
Attachments : Cover.jpg

Video
ID : 1
Format : HEVC
Format/Info : High Efficiency Video Coding
Format profile : Main 10@L4.1@High
Codec ID : V_MPEGH/ISO/HEVC
Duration : 1 h 33 min
Bit rate : 2 044 kb/s
Width : 1 920 pixels
Height : 802 pixels
Display aspect ratio : 2.40:1
Frame rate mode : Constant
Frame rate : 23.976 (24000/1001) FPS
Color space : YUV
Chroma subsampling : 4:2:0
Bit depth : 10 bits
Bits/(Pixel*Frame) : 0.055
Stream size : 1.33 GiB (28%)
Title : Добытчица / Годувальниця (Хлібодавець) / The Breadwinner (2017)
Writing library : x265 3.5+1-ce882936d:[Windows][GCC 10.2.0][64 bit] 10bit
Encoding settings : cpuid=1111039 / frame-threads=3 / numa-pools=12 / wpp / no-pmode / no-pme / no-psnr / no-ssim / log-level=2 / input-csp=1 / input-res=1920x802 / interlace=0 / total-frames=134395 / level-idc=41 / high-tier=1 / uhd-bd=0 / ref=5 / no-allow-non-conformance / no-repeat-headers / annexb / no-aud / no-hrd / info / hash=0 / no-temporal-layers / open-gop / min-keyint=23 / keyint=240 / gop-lookahead=0 / bframes=16 / b-adapt=2 / b-pyramid / bframe-bias=0 / rc-lookahead=60 / lookahead-slices=4 / scenecut=40 / hist-scenecut=0 / radl=0 / no-splice / no-intra-refresh / ctu=32 / min-cu-size=8 / rect / amp / max-tu-size=32 / tu-inter-depth=4 / tu-intra-depth=4 / limit-tu=1 / rdoq-level=2 / dynamic-rd=0.00 / no-ssim-rd / signhide / no-tskip / nr-intra=0 / nr-inter=0 / no-constrained-intra / no-strong-intra-smoothing / max-merge=5 / limit-refs=2 / limit-modes / me=3 / subme=7 / merange=57 / temporal-mvp / no-frame-dup / no-hme / weightp / weightb / no-analyze-src-pics / deblock=-3:-3 / no-sao / no-sao-non-deblock / rd=6 / selective-sao=0 / no-early-skip / no-rskip / no-fast-intra / no-tskip-fast / no-cu-lossless / no-b-intra / no-splitrd-skip / rdpenalty=0 / psy-rd=2.00 / psy-rdoq=1.00 / no-rd-refine / no-lossless / cbqpoffs=0 / crqpoffs=0 / rc=crf / crf=20.0 / qcomp=0.70 / qpstep=4 / stats-write=0 / stats-read=0 / vbv-maxrate=50000 / vbv-bufsize=50000 / vbv-init=0.9 / min-vbv-fullness=50.0 / max-vbv-fullness=80.0 / crf-max=0.0 / crf-min=0.0 / ipratio=1.40 / pbratio=1.30 / aq-mode=3 / aq-strength=1.00 / no-cutree / zone-count=0 / no-strict-cbr / qg-size=32 / no-rc-grain / qpmax=69 / qpmin=0 / no-const-vbv / sar=1 / overscan=0 / videoformat=5 / range=0 / colorprim=2 / transfer=2 / colormatrix=2 / chromaloc=0 / display-window=0 / cll=0,0 / min-luma=0 / max-luma=1023 / log2-max-poc-lsb=8 / vui-timing-info / vui-hrd-info / slices=1 / no-opt-qp-pps / no-opt-ref-list-length-pps / no-multi-pass-opt-rps / scenecut-bias=0.05 / hist-threshold=0.03 / no-opt-cu-delta-qp / no-aq-motion / no-hdr10 / no-hdr10-opt / no-dhdr10-opt / no-idr-recovery-sei / analysis-reuse-level=0 / analysis-save-reuse-level=0 / analysis-load-reuse-level=0 / scale-factor=0 / refine-intra=0 / refine-inter=0 / refine-mv=1 / refine-ctu-distortion=0 / no-limit-sao / ctu-info=0 / no-lowpass-dct / refine-analysis-type=0 / copy-pic=1 / max-ausize-factor=1.0 / no-dynamic-refine / no-single-sei / no-hevc-aq / no-svt / no-field / qp-adaptation-range=1.00 / scenecut-aware-qp=0conformance-window-offsets / right=0 / bottom=0 / decoder-max-rate=0 / no-vbv-live-multi-pass
Language : English
Default : Yes
Forced : Yes

Audio #1
ID : 2
Format : AC-3
Format/Info : Audio Coding 3
Commercial name : Dolby Digital
Codec ID : A_AC3
Duration : 1 h 33 min
Bit rate mode : Constant
Bit rate : 640 kb/s
Channel(s) : 6 channels
Channel layout : L R C LFE Ls Rs
Sampling rate : 48.0 kHz
Frame rate : 31.250 FPS (1536 SPF)
Compression mode : Lossy
Stream size : 428 MiB (9%)
Title : AC-3 / 5.1 Ch / 640 kbps / MVO / HDRezka Studio
Language : Russian
Service kind : Complete Main
Default : Yes
Forced : Yes

Audio #2
ID : 3
Format : AC-3
Format/Info : Audio Coding 3
Commercial name : Dolby Digital
Codec ID : A_AC3
Duration : 1 h 33 min
Bit rate mode : Constant
Bit rate : 640 kb/s
Channel(s) : 6 channels
Channel layout : L R C LFE Ls Rs
Sampling rate : 48.0 kHz
Frame rate : 31.250 FPS (1536 SPF)
Bit depth : 32 bits
Compression mode : Lossy
Stream size : 428 MiB (9%)
Title : AC-3 / 5.1 Ch / 640 kbps / DVO / NewStation
Language : Russian
Service kind : Complete Main
Default : No
Forced : No

Audio #3
ID : 4
Format : AC-3
Format/Info : Audio Coding 3
Commercial name : Dolby Digital
Codec ID : A_AC3
Duration : 1 h 33 min
Bit rate mode : Constant
Bit rate : 640 kb/s
Channel(s) : 6 channels
Channel layout : L R C LFE Ls Rs
Sampling rate : 48.0 kHz
Frame rate : 31.250 FPS (1536 SPF)
Compression mode : Lossy
Stream size : 428 MiB (9%)
Title : AC-3 / 5.1 Ch / 640 kbps / AVO / PiratVoice
Language : Russian
Service kind : Complete Main
Default : No
Forced : No

Audio #4
ID : 5
Format : DTS
Format/Info : Digital Theater Systems
Codec ID : A_DTS
Duration : 1 h 33 min
Bit rate mode : Constant
Bit rate : 1 509 kb/s
Channel(s) : 6 channels
Channel layout : C L R Ls Rs LFE
Sampling rate : 48.0 kHz
Frame rate : 93.750 FPS (512 SPF)
Bit depth : 24 bits
Compression mode : Lossy
Stream size : 1 008 MiB (21%)
Title : DTS / 5.1 Ch / 1509 kbps / MVO / AniTube and VRdub
Language : Ukrainian
Default : No
Forced : No

Audio #5
ID : 6
Format : DTS
Format/Info : Digital Theater Systems
Codec ID : A_DTS
Duration : 1 h 33 min
Bit rate mode : Constant
Bit rate : 1 509 kb/s
Channel(s) : 6 channels
Channel layout : C L R Ls Rs LFE
Sampling rate : 48.0 kHz
Frame rate : 93.750 FPS (512 SPF)
Bit depth : 24 bits
Compression mode : Lossy
Stream size : 1 008 MiB (21%)
Title : DTS / 5.1 Ch / 1509 kbps / Original
Language : English
Default : No
Forced : No

Audio #6
ID : 7
Format : AC-3
Format/Info : Audio Coding 3
Commercial name : Dolby Digital
Codec ID : A_AC3
Duration : 1 h 33 min
Bit rate mode : Constant
Bit rate : 192 kb/s
Channel(s) : 2 channels
Channel layout : L R
Sampling rate : 48.0 kHz
Frame rate : 31.250 FPS (1536 SPF)
Compression mode : Lossy
Stream size : 128 MiB (3%)
Title : AC-3 / 2.0 Ch / 192 kbps / Original / Commentary by Director Nora Twomey, Co-Art Director Ciaran Duffy, Sequence Director Jeremy Purcell, and Animation Director Fabian Erlinghauser
Language : English
Service kind : Complete Main
Default : No
Forced : No

Text #1
ID : 8
Format : UTF-8
Codec ID : S_TEXT/UTF8
Codec ID/Info : UTF-8 Plain Text
Duration : 1 h 32 min
Bit rate : 97 b/s
Count of elements : 1106
Stream size : 66.1 KiB (0%)
Title : Full (FOCS)
Language : Russian
Default : No
Forced : No

Text #2
ID : 9
Format : UTF-8
Codec ID : S_TEXT/UTF8
Codec ID/Info : UTF-8 Plain Text
Duration : 1 h 25 min
Bit rate : 97 b/s
Count of elements : 1114
Stream size : 61.1 KiB (0%)
Title : Full (Don_Leprikon)
Language : Russian
Default : No
Forced : No

Text #3
ID : 10
Format : UTF-8
Codec ID : S_TEXT/UTF8
Codec ID/Info : UTF-8 Plain Text
Duration : 1 h 23 min
Bit rate : 102 b/s
Count of elements : 1209
Stream size : 63.0 KiB (0%)
Title : Full (Женя Спицын)
Language : Russian
Default : No
Forced : No

Text #4
ID : 11
Format : ASS
Codec ID : S_TEXT/ASS
Codec ID/Info : Advanced Sub Station Alpha
Duration : 1 h 29 min
Bit rate : 138 b/s
Count of elements : 1310
Compression mode : Lossless
Stream size : 90.5 KiB (0%)
Title : Full (Areyssword)
Language : Ukrainian
Default : No
Forced : No

Text #5
ID : 12
Format : UTF-8
Codec ID : S_TEXT/UTF8
Codec ID/Info : UTF-8 Plain Text
Duration : 1 h 32 min
Bit rate : 25 b/s
Count of elements : 699
Stream size : 17.5 KiB (0%)
Title : Full
Language : English
Default : No
Forced : No

Text #6
ID : 13
Format : UTF-8
Codec ID : S_TEXT/UTF8
Codec ID/Info : UTF-8 Plain Text
Duration : 1 h 32 min
Bit rate : 28 b/s
Count of elements : 798
Stream size : 19.3 KiB (0%)
Title : SDH
Language : English
Default : No
Forced : No

Menu
00:00:00.000 : :Chapter 1
00:05:33.958 : :Chapter 2
00:10:59.825 : :Chapter 3
00:15:44.610 : :Chapter 4
00:20:48.538 : :Chapter 5
00:25:10.509 : :Chapter 6
00:30:49.597 : :Chapter 7
00:35:16.906 : :Chapter 8
00:40:06.946 : :Chapter 9
00:45:13.961 : :Chapter 10
00:50:01.248 : :Chapter 11
00:55:13.018 : :Chapter 12
01:00:17.280 : :Chapter 13
01:06:06.879 : :Chapter 14
01:10:09.747 : :Chapter 15
01:15:29.525 : :Chapter 16
01:20:17.020 : :Chapter 17
01:25:54.149 : :Chapter 18
Загрузка...Cкриншот1 Добытчица / The Breadwinner (2017) BDRip 1080p [HEVC] 10 bit от -Star-Lord- (RG RIPS CLUB)Загрузка...Cкриншот2 Добытчица / The Breadwinner (2017) BDRip 1080p [HEVC] 10 bit от -Star-Lord- (RG RIPS CLUB)Загрузка...Cкриншот3 Добытчица / The Breadwinner (2017) BDRip 1080p [HEVC] 10 bit от -Star-Lord- (RG RIPS CLUB)Загрузка...Cкриншот4 Добытчица / The Breadwinner (2017) BDRip 1080p [HEVC] 10 bit от -Star-Lord- (RG RIPS CLUB)
Релиз-группа: RIPS CLUB
Сэмпл Торрент🧲 Магнет

Рейтинги КП и IMDB, кнопки "Позвать в чате" и "Спасибо", а также мультитрекерная статистика доступны только зарегистрированным/авторизованным пользователям!

Файлы: 1
  • The Breadwinner (2017) BDRip 1080p H.265 [3xRUS_UKR_ENG] [RIPS-CLUB].mkv   4.69 ГБ
Поблагодарили: 4
ko1ob, makss333, SergKote, z_artem
StarLord
0102304.69 ГБ

Добавление нового комментария

Добавление комментариев доступно только зарегистрированным/авторизованным пользователям.