Чат

⚫︎
Список изменений сайта - https://rips.club/changelog.html (обновлен 24.05.2024)
  • arwis
  • ExoticDeer
Онлайн (за 10 мин.): 2
Отправка сообщений доступна только зарегистрированным/авторизованным пользователям.

🎥︎Фред Клаус, брат Санты / Fred Claus (2007) [iTunes] BDRip 1080p [HEVC] 10 bit от Mr. Fox


Обложка Фред Клаус, брат Санты / Fred Claus (2007) [iTunes] BDRip 1080p [HEVC] 10 bit от Mr. Fox
HEVC
10 bit
✂︎Сэмпл⤓︎Торрент🧲︎Магнет$Пожертвования
Год: 2007
Страна: США
Студия: David Dobkin Productions, Jessie Nelson Productions, Silver Pictures, Warner Bros. Pictures
Жанр: Фэнтези, Комедия, Семейный
Длительность: 01:55:33

Режиссер: Дэвид Добкин
В ролях: Винс Вон, Пол Джаматти, Джон Майкл Хиггинс, Рэйчел Вайс, Миранда Ричардсон, Элизабет Бэнкс, Кевин Спейси, Лудакрис, Бобби Дж. Томпсон, Кэти Бейтс

Описание: Комедия о Фреде Клаусе, брате Санты, который является его полной противоположностью. Фред рос в святой тени своего брата Ника и, в конце концов, превратился в брюзгу, потерявшего веру в Рождество. Однажды в декабре Фред летит на Северный Полюс (первым классом на оленьей упряжке) и обнаруживает, что Ник попал в беду, поскольку эксперт по эффективности решает навсегда упразднить Рождество! Фред спасает Рождество и вновь обретает вкус к семье.


Видео: 1920x800, ~8517 Кбит/сек
Аудио1: AC3, 6 ch, 384 Kbps - РусскийРусский, Дублированный (iTunes)
Аудио2: AC3, 2 ch, 192 Kbps - УкраинскийУкраинский, Многоголосый (Новий канал)
Аудио3: AC3, 6 ch, 640 Kbps - АнглийскийАнглийский, Оригинал
Субтитры: русские (форсированные, полные), английские (полные)

Как за несколько секунд удалить ненужные аудиодорожки и субтитры (Внимание! После удаления вы не сможете поддержать раздачу)


Лог (x265 info)x265 [info]: frame I: Avg QP:17.57 kb/s
x265 [info]: frame P: Avg QP:18.67 kb/s
x265 [info]: frame B: Avg QP:21.15 kb/s
МедиаинфоGeneral
Unique ID : 229981321539802364675935349410039645625 (0xAD04CA97E6A889B2F151526B3074C5B9)
Complete name : E:\Torrent\Fred Claus (2007).mkv
Format : Matroska
Format version : Version 4
File size : 7.86 GiB
Duration : 1 h 55 min
Overall bit rate : 9 736 kb/s
Movie name : Fred Claus (2007)
Encoded date : UTC 2021-12-08 05:27:09
Writing application : mkvmerge v62.0.0 ('Apollo') 64-bit
Writing library : libebml v1.4.2 + libmatroska v1.6.4
Cover : Yes
Attachments : cover

Video
ID : 1
Format : HEVC
Format/Info : High Efficiency Video Coding
Format profile : Main 10@L4.1@High
Codec ID : V_MPEGH/ISO/HEVC
Duration : 1 h 55 min
Bit rate : 8 517 kb/s
Width : 1 920 pixels
Height : 800 pixels
Display aspect ratio : 2.40:1
Frame rate mode : Constant
Frame rate : 23.976 (24000/1001) FPS
Color space : YUV
Chroma subsampling : 4:2:0
Bit depth : 10 bits
Bits/(Pixel*Frame) : 0.231
Stream size : 6.88 GiB (87%)
Writing library : x265 3.5+1-ce882936d:[Windows][MSVC 1928][64 bit] 10bit
Encoding settings : cpuid=1111039 / frame-threads=4 / numa-pools=16 / wpp / no-pmode / no-pme / no-psnr / no-ssim / log-level=2 / input-csp=1 / input-res=1920x800 / interlace=0 / total-frames=166246 / level-idc=41 / high-tier=1 / uhd-bd=0 / ref=5 / no-allow-non-conformance / no-repeat-headers / annexb / no-aud / no-hrd / info / hash=0 / no-temporal-layers / open-gop / min-keyint=23 / keyint=240 / gop-lookahead=0 / bframes=16 / b-adapt=2 / b-pyramid / bframe-bias=0 / rc-lookahead=60 / lookahead-slices=4 / scenecut=40 / hist-scenecut=0 / radl=0 / no-splice / no-intra-refresh / ctu=32 / min-cu-size=8 / rect / amp / max-tu-size=32 / tu-inter-depth=4 / tu-intra-depth=4 / limit-tu=1 / rdoq-level=2 / dynamic-rd=0.00 / no-ssim-rd / signhide / no-tskip / nr-intra=0 / nr-inter=0 / no-constrained-intra / no-strong-intra-smoothing / max-merge=4 / limit-refs=2 / limit-modes / me=3 / subme=7 / merange=57 / temporal-mvp / no-frame-dup / no-hme / weightp / weightb / no-analyze-src-pics / deblock=-3:-3 / no-sao / no-sao-non-deblock / rd=6 / selective-sao=0 / no-early-skip / no-rskip / no-fast-intra / no-tskip-fast / no-cu-lossless / no-b-intra / no-splitrd-skip / rdpenalty=0 / psy-rd=2.00 / psy-rdoq=1.00 / no-rd-refine / no-lossless / cbqpoffs=0 / crqpoffs=0 / rc=crf / crf=19.0 / qcomp=0.60 / qpstep=4 / stats-write=0 / stats-read=0 / vbv-maxrate=50000 / vbv-bufsize=50000 / vbv-init=0.9 / min-vbv-fullness=50.0 / max-vbv-fullness=80.0 / crf-max=0.0 / crf-min=0.0 / ipratio=1.40 / pbratio=1.30 / aq-mode=1 / aq-strength=1.00 / no-cutree / zone-count=0 / no-strict-cbr / qg-size=32 / no-rc-grain / qpmax=69 / qpmin=0 / no-const-vbv / sar=1 / overscan=0 / videoformat=5 / range=0 / colorprim=1 / transfer=1 / colormatrix=1 / chromaloc=0 / display-window=0 / cll=0,0 / min-luma=0 / max-luma=1023 / log2-max-poc-lsb=8 / vui-timing-info / vui-hrd-info / slices=1 / no-opt-qp-pps / no-opt-ref-list-length-pps / no-multi-pass-opt-rps / scenecut-bias=0.05 / hist-threshold=0.03 / no-opt-cu-delta-qp / no-aq-motion / no-hdr10 / no-hdr10-opt / no-dhdr10-opt / no-idr-recovery-sei / analysis-reuse-level=0 / analysis-save-reuse-level=0 / analysis-load-reuse-level=0 / scale-factor=0 / refine-intra=0 / refine-inter=0 / refine-mv=1 / refine-ctu-distortion=0 / no-limit-sao / ctu-info=0 / no-lowpass-dct / refine-analysis-type=0 / copy-pic=1 / max-ausize-factor=1.0 / no-dynamic-refine / no-single-sei / no-hevc-aq / no-svt / no-field / qp-adaptation-range=1.00 / scenecut-aware-qp=0conformance-window-offsets / right=0 / bottom=0 / decoder-max-rate=0 / no-vbv-live-multi-pass
Default : Yes
Forced : No
Color range : Limited
Color primaries : BT.709
Transfer characteristics : BT.709
Matrix coefficients : BT.709

Audio #1
ID : 2
Format : AC-3
Format/Info : Audio Coding 3
Commercial name : Dolby Digital
Codec ID : A_AC3
Duration : 1 h 55 min
Bit rate mode : Constant
Bit rate : 384 kb/s
Channel(s) : 6 channels
Channel layout : L R C LFE Ls Rs
Sampling rate : 48.0 kHz
Frame rate : 31.250 FPS (1536 SPF)
Compression mode : Lossy
Stream size : 317 MiB (4%)
Title : Дубляж (iTunes)
Language : Russian
Service kind : Complete Main
Default : Yes
Forced : Yes

Audio #2
ID : 3
Format : AC-3
Format/Info : Audio Coding 3
Commercial name : Dolby Digital
Codec ID : A_AC3
Duration : 1 h 55 min
Bit rate mode : Constant
Bit rate : 192 kb/s
Channel(s) : 2 channels
Channel layout : L R
Sampling rate : 48.0 kHz
Frame rate : 31.250 FPS (1536 SPF)
Compression mode : Lossy
Stream size : 159 MiB (2%)
Title : MVO (Новий канал)
Language : Ukrainian
Service kind : Complete Main
Default : No
Forced : No

Audio #3
ID : 4
Format : AC-3
Format/Info : Audio Coding 3
Commercial name : Dolby Digital
Codec ID : A_AC3
Duration : 1 h 55 min
Bit rate mode : Constant
Bit rate : 640 kb/s
Channel(s) : 6 channels
Channel layout : L R C LFE Ls Rs
Sampling rate : 48.0 kHz
Frame rate : 31.250 FPS (1536 SPF)
Compression mode : Lossy
Stream size : 529 MiB (7%)
Title : Original
Language : English
Service kind : Complete Main
Default : No
Forced : No

Text #1
ID : 5
Format : UTF-8
Codec ID : S_TEXT/UTF8
Codec ID/Info : UTF-8 Plain Text
Duration : 1 h 20 min
Bit rate : 1 b/s
Count of elements : 12
Stream size : 611 Bytes (0%)
Title : Forced
Language : Russian
Default : Yes
Forced : Yes

Text #2
ID : 6
Format : UTF-8
Codec ID : S_TEXT/UTF8
Codec ID/Info : UTF-8 Plain Text
Duration : 1 h 47 min
Bit rate : 135 b/s
Count of elements : 1494
Stream size : 107 KiB (0%)
Title : Full
Language : Russian
Default : No
Forced : No

Text #3
ID : 7
Format : UTF-8
Codec ID : S_TEXT/UTF8
Codec ID/Info : UTF-8 Plain Text
Duration : 1 h 46 min
Bit rate : 87 b/s
Count of elements : 1626
Stream size : 68.6 KiB (0%)
Title : Full
Language : English
Default : No
Forced : No

Menu
00:00:00.000 : en:Chapter 1
00:06:51.911 : en:Chapter 2
00:08:42.855 : en:Chapter 3
00:12:14.734 : en:Chapter 4
00:15:17.750 : en:Chapter 5
00:18:27.105 : en:Chapter 6
00:22:52.871 : en:Chapter 7
00:25:12.844 : en:Chapter 8
00:28:14.526 : en:Chapter 9
00:31:26.050 : en:Chapter 10
00:35:50.982 : en:Chapter 11
00:39:15.018 : en:Chapter 12
00:45:28.058 : en:Chapter 13
00:49:18.121 : en:Chapter 14
00:53:59.069 : en:Chapter 15
00:58:27.837 : en:Chapter 16
01:02:58.107 : en:Chapter 17
01:07:10.693 : en:Chapter 18
01:11:11.934 : en:Chapter 19
01:13:24.233 : en:Chapter 20
01:18:34.542 : en:Chapter 21
01:24:28.897 : en:Chapter 22
01:30:04.399 : en:Chapter 23
01:31:20.975 : en:Chapter 24
01:36:23.110 : en:Chapter 25
01:41:50.104 : en:Chapter 26
01:44:02.069 : en:Chapter 27
01:47:33.780 : en:Chapter 28
Загрузка...Cкриншот1 Фред Клаус, брат Санты / Fred Claus (2007) [iTunes] BDRip 1080p [HEVC] 10 bit от Mr. FoxЗагрузка...Cкриншот2 Фред Клаус, брат Санты / Fred Claus (2007) [iTunes] BDRip 1080p [HEVC] 10 bit от Mr. FoxЗагрузка...Cкриншот3 Фред Клаус, брат Санты / Fred Claus (2007) [iTunes] BDRip 1080p [HEVC] 10 bit от Mr. FoxЗагрузка...Cкриншот4 Фред Клаус, брат Санты / Fred Claus (2007) [iTunes] BDRip 1080p [HEVC] 10 bit от Mr. Fox
Поблагодарили: 1377carlsson77, alenu, Brooklyn, Elico1977, ilyich05, IRIT, justmkr, makss333, mvclub, Nuclear70, StarLord, torrentzulu, Viacheslav1
Файлы: 1
  • Fred Claus (2007).mkv

Рейтинги КП и IMDB, кнопки "Раздайте, пожалуйста" и "Спасибо", а также мультитрекерная статистика доступны только зарегистрированным/авторизованным пользователям!

Гл. Админ
0246607.86 ГБ

💬︎ Комментарии

Добавление комментариев доступно только зарегистрированным/авторизованным пользователям.