💬 Мини-чат

Убедительная просьба не обсуждать тут политику.
AdminЛёшикоБэст, вроде потихоньку идёт. Подождем, если не докачается, то встану.
AdminЛёшикоБэст, перекачайте торрент, а то в профиле не отображается ждете или уже нет
ЛёшикоБэстРаздайте, пожалуйста, Неудержимые / The Expendables (2010) [Theatrical Cut] BDRip 1080p [HEVC] 10 bit от Spartanec1308
OldGamerДа, есть.
ЛёшикоБэстДоброго вечера) Скажите пожалуйста, есть ли в планах сделать релиз дилогии "Зорро" с Антонио Бандерасом?
HANNIBALAdmin, 👍
AdminГоро, встал
ГороРаздайте, пожалуйста, Хищники / Predators (2010) BDRip 1080p [HEVC] 10 bit от HANNIBAL
AdminHANNIBAL, привет. Не помню за сколько брал, но продление в этот раз обошлось примерно в $14 со всякими комиссиями. А аренда VDS обходится примерно в $30-35 за год. Не исключено, что всё это подорожает. Пока что пожертвования с трудом покрывают расходы. Иногда если требуется и со своего кармана оплачиваю, не страшно. Прорвемся.
HANNIBALсколько сейчас стоит
HANNIBALAdmin, ПРИВЕТ
AdminНаконец-то получил банковскую карту. Продлил доменное имя (адрес сайта) на год.
  • ivan_1965
Отправка сообщений доступна только зарегистрированным/авторизованным пользователям.
Онлайн (за 10 мин.): 1

Освобождение (1967-1972) BDRip 1080p [HEVC] 10 bit от ADVOKAT69

HEVC
10 bit
Обложка Освобождение (1967-1972) BDRip 1080p [HEVC] 10 bit от ADVOKAT69 Год: 1967-1972
Страна: СССР, Югославия, Италия, Польша, ГДР
Жанр: Военный, Драма, История

1. Огненная дуга (1968) BDRip 1080p [HEVC] 10 bit от ADVOKAT69
HEVC
10 bit
Обложка Огненная дуга (1968) BDRip 1080p [HEVC] 10 bit от ADVOKAT69 Год: 1968
Страна: СССР, Польша, Югославия, Германия (ГДР), Италия
Студия: Мосфильм, Zespół Filmowy "Start", Avala film, DEFA, Dino de Laurentiis Cinematografica
Жанр: Военный, Драма, Мелодрама
Продолжительность: 01:27:55

Режиссер: Юрий Озеров
В ролях: Михаил Ульянов, Василий Шукшин, Николай Олялин, Лариса Голубкина, Михаил Ножкин, Владислав Стржельчик, Сергей Никоненко, Всеволод Санаев, Борис Зайденберг, Валерий Носик, Юрий Каморный, Бухути Закариадзе, Иван Переверзев, Анатолий Ромашин, Владимир Заманский, Николай Рыбников, Барбара Брыльска, Лев Прыгунов

Описание: Фильм первый «Огненная Дуга» повествует о грандиозной битве на Курской дуге летом 1943 года. Здесь произошло самое крупное в истории Второй мировой войны танковое сражение. Наряду с личными судьбами героев в фильме показаны батальные сцены, деятельность штабов и разведок, тех, кто трудился на фронте и в тылу.


Исходник: BDRemux [FRA Transfer]
Видео: 1920x824, ~4927 Кбит/сек
Аудио1: Аудио1: AC3, 2 ch, 224 Kbps - Русский BD
Аудио2: Аудио2: Flac, 2 ch, 1334 Kbps - Русский BD
Субтитры: нет

Как за пару секунд удалить ненужные аудиодорожки и субтитры (Внимание! После удаления вы не сможете поддержать раздачу)

Лог (x265 info)
x265 [info]: frame I: 736, Avg QP:18.16 kb/s: 18207.67
x265 [info]: frame P: 28407, Avg QP:19.72 kb/s: 11278.63
x265 [info]: frame B: 102753, Avg QP:21.91 kb/s: 3074.84
x265 [info]: Weighted P-Frames: Y:40.8% UV:26.0%
x265 [info]: Weighted B-Frames: Y:38.3% UV:22.6%
x265 [info]: consecutive B-frames: 2.7% 4.1% 5.4% 45.1% 15.6% 23.9% 2.5% 0.7% 0.1%

encoded 131896 frames in 131407.38s (1.00 fps), 4926.17 kb/s, Avg QP:21.42
Медиаинфо
Общее
Уникальный идентификатор : 212067849216343150812418042527498981840 (0x9F8AC8380469D663A7C0DBC0DA8551D0)
Полное имя : D:\Огненная дуга (1968).mkv
Формат : Matroska
Версия формата : Version 4
Размер файла : 3,98 Гбайт
Продолжительность : 1 ч. 27 м.
Режим общего битрейта : Переменный
Общий поток : 6 487 Кбит/сек
Дата кодирования : UTC 2021-11-29 09:23:55
Программа кодирования : mkvmerge v9.2.0 ('Photograph') 64bit
Библиотека кодирования : libebml v1.3.3 + libmatroska v1.4.4

Видео
Идентификатор : 1
Формат : HEVC
Формат/Информация : High Efficiency Video Coding
Профиль формата : Main 10@L4.1@High
Идентификатор кодека : V_MPEGH/ISO/HEVC
Продолжительность : 1 ч. 27 м.
Битрейт : 4 927 Кбит/сек
Ширина : 1 920 пикселей
Высота : 824 пикселя
Соотношение сторон : 2,35:1
Режим частоты кадров : Постоянный
Частота кадров : 25,000 кадров/сек
Цветовое пространство : YUV
Субдискретизация насыщенности : 4:2:0
Битовая глубина : 10 бит
Бит/(Пиксели*Кадры) : 0.125
Размер потока : 3,03 Гбайт (76%)
Библиотека кодирования : x265 3.5+1-ce882936d:[Windows][MSVC 1928][64 bit] 10bit
Настройки программы : cpuid=1049583 / frame-threads=3 / numa-pools=8 / wpp / no-pmode / no-pme / no-psnr / no-ssim / log-level=2 / input-csp=1 / input-res=1920x824 / interlace=0 / total-frames=131896 / level-idc=41 / high-tier=1 / uhd-bd=0 / ref=5 / no-allow-non-conformance / no-repeat-headers / annexb / no-aud / no-hrd / info / hash=0 / no-temporal-layers / open-gop / min-keyint=24 / keyint=240 / gop-lookahead=0 / bframes=8 / b-adapt=2 / b-pyramid / bframe-bias=0 / rc-lookahead=40 / lookahead-slices=4 / scenecut=40 / hist-scenecut=0 / radl=0 / no-splice / no-intra-refresh / ctu=32 / min-cu-size=8 / rect / no-amp / max-tu-size=32 / tu-inter-depth=4 / tu-intra-depth=4 / limit-tu=1 / rdoq-level=2 / dynamic-rd=4.00 / no-ssim-rd / signhide / no-tskip / nr-intra=0 / nr-inter=0 / constrained-intra / no-strong-intra-smoothing / max-merge=3 / limit-refs=3 / limit-modes / me=3 / subme=7 / merange=57 / temporal-mvp / no-frame-dup / no-hme / weightp / weightb / no-analyze-src-pics / deblock=-2:-2 / no-sao / no-sao-non-deblock / rd=4 / selective-sao=0 / no-early-skip / rskip / no-fast-intra / no-tskip-fast / no-cu-lossless / b-intra / no-splitrd-skip / rdpenalty=0 / psy-rd=1.50 / psy-rdoq=0.70 / no-rd-refine / no-lossless / cbqpoffs=0 / crqpoffs=0 / rc=crf / crf=20.0 / qcomp=0.60 / qpstep=4 / stats-write=0 / stats-read=0 / vbv-maxrate=50000 / vbv-bufsize=50000 / vbv-init=0.9 / min-vbv-fullness=50.0 / max-vbv-fullness=80.0 / crf-max=0.0 / crf-min=0.0 / ipratio=1.40 / pbratio=1.30 / aq-mode=2 / aq-strength=0.80 / no-cutree / zone-count=0 / no-strict-cbr / qg-size=32 / no-rc-grain / qpmax=69 / qpmin=0 / no-const-vbv / sar=1 / overscan=0 / videoformat=5 / range=0 / colorprim=1 / transfer=1 / colormatrix=1 / chromaloc=0 / display-window=0 / cll=0,0 / min-luma=0 / max-luma=1023 / log2-max-poc-lsb=8 / vui-timing-info / vui-hrd-info / slices=1 / no-opt-qp-pps / no-opt-ref-list-length-pps / no-multi-pass-opt-rps / scenecut-bias=0.05 / hist-threshold=0.03 / no-opt-cu-delta-qp / no-aq-motion / no-hdr10 / no-hdr10-opt / no-dhdr10-opt / no-idr-recovery-sei / analysis-reuse-level=0 / analysis-save-reuse-level=0 / analysis-load-reuse-level=0 / scale-factor=0 / refine-intra=0 / refine-inter=0 / refine-mv=1 / refine-ctu-distortion=0 / no-limit-sao / ctu-info=0 / no-lowpass-dct / refine-analysis-type=0 / copy-pic=1 / max-ausize-factor=1.0 / no-dynamic-refine / no-single-sei / no-hevc-aq / no-svt / no-field / qp-adaptation-range=1.00 / scenecut-aware-qp=0conformance-window-offsets / right=0 / bottom=0 / decoder-max-rate=0 / no-vbv-live-multi-pass
Default : Да
Forced : Нет
Цветовой диапазон : Limited
Основные цвета : BT.709
Характеристики трансфера : BT.709
Коэффициенты матрицы : BT.709

Аудио #1
Идентификатор : 2
Формат : AC-3
Формат/Информация : Audio Coding 3
Коммерческое название : Dolby Digital
Идентификатор кодека : A_AC3
Продолжительность : 1 ч. 27 м.
Вид битрейта : Постоянный
Битрейт : 224 Кбит/сек
Каналы : 2 канала
Channel layout : L R
Частота : 48,0 КГц
Частота кадров : 31,250 кадров/сек (1536 SPF)
Метод сжатия : С потерями
Размер потока : 141 Мбайт (3%)
Заголовок : Русский BD
Service kind : Complete Main
Default : Да
Forced : Нет

Аудио #2
Идентификатор : 3
Формат : FLAC
Формат/Информация : Free Lossless Audio Codec
Идентификатор кодека : A_FLAC
Продолжительность : 1 ч. 27 м.
Вид битрейта : Переменный
Битрейт : 1 334 Кбит/сек
Каналы : 2 канала
Channel layout : L R
Частота : 48,0 КГц
Частота кадров : 11,719 кадров/сек (4096 SPF)
Битовая глубина : 24 бит
Метод сжатия : Без потерь
Размер потока : 839 Мбайт (21%)
Заголовок : Русский BD
Библиотека кодирования : libFLAC 1.2.1 (UTC 2007-09-17)
Default : Нет
Forced : Нет

Меню
00:00:00.000 : fr:Chapitre 1
00:09:59.680 : fr:Chapitre 2
00:20:00.160 : fr:Chapitre 3
00:30:00.040 : fr:Chapitre 4
00:40:00.480 : fr:Chapitre 5
00:50:00.280 : fr:Chapitre 6
01:00:00.360 : fr:Chapitre 7
01:10:00.520 : fr:Chapitre 8
01:19:59.680 : fr:Chapitre 9
Загрузка...Cкриншот1 Огненная дуга (1968) BDRip 1080p [HEVC] 10 bit от ADVOKAT69Загрузка...Cкриншот2 Огненная дуга (1968) BDRip 1080p [HEVC] 10 bit от ADVOKAT69Загрузка...Cкриншот3 Огненная дуга (1968) BDRip 1080p [HEVC] 10 bit от ADVOKAT69Загрузка...Cкриншот4 Огненная дуга (1968) BDRip 1080p [HEVC] 10 bit от ADVOKAT69
Сэмпл
2. Прорыв (1969) BDRip 1080p [HEVC] 10 bit от ADVOKAT69
HEVC
10 bit
Обложка Прорыв (1969) BDRip 1080p [HEVC] 10 bit от ADVOKAT69 Год: 1969
Страна: СССР, Польша, ГДР, Италия
Студия: Мосфильм, Zespół Filmowy "Start", DEFA, Dino de Laurentiis Cinematografica
Жанр: Военный, Драма, Мелодрама
Продолжительность: 01:25:43

Режиссер: Юрий Озеров
В ролях: Михаил Ульянов, Николай Олялин, Борис Зайденберг, Иво Гаррани, Владимир Самойлов, Фриц Диц, Всеволод Санаев, Бухути Закариадзе, Станислав Яскевич, Юрий Дуров, Лариса Голубкина, Барбара Брыльска, Даниэль Ольбрыхский, Сергей Никоненко,

Описание: Масштабная историческая киноэпопея Юрия Озерова «Освобождение» состоит из пяти фильмов. Фильм второй - «Прорыв» посвящен битве за Днепр и наступательной операции советских войск в 1944 г. В центре этого фильма судьба батальона, сражавшегося на этом плацдарме.


Исходник: BDRemux [FRA Transfer]
Видео: 1920x824, ~4242 Кбит/сек
Аудио1: Аудио1: AC3, 2 ch, 224 Kbps - Русский BD
Аудио2: Аудио2: Flac, 2 ch, 1334 Kbps - Русский BD
Субтитры: нет

Как за пару секунд удалить ненужные аудиодорожки и субтитры (Внимание! После удаления вы не сможете поддержать раздачу)

Лог (x265 info)
x265 [info]: frame I: 701, Avg QP:18.15 kb/s: 16305.22
x265 [info]: frame P: 28015, Avg QP:19.60 kb/s: 9675.22
x265 [info]: frame B: 99880, Avg QP:21.79 kb/s: 2632.25
x265 [info]: Weighted P-Frames: Y:42.3% UV:24.8%
x265 [info]: Weighted B-Frames: Y:36.7% UV:21.8%
x265 [info]: consecutive B-frames: 2.3% 3.7% 5.6% 49.8% 14.1% 21.5% 2.1% 0.8% 0.1% 0.1%

encoded 128596 frames in 130275.37s (0.99 fps), 4241.11 kb/s, Avg QP:21.29
Медиаинфо
Общее
Уникальный идентификатор : 220771479045028102297113189997079947297 (0xA6170A4CE730424A840153D5EAD7E821)
Полное имя : D:\Прорыв (1969).mkv
Формат : Matroska
Версия формата : Version 4
Размер файла : 3,45 Гбайт
Продолжительность : 1 ч. 25 м.
Режим общего битрейта : Переменный
Общий поток : 5 754 Кбит/сек
Дата кодирования : UTC 2021-12-03 09:20:05
Программа кодирования : mkvmerge v9.2.0 ('Photograph') 64bit
Библиотека кодирования : libebml v1.3.3 + libmatroska v1.4.4

Видео
Идентификатор : 1
Формат : HEVC
Формат/Информация : High Efficiency Video Coding
Профиль формата : Main 10@L4.1@High
Идентификатор кодека : V_MPEGH/ISO/HEVC
Продолжительность : 1 ч. 25 м.
Битрейт : 4 242 Кбит/сек
Ширина : 1 920 пикселей
Высота : 824 пикселя
Соотношение сторон : 2,35:1
Режим частоты кадров : Постоянный
Частота кадров : 25,000 кадров/сек
Цветовое пространство : YUV
Субдискретизация насыщенности : 4:2:0
Битовая глубина : 10 бит
Бит/(Пиксели*Кадры) : 0.107
Размер потока : 2,54 Гбайт (74%)
Библиотека кодирования : x265 3.5+1-ce882936d:[Windows][MSVC 1928][64 bit] 10bit
Настройки программы : cpuid=1049583 / frame-threads=3 / numa-pools=8 / wpp / no-pmode / no-pme / no-psnr / no-ssim / log-level=2 / input-csp=1 / input-res=1920x824 / interlace=0 / total-frames=128596 / level-idc=41 / high-tier=1 / uhd-bd=0 / ref=5 / no-allow-non-conformance / no-repeat-headers / annexb / no-aud / no-hrd / info / hash=0 / no-temporal-layers / open-gop / min-keyint=24 / keyint=240 / gop-lookahead=0 / bframes=9 / b-adapt=2 / b-pyramid / bframe-bias=0 / rc-lookahead=40 / lookahead-slices=4 / scenecut=40 / hist-scenecut=0 / radl=0 / no-splice / no-intra-refresh / ctu=32 / min-cu-size=8 / rect / no-amp / max-tu-size=32 / tu-inter-depth=4 / tu-intra-depth=4 / limit-tu=1 / rdoq-level=2 / dynamic-rd=4.00 / no-ssim-rd / signhide / no-tskip / nr-intra=0 / nr-inter=0 / constrained-intra / no-strong-intra-smoothing / max-merge=3 / limit-refs=3 / limit-modes / me=3 / subme=7 / merange=57 / temporal-mvp / no-frame-dup / no-hme / weightp / weightb / no-analyze-src-pics / deblock=-2:-2 / no-sao / no-sao-non-deblock / rd=4 / selective-sao=0 / no-early-skip / rskip / no-fast-intra / no-tskip-fast / no-cu-lossless / b-intra / no-splitrd-skip / rdpenalty=0 / psy-rd=1.50 / psy-rdoq=0.70 / no-rd-refine / no-lossless / cbqpoffs=0 / crqpoffs=0 / rc=crf / crf=20.0 / qcomp=0.60 / qpstep=4 / stats-write=0 / stats-read=0 / vbv-maxrate=50000 / vbv-bufsize=50000 / vbv-init=0.9 / min-vbv-fullness=50.0 / max-vbv-fullness=80.0 / crf-max=0.0 / crf-min=0.0 / ipratio=1.40 / pbratio=1.30 / aq-mode=2 / aq-strength=0.80 / no-cutree / zone-count=0 / no-strict-cbr / qg-size=32 / no-rc-grain / qpmax=69 / qpmin=0 / no-const-vbv / sar=1 / overscan=0 / videoformat=5 / range=0 / colorprim=1 / transfer=1 / colormatrix=1 / chromaloc=0 / display-window=0 / cll=0,0 / min-luma=0 / max-luma=1023 / log2-max-poc-lsb=8 / vui-timing-info / vui-hrd-info / slices=1 / no-opt-qp-pps / no-opt-ref-list-length-pps / no-multi-pass-opt-rps / scenecut-bias=0.05 / hist-threshold=0.03 / no-opt-cu-delta-qp / no-aq-motion / no-hdr10 / no-hdr10-opt / no-dhdr10-opt / no-idr-recovery-sei / analysis-reuse-level=0 / analysis-save-reuse-level=0 / analysis-load-reuse-level=0 / scale-factor=0 / refine-intra=0 / refine-inter=0 / refine-mv=1 / refine-ctu-distortion=0 / no-limit-sao / ctu-info=0 / no-lowpass-dct / refine-analysis-type=0 / copy-pic=1 / max-ausize-factor=1.0 / no-dynamic-refine / no-single-sei / no-hevc-aq / no-svt / no-field / qp-adaptation-range=1.00 / scenecut-aware-qp=0conformance-window-offsets / right=0 / bottom=0 / decoder-max-rate=0 / no-vbv-live-multi-pass
Default : Да
Forced : Нет
Цветовой диапазон : Limited
Основные цвета : BT.709
Характеристики трансфера : BT.709
Коэффициенты матрицы : BT.709

Аудио #1
Идентификатор : 2
Формат : AC-3
Формат/Информация : Audio Coding 3
Коммерческое название : Dolby Digital
Идентификатор кодека : A_AC3
Продолжительность : 1 ч. 25 м.
Вид битрейта : Постоянный
Битрейт : 224 Кбит/сек
Каналы : 2 канала
Channel layout : L R
Частота : 48,0 КГц
Частота кадров : 31,250 кадров/сек (1536 SPF)
Метод сжатия : С потерями
Размер потока : 137 Мбайт (4%)
Заголовок : Русский BD
Service kind : Complete Main
Default : Да
Forced : Нет

Аудио #2
Идентификатор : 3
Формат : FLAC
Формат/Информация : Free Lossless Audio Codec
Идентификатор кодека : A_FLAC
Продолжительность : 1 ч. 25 м.
Вид битрейта : Переменный
Битрейт : 1 286 Кбит/сек
Каналы : 2 канала
Channel layout : L R
Частота : 48,0 КГц
Частота кадров : 11,719 кадров/сек (4096 SPF)
Битовая глубина : 24 бит
Метод сжатия : Без потерь
Размер потока : 788 Мбайт (22%)
Заголовок : Русский BD
Библиотека кодирования : libFLAC 1.2.1 (UTC 2007-09-17)
Default : Нет
Forced : Нет

Меню
00:00:00.000 : fr:Chapitre 1
00:09:59.760 : fr:Chapitre 2
00:20:00.000 : fr:Chapitre 3
00:30:00.480 : fr:Chapitre 4
00:40:00.560 : fr:Chapitre 5
00:50:00.320 : fr:Chapitre 6
01:00:00.240 : fr:Chapitre 7
01:10:00.240 : fr:Chapitre 8
01:20:00.520 : fr:Chapitre 9
Загрузка...Cкриншот1 Прорыв (1969) BDRip 1080p [HEVC] 10 bit от ADVOKAT69Загрузка...Cкриншот2 Прорыв (1969) BDRip 1080p [HEVC] 10 bit от ADVOKAT69Загрузка...Cкриншот3 Прорыв (1969) BDRip 1080p [HEVC] 10 bit от ADVOKAT69Загрузка...Cкриншот4 Прорыв (1969) BDRip 1080p [HEVC] 10 bit от ADVOKAT69
Сэмпл
3. Направление главного удара (1970) BDRip 1080p [HEVC] 10 bit от ADVOKAT69
HEVC
10 bit
Обложка Направление главного удара (1970) BDRip 1080p [HEVC] 10 bit от ADVOKAT69 Год: 1970
Страна: СССР, Польша, ГДР
Студия: Мосфильм, Zespół Filmowy "Start", DEFA
Жанр: Военный, Драма
Продолжительность: 02:02:14

Режиссер: Юрий Озеров
В ролях: Михаил Ульянов, Василий Шукшин, Николай Олялин, Лариса Голубкина, Михаил Ножкин, Владислав Стржельчик, Сергей Никоненко, Всеволод Санаев, Борис Зайденберг, Валерий Носик, Юрий Каморный, Бухути Закариадзе, Иван Переверзев, Анатолий Ромашин, Владимир Заманский, Николай Рыбников, Барбара Брыльска, Лев Прыгунов

Описание: Фильм третий «Направление главного удара» посвящен операции «Багратион», в результате которой была полностью освобождена от фашистских войск Белоруссия и войска Красной Армии вышли к государственной границе.


Исходник: BDRemux [FRA Transfer]
Видео: 1920x824, ~5373 Кбит/сек
Аудио1: Аудио1: AC3, 2 ch, 224 Kbps - Русский BD
Аудио2: Аудио2: Flac, 2 ch, 1334 Kbps - Русский BD
Субтитры: нет

Как за пару секунд удалить ненужные аудиодорожки и субтитры (Внимание! После удаления вы не сможете поддержать раздачу)

Лог (x265 info)
x265 [info]: frame I: 991, Avg QP:18.17 kb/s: 20688.14
x265 [info]: frame P: 37946, Avg QP:19.60 kb/s: 12792.93
x265 [info]: frame B: 144437, Avg QP:21.78 kb/s: 3318.03
x265 [info]: Weighted P-Frames: Y:41.0% UV:23.7%
x265 [info]: Weighted B-Frames: Y:40.7% UV:20.6%
x265 [info]: consecutive B-frames: 2.1% 3.4% 4.6% 40.9% 16.0% 28.0% 3.7% 1.1% 0.1% 0.1%

encoded 183374 frames in 198093.89s (0.93 fps), 5372.56 kb/s, Avg QP:21.31
Медиаинфо
Общее
Уникальный идентификатор : 187270037083633598046447259086576430825 (0x8CE2E5AF97D43F7CBFB59FACB0AC2EE9)
Полное имя : D:\Направление главного удара (1970).mkv
Формат : Matroska
Версия формата : Version 4
Размер файла : 5,93 Гбайт
Продолжительность : 2 ч. 2 м.
Режим общего битрейта : Переменный
Общий поток : 6 944 Кбит/сек
Дата кодирования : UTC 2021-12-07 16:08:09
Программа кодирования : mkvmerge v9.2.0 ('Photograph') 64bit
Библиотека кодирования : libebml v1.3.3 + libmatroska v1.4.4

Видео
Идентификатор : 1
Формат : HEVC
Формат/Информация : High Efficiency Video Coding
Профиль формата : Main 10@L4.1@High
Идентификатор кодека : V_MPEGH/ISO/HEVC
Продолжительность : 2 ч. 2 м.
Битрейт : 5 373 Кбит/сек
Ширина : 1 920 пикселей
Высота : 824 пикселя
Соотношение сторон : 2,35:1
Режим частоты кадров : Постоянный
Частота кадров : 25,000 кадров/сек
Цветовое пространство : YUV
Субдискретизация насыщенности : 4:2:0
Битовая глубина : 10 бит
Бит/(Пиксели*Кадры) : 0.136
Размер потока : 4,59 Гбайт (77%)
Библиотека кодирования : x265 3.5+1-ce882936d:[Windows][MSVC 1928][64 bit] 10bit
Настройки программы : cpuid=1049583 / frame-threads=3 / numa-pools=8 / wpp / no-pmode / no-pme / no-psnr / no-ssim / log-level=2 / input-csp=1 / input-res=1920x824 / interlace=0 / total-frames=183374 / level-idc=41 / high-tier=1 / uhd-bd=0 / ref=5 / no-allow-non-conformance / no-repeat-headers / annexb / no-aud / no-hrd / info / hash=0 / no-temporal-layers / open-gop / min-keyint=24 / keyint=240 / gop-lookahead=0 / bframes=9 / b-adapt=2 / b-pyramid / bframe-bias=0 / rc-lookahead=40 / lookahead-slices=4 / scenecut=40 / hist-scenecut=0 / radl=0 / no-splice / no-intra-refresh / ctu=32 / min-cu-size=8 / rect / no-amp / max-tu-size=32 / tu-inter-depth=4 / tu-intra-depth=4 / limit-tu=1 / rdoq-level=2 / dynamic-rd=4.00 / no-ssim-rd / signhide / no-tskip / nr-intra=0 / nr-inter=0 / constrained-intra / no-strong-intra-smoothing / max-merge=3 / limit-refs=3 / limit-modes / me=3 / subme=7 / merange=57 / temporal-mvp / no-frame-dup / no-hme / weightp / weightb / no-analyze-src-pics / deblock=-2:-2 / no-sao / no-sao-non-deblock / rd=4 / selective-sao=0 / no-early-skip / rskip / no-fast-intra / no-tskip-fast / no-cu-lossless / b-intra / no-splitrd-skip / rdpenalty=0 / psy-rd=1.50 / psy-rdoq=0.70 / no-rd-refine / no-lossless / cbqpoffs=0 / crqpoffs=0 / rc=crf / crf=19.5 / qcomp=0.60 / qpstep=4 / stats-write=0 / stats-read=0 / vbv-maxrate=50000 / vbv-bufsize=50000 / vbv-init=0.9 / min-vbv-fullness=50.0 / max-vbv-fullness=80.0 / crf-max=0.0 / crf-min=0.0 / ipratio=1.40 / pbratio=1.30 / aq-mode=2 / aq-strength=0.80 / no-cutree / zone-count=0 / no-strict-cbr / qg-size=32 / no-rc-grain / qpmax=69 / qpmin=0 / no-const-vbv / sar=1 / overscan=0 / videoformat=5 / range=0 / colorprim=1 / transfer=1 / colormatrix=1 / chromaloc=0 / display-window=0 / cll=0,0 / min-luma=0 / max-luma=1023 / log2-max-poc-lsb=8 / vui-timing-info / vui-hrd-info / slices=1 / no-opt-qp-pps / no-opt-ref-list-length-pps / no-multi-pass-opt-rps / scenecut-bias=0.05 / hist-threshold=0.03 / no-opt-cu-delta-qp / no-aq-motion / no-hdr10 / no-hdr10-opt / no-dhdr10-opt / no-idr-recovery-sei / analysis-reuse-level=0 / analysis-save-reuse-level=0 / analysis-load-reuse-level=0 / scale-factor=0 / refine-intra=0 / refine-inter=0 / refine-mv=1 / refine-ctu-distortion=0 / no-limit-sao / ctu-info=0 / no-lowpass-dct / refine-analysis-type=0 / copy-pic=1 / max-ausize-factor=1.0 / no-dynamic-refine / no-single-sei / no-hevc-aq / no-svt / no-field / qp-adaptation-range=1.00 / scenecut-aware-qp=0conformance-window-offsets / right=0 / bottom=0 / decoder-max-rate=0 / no-vbv-live-multi-pass
Default : Да
Forced : Нет
Цветовой диапазон : Limited
Основные цвета : BT.709
Характеристики трансфера : BT.709
Коэффициенты матрицы : BT.709

Аудио #1
Идентификатор : 2
Формат : AC-3
Формат/Информация : Audio Coding 3
Коммерческое название : Dolby Digital
Идентификатор кодека : A_AC3
Продолжительность : 2 ч. 2 м.
Вид битрейта : Постоянный
Битрейт : 224 Кбит/сек
Каналы : 2 канала
Channel layout : L R
Частота : 48,0 КГц
Частота кадров : 31,250 кадров/сек (1536 SPF)
Метод сжатия : С потерями
Размер потока : 196 Мбайт (3%)
Заголовок : Русский BD
Service kind : Complete Main
Default : Да
Forced : Нет

Аудио #2
Идентификатор : 3
Формат : FLAC
Формат/Информация : Free Lossless Audio Codec
Идентификатор кодека : A_FLAC
Продолжительность : 2 ч. 2 м.
Вид битрейта : Переменный
Битрейт : 1 344 Кбит/сек
Каналы : 2 канала
Channel layout : L R
Частота : 48,0 КГц
Частота кадров : 11,719 кадров/сек (4096 SPF)
Битовая глубина : 24 бит
Метод сжатия : Без потерь
Размер потока : 1,15 Гбайт (19%)
Заголовок : Русский BD
Библиотека кодирования : libFLAC 1.2.1 (UTC 2007-09-17)
Default : Нет
Forced : Нет

Меню
00:00:00.000 : fr:Chapitre 01
00:09:59.960 : fr:Chapitre 02
00:20:00.280 : fr:Chapitre 03
00:29:59.680 : fr:Chapitre 04
00:40:00.200 : fr:Chapitre 05
00:49:59.800 : fr:Chapitre 06
00:59:59.840 : fr:Chapitre 07
01:09:59.960 : fr:Chapitre 08
01:20:00.520 : fr:Chapitre 09
01:29:59.800 : fr:Chapitre 10
01:40:00.360 : fr:Chapitre 11
01:49:59.720 : fr:Chapitre 12
02:00:00.240 : fr:Chapitre 13
Загрузка...Cкриншот1 Направление главного удара (1970) BDRip 1080p [HEVC] 10 bit от ADVOKAT69Загрузка...Cкриншот2 Направление главного удара (1970) BDRip 1080p [HEVC] 10 bit от ADVOKAT69Загрузка...Cкриншот3 Направление главного удара (1970) BDRip 1080p [HEVC] 10 bit от ADVOKAT69Загрузка...Cкриншот4 Направление главного удара (1970) BDRip 1080p [HEVC] 10 bit от ADVOKAT69
Сэмпл
4. Битва за Берлин (1971) BDRip 1080p [HEVC] 10 bit от ADVOKAT69
HEVC
10 bit
Обложка Битва за Берлин (1971) BDRip 1080p [HEVC] 10 bit от ADVOKAT69 Год: 1971
Страна: СССР, Польша, ГДР, Италия
Студия: Мосфильм, PRF Zespół Filmowy, DEFA, Dino de Laurentiis Cinematografica
Жанр: Военный, Драма
Продолжительность: 01:19:03

Режиссер: Юрий Озеров
В ролях: Михаил Ульянов, Василий Шукшин, Николай Олялин, Лариса Голубкина, Михаил Ножкин, Владислав Стржельчик, Сергей Никоненко, Всеволод Санаев, Борис Зайденберг, Валерий Носик, Юрий Каморный, Бухути Закариадзе, Иван Переверзев, Анатолий Ромашин, Владимир Заманский, Николай Рыбников, Барбара Брыльска, Даниэль Ольбрыхский, Фриц Диц

Описание: Последние месяцы войны, началась Висло-Одерская операция. Три фронта под командованием Конева, Жукова и Рокоссовского устремились к столице Германии. К Берлину идут и англо-американские войска. «Опередить русских», — предлагает Черчиль и начинаются тайные переговоры с эмиссарами Гитлера. Судьба Берлина решится на полях сражений.


Исходник: BDRemux [FRA Transfer]
Видео: 1920x824, ~5057 Кбит/сек
Аудио1: Аудио1: AC3, 2 ch, 224 Kbps - Русский BD
Аудио2: Аудио2: Flac, 2 ch, 1334 Kbps - Русский BD
Субтитры: нет

Как за пару секунд удалить ненужные аудиодорожки и субтитры (Внимание! После удаления вы не сможете поддержать раздачу)

Лог (x265 info)
x265 [info]: frame I: 645, Avg QP:17.79 kb/s: 19417.64
x265 [info]: frame P: 25277, Avg QP:19.25 kb/s: 11919.50
x265 [info]: frame B: 92656, Avg QP:21.49 kb/s: 3083.96
x265 [info]: Weighted P-Frames: Y:37.9% UV:24.9%
x265 [info]: Weighted B-Frames: Y:33.0% UV:18.7%
x265 [info]: consecutive B-frames: 2.3% 3.1% 4.8% 47.3% 14.2% 24.9% 2.3% 0.8% 0.1% 0.0%

encoded 118578 frames in 116795.49s (1.02 fps), 5056.26 kb/s, Avg QP:20.99
Медиаинфо
Общее
Уникальный идентификатор : 195639148808137887772968840176121251869 (0x932EBAC068446EA289786F575CC5881D)
Полное имя : D:\Битва за Берлин (1971).mkv
Формат : Matroska
Версия формата : Version 4
Размер файла : 3,60 Гбайт
Продолжительность : 1 ч. 19 м.
Режим общего битрейта : Переменный
Общий поток : 6 519 Кбит/сек
Дата кодирования : UTC 2021-12-14 17:19:12
Программа кодирования : mkvmerge v9.2.0 ('Photograph') 64bit
Библиотека кодирования : libebml v1.3.3 + libmatroska v1.4.4

Видео
Идентификатор : 1
Формат : HEVC
Формат/Информация : High Efficiency Video Coding
Профиль формата : Main 10@L4.1@High
Идентификатор кодека : V_MPEGH/ISO/HEVC
Продолжительность : 1 ч. 19 м.
Битрейт : 5 057 Кбит/сек
Ширина : 1 920 пикселей
Высота : 824 пикселя
Соотношение сторон : 2,35:1
Режим частоты кадров : Постоянный
Частота кадров : 25,000 кадров/сек
Цветовое пространство : YUV
Субдискретизация насыщенности : 4:2:0
Битовая глубина : 10 бит
Бит/(Пиксели*Кадры) : 0.128
Размер потока : 2,79 Гбайт (78%)
Библиотека кодирования : x265 3.5+1-ce882936d:[Windows][MSVC 1928][64 bit] 10bit
Настройки программы : cpuid=1049583 / frame-threads=3 / numa-pools=8 / wpp / no-pmode / no-pme / no-psnr / no-ssim / log-level=2 / input-csp=1 / input-res=1920x824 / interlace=0 / total-frames=118578 / level-idc=41 / high-tier=1 / uhd-bd=0 / ref=5 / no-allow-non-conformance / no-repeat-headers / annexb / no-aud / no-hrd / info / hash=0 / no-temporal-layers / open-gop / min-keyint=24 / keyint=240 / gop-lookahead=0 / bframes=9 / b-adapt=2 / b-pyramid / bframe-bias=0 / rc-lookahead=40 / lookahead-slices=4 / scenecut=40 / hist-scenecut=0 / radl=0 / no-splice / no-intra-refresh / ctu=32 / min-cu-size=8 / rect / no-amp / max-tu-size=32 / tu-inter-depth=4 / tu-intra-depth=4 / limit-tu=1 / rdoq-level=2 / dynamic-rd=4.00 / no-ssim-rd / signhide / no-tskip / nr-intra=0 / nr-inter=0 / constrained-intra / no-strong-intra-smoothing / max-merge=3 / limit-refs=3 / limit-modes / me=3 / subme=7 / merange=57 / temporal-mvp / no-frame-dup / no-hme / weightp / weightb / no-analyze-src-pics / deblock=-2:-2 / no-sao / no-sao-non-deblock / rd=4 / selective-sao=0 / no-early-skip / rskip / no-fast-intra / no-tskip-fast / no-cu-lossless / b-intra / no-splitrd-skip / rdpenalty=0 / psy-rd=1.50 / psy-rdoq=0.70 / no-rd-refine / no-lossless / cbqpoffs=0 / crqpoffs=0 / rc=crf / crf=19.5 / qcomp=0.60 / qpstep=4 / stats-write=0 / stats-read=0 / vbv-maxrate=50000 / vbv-bufsize=50000 / vbv-init=0.9 / min-vbv-fullness=50.0 / max-vbv-fullness=80.0 / crf-max=0.0 / crf-min=0.0 / ipratio=1.40 / pbratio=1.30 / aq-mode=2 / aq-strength=0.80 / no-cutree / zone-count=0 / no-strict-cbr / qg-size=32 / no-rc-grain / qpmax=69 / qpmin=0 / no-const-vbv / sar=1 / overscan=0 / videoformat=5 / range=0 / colorprim=1 / transfer=1 / colormatrix=1 / chromaloc=0 / display-window=0 / cll=0,0 / min-luma=0 / max-luma=1023 / log2-max-poc-lsb=8 / vui-timing-info / vui-hrd-info / slices=1 / no-opt-qp-pps / no-opt-ref-list-length-pps / no-multi-pass-opt-rps / scenecut-bias=0.05 / hist-threshold=0.03 / no-opt-cu-delta-qp / no-aq-motion / no-hdr10 / no-hdr10-opt / no-dhdr10-opt / no-idr-recovery-sei / analysis-reuse-level=0 / analysis-save-reuse-level=0 / analysis-load-reuse-level=0 / scale-factor=0 / refine-intra=0 / refine-inter=0 / refine-mv=1 / refine-ctu-distortion=0 / no-limit-sao / ctu-info=0 / no-lowpass-dct / refine-analysis-type=0 / copy-pic=1 / max-ausize-factor=1.0 / no-dynamic-refine / no-single-sei / no-hevc-aq / no-svt / no-field / qp-adaptation-range=1.00 / scenecut-aware-qp=0conformance-window-offsets / right=0 / bottom=0 / decoder-max-rate=0 / no-vbv-live-multi-pass
Default : Да
Forced : Нет
Цветовой диапазон : Limited
Основные цвета : BT.709
Характеристики трансфера : BT.709
Коэффициенты матрицы : BT.709

Аудио #1
Идентификатор : 2
Формат : AC-3
Формат/Информация : Audio Coding 3
Коммерческое название : Dolby Digital
Идентификатор кодека : A_AC3
Продолжительность : 1 ч. 19 м.
Вид битрейта : Постоянный
Битрейт : 224 Кбит/сек
Каналы : 2 канала
Channel layout : L R
Частота : 48,0 КГц
Частота кадров : 31,250 кадров/сек (1536 SPF)
Метод сжатия : С потерями
Размер потока : 127 Мбайт (3%)
Заголовок : Русский BD
Service kind : Complete Main
Default : Да
Forced : Нет

Аудио #2
Идентификатор : 3
Формат : FLAC
Формат/Информация : Free Lossless Audio Codec
Идентификатор кодека : A_FLAC
Продолжительность : 1 ч. 19 м.
Вид битрейта : Переменный
Битрейт : 1 236 Кбит/сек
Каналы : 2 канала
Channel layout : L R
Частота : 48,0 КГц
Частота кадров : 11,719 кадров/сек (4096 SPF)
Битовая глубина : 24 бит
Метод сжатия : Без потерь
Размер потока : 699 Мбайт (19%)
Заголовок : Русский BD
Библиотека кодирования : libFLAC 1.2.1 (UTC 2007-09-17)
Default : Нет
Forced : Нет

Меню
00:00:00.000 : fr:Chapitre 1
00:09:59.800 : fr:Chapitre 2
00:20:00.160 : fr:Chapitre 3
00:29:59.960 : fr:Chapitre 4
00:40:00.280 : fr:Chapitre 5
00:50:00.560 : fr:Chapitre 6
01:00:00.120 : fr:Chapitre 7
01:09:59.840 : fr:Chapitre 8
Загрузка...Cкриншот1 Битва за Берлин (1971) BDRip 1080p [HEVC] 10 bit от ADVOKAT69Загрузка...Cкриншот2 Битва за Берлин (1971) BDRip 1080p [HEVC] 10 bit от ADVOKAT69Загрузка...Cкриншот3 Битва за Берлин (1971) BDRip 1080p [HEVC] 10 bit от ADVOKAT69Загрузка...Cкриншот4 Битва за Берлин (1971) BDRip 1080p [HEVC] 10 bit от ADVOKAT69
Сэмпл
5. Последний штурм (1971) BDRip 1080p [HEVC] 10 bit от ADVOKAT69
HEVC
10 bit
Обложка Последний штурм (1971) BDRip 1080p [HEVC] 10 bit от ADVOKAT69 Год: 1971
Страна: СССР, ГДР
Студия: Мосфильм, DEFA
Жанр: Военный, Драма, История
Продолжительность: 01:11:24

Режиссер: Юрий Озеров
В ролях: Михаил Ульянов, Николай Олялин, Лариса Голубкина, Михаил Ножкин, Фриц Диц, Валерий Носик, Ангелика Валлер, Леонид Куравлёв, Анатолий Ромашин, Василий Шукшин, Борис Зайденберг, Владислав Стржельчик, Владимир Коренев, Артем Карапетян

Описание: Заключительная часть эпопеи. Последние дни войны, штурм рейхстага, сражение за каждый метр, за каждый этаж, и, наконец, водружение Знамени Победы над рейхстагом. Раздались первые залпы Победы. Главные герои фильма встречаются у входа в рейхстаг.


Исходник: BDRemux [FRA Transfer]
Видео: 1920x824, ~4957 Кбит/сек
Аудио1: Аудио1: AC3, 2 ch, 224 Kbps - Русский BD
Аудио2: Аудио2: Flac, 2 ch, 1334 Kbps - Русский BD
Субтитры: нет

Как за пару секунд удалить ненужные аудиодорожки и субтитры (Внимание! После удаления вы не сможете поддержать раздачу)

Лог (x265 info)
x265 [info]: frame I: 574, Avg QP:17.73 kb/s: 18386.98
x265 [info]: frame P: 22950, Avg QP:19.29 kb/s: 11493.81
x265 [info]: frame B: 83599, Avg QP:21.44 kb/s: 3068.91
x265 [info]: Weighted P-Frames: Y:35.6% UV:25.1%
x265 [info]: Weighted B-Frames: Y:28.5% UV:18.6%
x265 [info]: consecutive B-frames: 1.9% 2.1% 4.3% 52.3% 12.3% 24.5% 1.8% 0.6% 0.1% 0.1%

encoded 107123 frames in 121055.48s (0.88 fps), 4955.94 kb/s, Avg QP:20.96
Медиаинфо
Общее
Уникальный идентификатор : 252324769570805544979408799690065680626 (0xBDD3FBA222087D18A486B693431398F2)
Полное имя : D:\Освобождение (1968 - 1971) HEVC 10bit\5.Последний штурм (1971).mkv
Формат : Matroska
Версия формата : Version 4
Размер файла : 3,24 Гбайт
Продолжительность : 1 ч. 11 м.
Режим общего битрейта : Переменный
Общий поток : 6 500 Кбит/сек
Дата кодирования : UTC 2021-12-22 18:26:46
Программа кодирования : mkvmerge v9.2.0 ('Photograph') 64bit
Библиотека кодирования : libebml v1.3.3 + libmatroska v1.4.4

Видео
Идентификатор : 1
Формат : HEVC
Формат/Информация : High Efficiency Video Coding
Профиль формата : Main 10@L4.1@High
Идентификатор кодека : V_MPEGH/ISO/HEVC
Продолжительность : 1 ч. 11 м.
Битрейт : 4 957 Кбит/сек
Ширина : 1 920 пикселей
Высота : 824 пикселя
Соотношение сторон : 2,35:1
Режим частоты кадров : Постоянный
Частота кадров : 25,000 кадров/сек
Цветовое пространство : YUV
Субдискретизация насыщенности : 4:2:0
Битовая глубина : 10 бит
Бит/(Пиксели*Кадры) : 0.125
Размер потока : 2,47 Гбайт (76%)
Библиотека кодирования : x265 3.5+1-ce882936d:[Windows][MSVC 1928][64 bit] 10bit
Настройки программы : cpuid=1049583 / frame-threads=3 / numa-pools=8 / wpp / no-pmode / no-pme / no-psnr / no-ssim / log-level=2 / input-csp=1 / input-res=1920x824 / interlace=0 / total-frames=107123 / level-idc=41 / high-tier=1 / uhd-bd=0 / ref=5 / no-allow-non-conformance / no-repeat-headers / annexb / no-aud / no-hrd / info / hash=0 / no-temporal-layers / open-gop / min-keyint=24 / keyint=240 / gop-lookahead=0 / bframes=9 / b-adapt=2 / b-pyramid / bframe-bias=0 / rc-lookahead=40 / lookahead-slices=4 / scenecut=40 / hist-scenecut=0 / radl=0 / no-splice / no-intra-refresh / ctu=32 / min-cu-size=8 / rect / no-amp / max-tu-size=32 / tu-inter-depth=4 / tu-intra-depth=4 / limit-tu=1 / rdoq-level=2 / dynamic-rd=4.00 / no-ssim-rd / signhide / no-tskip / nr-intra=0 / nr-inter=0 / constrained-intra / no-strong-intra-smoothing / max-merge=3 / limit-refs=3 / limit-modes / me=3 / subme=7 / merange=57 / temporal-mvp / no-frame-dup / no-hme / weightp / weightb / no-analyze-src-pics / deblock=-2:-2 / no-sao / no-sao-non-deblock / rd=4 / selective-sao=0 / no-early-skip / rskip / no-fast-intra / no-tskip-fast / no-cu-lossless / b-intra / no-splitrd-skip / rdpenalty=0 / psy-rd=1.50 / psy-rdoq=0.70 / no-rd-refine / no-lossless / cbqpoffs=0 / crqpoffs=0 / rc=crf / crf=19.5 / qcomp=0.60 / qpstep=4 / stats-write=0 / stats-read=0 / vbv-maxrate=50000 / vbv-bufsize=50000 / vbv-init=0.9 / min-vbv-fullness=50.0 / max-vbv-fullness=80.0 / crf-max=0.0 / crf-min=0.0 / ipratio=1.40 / pbratio=1.30 / aq-mode=2 / aq-strength=0.80 / no-cutree / zone-count=0 / no-strict-cbr / qg-size=32 / no-rc-grain / qpmax=69 / qpmin=0 / no-const-vbv / sar=1 / overscan=0 / videoformat=5 / range=0 / colorprim=1 / transfer=1 / colormatrix=1 / chromaloc=0 / display-window=0 / cll=0,0 / min-luma=0 / max-luma=1023 / log2-max-poc-lsb=8 / vui-timing-info / vui-hrd-info / slices=1 / no-opt-qp-pps / no-opt-ref-list-length-pps / no-multi-pass-opt-rps / scenecut-bias=0.05 / hist-threshold=0.03 / no-opt-cu-delta-qp / no-aq-motion / no-hdr10 / no-hdr10-opt / no-dhdr10-opt / no-idr-recovery-sei / analysis-reuse-level=0 / analysis-save-reuse-level=0 / analysis-load-reuse-level=0 / scale-factor=0 / refine-intra=0 / refine-inter=0 / refine-mv=1 / refine-ctu-distortion=0 / no-limit-sao / ctu-info=0 / no-lowpass-dct / refine-analysis-type=0 / copy-pic=1 / max-ausize-factor=1.0 / no-dynamic-refine / no-single-sei / no-hevc-aq / no-svt / no-field / qp-adaptation-range=1.00 / scenecut-aware-qp=0conformance-window-offsets / right=0 / bottom=0 / decoder-max-rate=0 / no-vbv-live-multi-pass
Default : Да
Forced : Нет
Цветовой диапазон : Limited
Основные цвета : BT.709
Характеристики трансфера : BT.709
Коэффициенты матрицы : BT.709

Аудио #1
Идентификатор : 2
Формат : AC-3
Формат/Информация : Audio Coding 3
Коммерческое название : Dolby Digital
Идентификатор кодека : A_AC3
Продолжительность : 1 ч. 11 м.
Вид битрейта : Постоянный
Битрейт : 224 Кбит/сек
Каналы : 2 канала
Channel layout : L R
Частота : 48,0 КГц
Частота кадров : 31,250 кадров/сек (1536 SPF)
Метод сжатия : С потерями
Размер потока : 114 Мбайт (3%)
Заголовок : Русский BD
Service kind : Complete Main
Default : Да
Forced : Нет

Аудио #2
Идентификатор : 3
Формат : FLAC
Формат/Информация : Free Lossless Audio Codec
Идентификатор кодека : A_FLAC
Продолжительность : 1 ч. 11 м.
Вид битрейта : Переменный
Битрейт : 1 317 Кбит/сек
Каналы : 2 канала
Channel layout : L R
Частота : 48,0 КГц
Частота кадров : 11,719 кадров/сек (4096 SPF)
Битовая глубина : 24 бит
Метод сжатия : Без потерь
Размер потока : 673 Мбайт (20%)
Заголовок : Русский BD
Библиотека кодирования : libFLAC 1.2.1 (UTC 2007-09-17)
Default : Нет
Forced : Нет

Меню
00:00:00.000 : fr:Chapitre 1
00:10:00.080 : fr:Chapitre 2
00:20:00.000 : fr:Chapitre 3
00:29:59.880 : fr:Chapitre 4
00:40:00.320 : fr:Chapitre 5
00:49:59.840 : fr:Chapitre 6
00:59:59.960 : fr:Chapitre 7
01:09:59.880 : fr:Chapitre 8
Загрузка...Cкриншот1 Последний штурм (1971) BDRip 1080p [HEVC] 10 bit от ADVOKAT69Загрузка...Cкриншот2 Последний штурм (1971) BDRip 1080p [HEVC] 10 bit от ADVOKAT69Загрузка...Cкриншот3 Последний штурм (1971) BDRip 1080p [HEVC] 10 bit от ADVOKAT69Загрузка...Cкриншот4 Последний штурм (1971) BDRip 1080p [HEVC] 10 bit от ADVOKAT69
Сэмпл
Торрент🧲 Магнет

Рейтинги КП и IMDB, кнопки "Позвать в чате" и "Спасибо", а также мультитрекерная статистика доступны только зарегистрированным/авторизованным пользователям!

Файлы: 5
  • Освобождение (1968 - 1971) HEVC 10bit
    • 1.Огненная дуга (1968).mkv   3.98 ГБ
    • 2.Прорыв (1969).mkv   3.45 ГБ
    • 3.Направление главного удара (1970).mkv   5.93 ГБ
    • 4.Битва за Берлин (1971).mkv   3.6 ГБ
    • 5.Последний штурм (1971).mkv   3.24 ГБ
Поблагодарили: 9
77carlsson77, and50, animen67, Chestnoc, FFantasy, ilyich05, makss333, normalllhuman, Rezident
ADVOKAT69
53006 (5)  20.2 ГБ

Добавление нового комментария

Добавление комментариев доступно только зарегистрированным/авторизованным пользователям.
Аватар ADVOKAT69
  ADVOKAT69  
george$t писал(а):
DVD "КП" 107067 кадров. С восстановленой фильмокопии, 2002 год.
4К YouTube 106802 кадра, включая информационные кадры о реставрации.
Blu-ray Ger 106026 кадров.
WEB-DL 1080p 105569 кадров. С восстановленой фильмокопии, 2003 год. На 51 минуте выпал конец эпизода с пастором и приездом Кребса на переговоры на 1500 кадров.
Blu-ray Fre 107123 кадра. С восстановленой фильмокопии, 2003 год.
Аватар ADVOKAT69
  ADVOKAT69  
Перенесен из темы Битва за Берлин (1971) BDRip 1080p [HEVC] 10 bit от ADVOKAT69
Спасибо george$t за BDRemux
george$t писал(а):
Дополнительно
Цитата:
... сравнение с немцем:
В четвертой части отсутствует эпизод более чем на 3 минуты с танковым боем. И затем почти сразу полминуты в начале эпизода с Рыбалко.
Аватар ADVOKAT69
  ADVOKAT69  
Перенесен из темы Направление главного удара (1970) BDRip 1080p [HEVC] 10 bit от ADVOKAT69
george$t писал(а):
По сравнению с германцем во французской версии нет двух эпизодов общей продолжительностью около 40 секунд - панорама танковых войск и пехоты при форсировании болот. В конец немецкого издания айссторм добавил локализованные дойче титры на 4000 кадров.
Аватар ADVOKAT69
  ADVOKAT69  
Перенесен из темы Огненная дуга (1968) BDRip 1080p [HEVC] 10 bit от ADVOKAT69
Godspeed писал(а):
Все пять фильмов будут?
да!
Аватар Godspeed
  Godspeed  
Перенесен из темы Огненная дуга (1968) BDRip 1080p [HEVC] 10 bit от ADVOKAT69
Все пять фильмов будут?