💬 Мини-чат

Убедительная просьба не обсуждать тут политику.
AdminЛёшикоБэст, вроде потихоньку идёт. Подождем, если не докачается, то встану.
AdminЛёшикоБэст, перекачайте торрент, а то в профиле не отображается ждете или уже нет
ЛёшикоБэстРаздайте, пожалуйста, Неудержимые / The Expendables (2010) [Theatrical Cut] BDRip 1080p [HEVC] 10 bit от Spartanec1308
OldGamerДа, есть.
ЛёшикоБэстДоброго вечера) Скажите пожалуйста, есть ли в планах сделать релиз дилогии "Зорро" с Антонио Бандерасом?
HANNIBALAdmin, 👍
AdminГоро, встал
ГороРаздайте, пожалуйста, Хищники / Predators (2010) BDRip 1080p [HEVC] 10 bit от HANNIBAL
AdminHANNIBAL, привет. Не помню за сколько брал, но продление в этот раз обошлось примерно в $14 со всякими комиссиями. А аренда VDS обходится примерно в $30-35 за год. Не исключено, что всё это подорожает. Пока что пожертвования с трудом покрывают расходы. Иногда если требуется и со своего кармана оплачиваю, не страшно. Прорвемся.
HANNIBALсколько сейчас стоит
HANNIBALAdmin, ПРИВЕТ
AdminНаконец-то получил банковскую карту. Продлил доменное имя (адрес сайта) на год.
  • ivan_1965
Отправка сообщений доступна только зарегистрированным/авторизованным пользователям.
Онлайн (за 10 мин.): 1

По ту сторону океана (Большая рыба и Бегония) / Da yu hai tang (2016) BDRip 1080p [HEVC] 10 bit от -Star-Lord- (RG RIPS CLUB)

HEVC
10 bit
Обложка По ту сторону океана (Большая рыба и Бегония) / Da yu hai tang (2016) BDRip 1080p [HEVC] 10 bit от -Star-Lord- (RG RIPS CLUB) Год: 2016
Страна: Китай
Студия: B&T, Huoerguosi ENLIGHT MEDIA, Studio Mir
Жанр: Мультфильм, Аниме, Фэнтези, Мелодрама
Продолжительность: 01:45:14

Режиссер: Лян Сюань, Чжан Чунь
В ролях: Цзи Гуаньлинь, Су Шанцин, Сюй Вэйчжоу, Цзинь Шицзя, Пань Шулань, Чжан Юаньюань, Цзюэр, Сюэ Лифан, Чжан Цзе, Лю Сяоюй

Описание: В сердце океана сокрыт волшебный мир — обитель существ, управляющих течениями и сменой времён года. У них есть традиция: как только обитатель того мира достигает 16-летия, он должен на 7 дней отправиться в мир людей. Девушка Юна принимает облик красного дельфина и плывет посмотреть на человечество, но попадает в рыболовные сети. Ценой собственной жизни её спасает местный парень, и тогда Юна, чувствуя вину и ответственность, обращает его душу в маленькую рыбку и берет её с собой в волшебный мир.


Исходник: Big.Fish.and.Begonia.2016.MULTi.COMPLETE.BLURAY-GMB
Видео: 1920x804, ~4220 Кбит/сек
Аудио1: AC3, 6 ch, 384 Kbps - РусскийРусский, Дублированный (iTunes)
Аудио2: AC3, 6 ch, 448 Kbps - РусскийРусский, Профессиональный многоголосый закадровый (NewComers)
Аудио3: AC3, 2 ch, 192 Kbps - РусскийРусский, Любительский многоголосый закадровый (AniDub)
Аудио4: AC3, 6 ch, 640 Kbps - УкраинскийУкраинский, Любительский двухголосый закадровый (AniTube.in.ua)
Аудио5: AC3, 6 ch, 640 Kbps - КитайскийКитайский, Оригинал
Субтитры: русские (форс., полные х2), украинские (форс., полные), английские

Как за пару секунд удалить ненужные аудиодорожки и субтитры (Внимание! После удаления вы не сможете поддержать раздачу)

Лог (x265 info)
x265 [info]: frame I: 1214, Avg QP:13.72 kb/s: 18353.71
x265 [info]: frame P: 33182, Avg QP:15.29 kb/s: 8337.46
x265 [info]: frame B: 117154, Avg QP:18.10 kb/s: 2905.58
x265 [info]: Weighted P-Frames: Y:6.2% UV:4.9%
x265 [info]: Weighted B-Frames: Y:5.1% UV:3.4%
x265 [info]: consecutive B-frames: 7.6% 6.7% 17.8% 33.8% 12.6% 9.8% 2.6% 2.6% 1.6% 1.0% 1.3% 1.7% 0.3% 0.1% 0.1% 0.0% 0.2%

encoded 151550 frames in 111171.47s (1.36 fps), 4218.64 kb/s, Avg QP:17.45
Медиаинфо
General
Unique ID : 324935240231665925120598951081824111367 (0xF474403BF52E9F42983C58A055F64B07)
Complete name : Da yu hai tang (2016) BDRip 1080p H.265 [3xRUS_UKR_CHI] [RIPS-CLUB].mkv
Format : Matroska
Format version : Version 4
File size : 4.80 GiB
Duration : 1 h 45 min
Overall bit rate : 6 529 kb/s
Movie name : По ту сторону океана (Большая рыба и Бегония) / Велика риба та яблуня (По той бік океану) / Big Fish and Begonia / 大鱼海棠 / Da yu hai tang (2016)
Encoded date : UTC 2021-12-28 18:36:16
Writing application : mkvmerge v64.0.0 ('Willows') 64-bit
Writing library : libebml v1.4.2 + libmatroska v1.6.4
Cover : Yes
Attachments : CAMBRIAI.TTF / DS BroadBrush.ttf / segoeprb.ttf / segoescb.ttf / Cover.jpg

Video
ID : 1
Format : HEVC
Format/Info : High Efficiency Video Coding
Format profile : Main 10@L4.1@High
Codec ID : V_MPEGH/ISO/HEVC
Duration : 1 h 45 min
Bit rate : 4 220 kb/s
Width : 1 920 pixels
Height : 804 pixels
Display aspect ratio : 2.40:1
Frame rate mode : Constant
Frame rate : 24.000 FPS
Color space : YUV
Chroma subsampling : 4:2:0
Bit depth : 10 bits
Bits/(Pixel*Frame) : 0.114
Stream size : 3.10 GiB (65%)
Title : По ту сторону океана (Большая рыба и Бегония) / Велика риба та яблуня (По той бік океану) / Big Fish and Begonia / 大鱼海棠 / Da yu hai tang (2016)
Writing library : x265 3.5+1-ce882936d:[Windows][GCC 10.2.0][64 bit] 10bit
Encoding settings : cpuid=1111039 / frame-threads=3 / numa-pools=12 / wpp / no-pmode / no-pme / no-psnr / no-ssim / log-level=2 / input-csp=1 / input-res=1920x804 / interlace=0 / total-frames=151550 / level-idc=41 / high-tier=1 / uhd-bd=0 / ref=5 / no-allow-non-conformance / no-repeat-headers / annexb / no-aud / no-hrd / info / hash=0 / no-temporal-layers / open-gop / min-keyint=24 / keyint=240 / gop-lookahead=0 / bframes=16 / b-adapt=2 / b-pyramid / bframe-bias=0 / rc-lookahead=60 / lookahead-slices=4 / scenecut=40 / hist-scenecut=0 / radl=0 / no-splice / no-intra-refresh / ctu=32 / min-cu-size=8 / rect / amp / max-tu-size=32 / tu-inter-depth=4 / tu-intra-depth=4 / limit-tu=1 / rdoq-level=2 / dynamic-rd=0.00 / no-ssim-rd / signhide / no-tskip / nr-intra=0 / nr-inter=0 / no-constrained-intra / no-strong-intra-smoothing / max-merge=5 / limit-refs=2 / limit-modes / me=3 / subme=7 / merange=57 / temporal-mvp / no-frame-dup / no-hme / weightp / weightb / no-analyze-src-pics / deblock=-3:-3 / no-sao / no-sao-non-deblock / rd=6 / selective-sao=0 / no-early-skip / no-rskip / no-fast-intra / no-tskip-fast / no-cu-lossless / no-b-intra / no-splitrd-skip / rdpenalty=0 / psy-rd=2.00 / psy-rdoq=1.00 / no-rd-refine / no-lossless / cbqpoffs=0 / crqpoffs=0 / rc=crf / crf=19.5 / qcomp=0.80 / qpstep=4 / stats-write=0 / stats-read=0 / vbv-maxrate=50000 / vbv-bufsize=50000 / vbv-init=0.9 / min-vbv-fullness=50.0 / max-vbv-fullness=80.0 / crf-max=0.0 / crf-min=0.0 / ipratio=1.40 / pbratio=1.30 / aq-mode=3 / aq-strength=1.00 / no-cutree / zone-count=0 / no-strict-cbr / qg-size=32 / no-rc-grain / qpmax=69 / qpmin=0 / no-const-vbv / sar=1 / overscan=0 / videoformat=5 / range=0 / colorprim=2 / transfer=2 / colormatrix=2 / chromaloc=0 / display-window=0 / cll=0,0 / min-luma=0 / max-luma=1023 / log2-max-poc-lsb=8 / vui-timing-info / vui-hrd-info / slices=1 / no-opt-qp-pps / no-opt-ref-list-length-pps / no-multi-pass-opt-rps / scenecut-bias=0.05 / hist-threshold=0.03 / no-opt-cu-delta-qp / no-aq-motion / no-hdr10 / no-hdr10-opt / no-dhdr10-opt / no-idr-recovery-sei / analysis-reuse-level=0 / analysis-save-reuse-level=0 / analysis-load-reuse-level=0 / scale-factor=0 / refine-intra=0 / refine-inter=0 / refine-mv=1 / refine-ctu-distortion=0 / no-limit-sao / ctu-info=0 / no-lowpass-dct / refine-analysis-type=0 / copy-pic=1 / max-ausize-factor=1.0 / no-dynamic-refine / no-single-sei / no-hevc-aq / no-svt / no-field / qp-adaptation-range=1.00 / scenecut-aware-qp=0conformance-window-offsets / right=0 / bottom=0 / decoder-max-rate=0 / no-vbv-live-multi-pass
Language : Chinese
Default : Yes
Forced : Yes

Audio #1
ID : 2
Format : AC-3
Format/Info : Audio Coding 3
Commercial name : Dolby Digital
Codec ID : A_AC3
Duration : 1 h 45 min
Bit rate mode : Constant
Bit rate : 384 kb/s
Channel(s) : 6 channels
Channel layout : L R C LFE Ls Rs
Sampling rate : 48.0 kHz
Frame rate : 31.250 FPS (1536 SPF)
Bit depth : 32 bits
Compression mode : Lossy
Stream size : 289 MiB (6%)
Title : AC-3 / 5.1 Ch / 384 kbps / DUB / iTunes
Language : Russian
Service kind : Complete Main
Default : Yes
Forced : Yes

Audio #2
ID : 3
Format : AC-3
Format/Info : Audio Coding 3
Commercial name : Dolby Digital
Codec ID : A_AC3
Duration : 1 h 45 min
Bit rate mode : Constant
Bit rate : 448 kb/s
Channel(s) : 6 channels
Channel layout : L R C LFE Ls Rs
Sampling rate : 48.0 kHz
Frame rate : 31.250 FPS (1536 SPF)
Bit depth : 32 bits
Compression mode : Lossy
Stream size : 337 MiB (7%)
Title : AC-3 / 5.1 Ch / 448 kbps / MVO / NewComers
Language : Russian
Service kind : Complete Main
Default : No
Forced : No

Audio #3
ID : 4
Format : AC-3
Format/Info : Audio Coding 3
Commercial name : Dolby Digital
Codec ID : A_AC3
Duration : 1 h 45 min
Bit rate mode : Constant
Bit rate : 192 kb/s
Channel(s) : 2 channels
Channel layout : L R
Sampling rate : 48.0 kHz
Frame rate : 31.250 FPS (1536 SPF)
Compression mode : Lossy
Stream size : 145 MiB (3%)
Title : AC-3 / 2.0 Ch / 192 kbps / MVO / AniDub
Language : Russian
Service kind : Complete Main
Default : No
Forced : No

Audio #4
ID : 5
Format : AC-3
Format/Info : Audio Coding 3
Commercial name : Dolby Digital
Codec ID : A_AC3
Duration : 1 h 45 min
Bit rate mode : Constant
Bit rate : 640 kb/s
Channel(s) : 6 channels
Channel layout : L R C LFE Ls Rs
Sampling rate : 48.0 kHz
Frame rate : 31.250 FPS (1536 SPF)
Bit depth : 16 bits
Compression mode : Lossy
Stream size : 482 MiB (10%)
Title : AC-3 / 5.1 Ch / 640 kbps / DVO / AniTube.in.ua
Language : Ukrainian
Service kind : Complete Main
Default : No
Forced : No

Audio #5
ID : 6
Format : AC-3
Format/Info : Audio Coding 3
Commercial name : Dolby Digital
Codec ID : A_AC3
Duration : 1 h 45 min
Bit rate mode : Constant
Bit rate : 640 kb/s
Channel(s) : 6 channels
Channel layout : L R C LFE Ls Rs
Sampling rate : 48.0 kHz
Frame rate : 31.250 FPS (1536 SPF)
Bit depth : 16 bits
Compression mode : Lossy
Stream size : 482 MiB (10%)
Title : AC-3 / 5.1 Ch / 640 kbps / Original
Language : Chinese
Service kind : Complete Main
Default : No
Forced : No

Text #1
ID : 7
Format : ASS
Codec ID : S_TEXT/ASS
Codec ID/Info : Advanced Sub Station Alpha
Duration : 1 h 37 min
Bit rate : 1 b/s
Count of elements : 13
Compression mode : Lossless
Stream size : 1.11 KiB (0%)
Title : Forced
Language : Russian
Default : Yes
Forced : Yes

Text #2
ID : 8
Format : UTF-8
Codec ID : S_TEXT/UTF8
Codec ID/Info : UTF-8 Plain Text
Duration : 1 h 37 min
Bit rate : 51 b/s
Count of elements : 899
Stream size : 37.2 KiB (0%)
Title : Full by YakuSub Studio
Language : Russian
Default : No
Forced : No

Text #3
ID : 9
Format : UTF-8
Codec ID : S_TEXT/UTF8
Codec ID/Info : UTF-8 Plain Text
Duration : 1 h 37 min
Bit rate : 51 b/s
Count of elements : 904
Stream size : 36.6 KiB (0%)
Title : Full by Bazaar Zetsubou
Language : Russian
Default : No
Forced : No

Text #4
ID : 10
Format : ASS
Codec ID : S_TEXT/ASS
Codec ID/Info : Advanced Sub Station Alpha
Duration : 1 h 37 min
Bit rate : 1 b/s
Count of elements : 13
Compression mode : Lossless
Stream size : 1.19 KiB (0%)
Title : Forced
Language : Ukrainian
Default : No
Forced : No

Text #5
ID : 11
Format : UTF-8
Codec ID : S_TEXT/UTF8
Codec ID/Info : UTF-8 Plain Text
Duration : 1 h 37 min
Bit rate : 49 b/s
Count of elements : 861
Stream size : 35.5 KiB (0%)
Title : Full by Areyssword
Language : Ukrainian
Default : No
Forced : No

Text #6
ID : 12
Format : UTF-8
Codec ID : S_TEXT/UTF8
Codec ID/Info : UTF-8 Plain Text
Duration : 1 h 37 min
Bit rate : 33 b/s
Count of elements : 829
Stream size : 23.8 KiB (0%)
Title : Full
Language : English
Default : No
Forced : No

Menu
00:00:00.000 : :Chapter 01
00:10:02.000 : :Chapter 02
00:18:56.458 : :Chapter 03
00:27:51.417 : :Chapter 04
00:38:27.333 : :Chapter 05
00:46:28.208 : :Chapter 06
00:58:19.542 : :Chapter 07
01:08:51.000 : :Chapter 08
01:20:08.083 : :Chapter 09
01:35:06.208 : :Chapter 10
Загрузка...Cкриншот1 По ту сторону океана (Большая рыба и Бегония) / Da yu hai tang (2016) BDRip 1080p [HEVC] 10 bit от -Star-Lord- (RG RIPS CLUB)Загрузка...Cкриншот2 По ту сторону океана (Большая рыба и Бегония) / Da yu hai tang (2016) BDRip 1080p [HEVC] 10 bit от -Star-Lord- (RG RIPS CLUB)Загрузка...Cкриншот3 По ту сторону океана (Большая рыба и Бегония) / Da yu hai tang (2016) BDRip 1080p [HEVC] 10 bit от -Star-Lord- (RG RIPS CLUB)Загрузка...Cкриншот4 По ту сторону океана (Большая рыба и Бегония) / Da yu hai tang (2016) BDRip 1080p [HEVC] 10 bit от -Star-Lord- (RG RIPS CLUB)
Релиз-группа: RIPS CLUB
Сэмпл Торрент🧲 Магнет

Рейтинги КП и IMDB, кнопки "Позвать в чате" и "Спасибо", а также мультитрекерная статистика доступны только зарегистрированным/авторизованным пользователям!

Файлы: 1
  • Da yu hai tang (2016) BDRip 1080p H.265 [3xRUS_UKR_CHI] [RIPS-CLUB].mkv   4.8 ГБ
Поблагодарили: 6
artolicv, ilyich05, makss333, Mr. Fox, netfigni, z_artem
StarLord
031004.8 ГБ

Добавление нового комментария

Добавление комментариев доступно только зарегистрированным/авторизованным пользователям.