💬 Мини-чат

Для тех, кому интересен процесс переделки сайта - https://rips.club/changelog.html (обновлен 20.04.2024)
  • justmkr
Отправка сообщений доступна только зарегистрированным/авторизованным пользователям.
Онлайн (за 10 мин.): 1

Неоновый демон / The Neon Demon (2016) [GER Transfer] UHD-BDRip 1080p [HEVC] 10 bit [SDR] от -Star-Lord- (RG RIPS CLUB)

HEVC
10 bit
Обложка Неоновый демон / The Neon Demon (2016) [GER Transfer] UHD-BDRip 1080p [HEVC] 10 bit [SDR] от -Star-Lord- (RG RIPS CLUB) Год: 2016
Страна: Дания, Франция, США, Великобритания
Студия: Bold Films, Space Rocket Nation, Vendian Entertainment
Жанр: Ужасы, Триллер
Продолжительность: 01:57:03

Режиссер: Николас Виндинг Рефн
В ролях: Эль Фаннинг, Карл Глусман, Джена Мэлоун, Белла Хиткот, Эбби Ли, Десмонд Хэррингтон, Кристина Хендрикс, Киану Ривз, Чарльз Бэйкер, Джеми Клейтон

Описание: Провинциалка Джесси, мечтающая стать супермоделью, едва окончив школу, отправляется покорять Лос-Анджелес. Через тернии (одна, без денег, чужой город, дешевый мотель), но и через нужные знакомства, фотосессии, вечеринки — к звездам. И вот это сладкое слово «слава» становится былью для юной красавицы. Но за стремительный карьерный взлет придется расплатиться — конкурентки из ненависти и безумной зависти готовы на многое.


Исходник: The Neon Demon 2016 2160p GER UHD Blu-ray SDR HEVC DTS-HD MA 5.1-SharpHD
Видео: 1920x808, ~4761 Кбит/сек
Аудио1: AC3, 6 ch, 384 Kbps - РусскийРусский, Дублированный (iTunes)
Аудио2: AC3, 6 ch, 640 Kbps - РусскийРусский, Любительский многоголосый закадровый (PARADOX & OMSKBIRD Records)
Аудио3: AC3, 6 ch, 384 Kbps - РусскийРусский, Любительский многоголосый закадровый (HamsterStudio)
Аудио4: AC3, 6 ch, 640 Kbps - РусскийРусский, Авторский одноголосый (Ю. Сербин)
Аудио5: AC3, 6 ch, 640 Kbps - РусскийРусский, Авторский одноголосый (А. Матвеев 18+)
Аудио6: AC3, 6 ch, 640 Kbps - РусскийРусский, Авторский одноголосый (А. Матвеев)
Аудио7: AC3, 2 ch, 192 Kbps - УкраинскийУкраинский, Профессиональный многоголосый закадровый
Аудио8: AC3, 6 ch, 640 Kbps - АнглийскийАнглийский, Оригинал
Субтитры: русские (полные х3), английские (полные, SDH)

Как за пару секунд удалить ненужные аудиодорожки и субтитры (Внимание! После удаления вы не сможете поддержать раздачу)

Лог (x265 info)
x265 [info]: frame I: 1109, Avg QP:14.62 kb/s: 20657.35
x265 [info]: frame P: 21807, Avg QP:15.93 kb/s: 9832.96
x265 [info]: frame B: 145655, Avg QP:18.87 kb/s: 3879.22
x265 [info]: Weighted P-Frames: Y:10.5% UV:8.2%
x265 [info]: Weighted B-Frames: Y:5.8% UV:4.0%
x265 [info]: consecutive B-frames: 7.0% 2.9% 3.3% 12.8% 6.2% 11.7% 6.6% 7.8% 10.4% 17.4% 3.8% 2.1% 2.0% 1.9% 1.3% 1.4% 1.4%

encoded 168571 frames in 147352.31s (1.14 fps), 4759.80 kb/s, Avg QP:18.46
Медиаинфо
General
Unique ID : 92978481699692489443880990386453720936 (0x45F30113D5CA1B6FFB3113AA90C7AF68)
Complete name : The Neon Demon (2016) [GER Transfer] UHD-BDRip 1080p H.265 [6xRUS_UKR_ENG] [RIPS-CLUB].mkv
Format : Matroska
Format version : Version 4
File size : 7.30 GiB
Duration : 1 h 57 min
Overall bit rate : 8 921 kb/s
Movie name : Неоновый демон / Неоновий демон / The Neon Demon (2016)
Encoded date : UTC 2022-01-10 10:29:29
Writing application : mkvmerge v64.0.0 ('Willows') 64-bit
Writing library : libebml v1.4.2 + libmatroska v1.6.4
Cover : Yes
Attachments : Cover.jpg

Video
ID : 1
Format : HEVC
Format/Info : High Efficiency Video Coding
Format profile : Main 10@L4.1@High
Codec ID : V_MPEGH/ISO/HEVC
Duration : 1 h 57 min
Bit rate : 4 761 kb/s
Width : 1 920 pixels
Height : 808 pixels
Display aspect ratio : 2.40:1
Frame rate mode : Constant
Frame rate : 24.000 FPS
Color space : YUV
Chroma subsampling : 4:2:0
Bit depth : 10 bits
Bits/(Pixel*Frame) : 0.128
Stream size : 3.89 GiB (53%)
Title : Неоновый демон / Неоновий демон / The Neon Demon (2016)
Writing library : x265 3.5+1-ce882936d:[Windows][GCC 10.2.0][64 bit] 10bit
Encoding settings : cpuid=1111039 / frame-threads=3 / numa-pools=12 / wpp / no-pmode / no-pme / no-psnr / no-ssim / log-level=2 / input-csp=1 / input-res=1920x808 / interlace=0 / total-frames=168571 / level-idc=41 / high-tier=1 / uhd-bd=0 / ref=5 / no-allow-non-conformance / no-repeat-headers / annexb / no-aud / no-hrd / info / hash=0 / no-temporal-layers / open-gop / min-keyint=24 / keyint=240 / gop-lookahead=0 / bframes=16 / b-adapt=2 / b-pyramid / bframe-bias=0 / rc-lookahead=60 / lookahead-slices=4 / scenecut=40 / hist-scenecut=0 / radl=0 / no-splice / no-intra-refresh / ctu=32 / min-cu-size=8 / rect / amp / max-tu-size=32 / tu-inter-depth=4 / tu-intra-depth=4 / limit-tu=1 / rdoq-level=2 / dynamic-rd=0.00 / no-ssim-rd / signhide / no-tskip / nr-intra=0 / nr-inter=0 / no-constrained-intra / no-strong-intra-smoothing / max-merge=5 / limit-refs=2 / limit-modes / me=3 / subme=7 / merange=57 / temporal-mvp / no-frame-dup / no-hme / weightp / weightb / no-analyze-src-pics / deblock=-3:-3 / no-sao / no-sao-non-deblock / rd=6 / selective-sao=0 / no-early-skip / no-rskip / no-fast-intra / no-tskip-fast / no-cu-lossless / no-b-intra / no-splitrd-skip / rdpenalty=0 / psy-rd=2.00 / psy-rdoq=1.00 / no-rd-refine / no-lossless / cbqpoffs=0 / crqpoffs=0 / rc=crf / crf=20.5 / qcomp=0.70 / qpstep=4 / stats-write=0 / stats-read=0 / vbv-maxrate=50000 / vbv-bufsize=50000 / vbv-init=0.9 / min-vbv-fullness=50.0 / max-vbv-fullness=80.0 / crf-max=0.0 / crf-min=0.0 / ipratio=1.40 / pbratio=1.30 / aq-mode=3 / aq-strength=1.00 / no-cutree / zone-count=0 / no-strict-cbr / qg-size=32 / no-rc-grain / qpmax=69 / qpmin=0 / no-const-vbv / sar=1 / overscan=0 / videoformat=5 / range=0 / colorprim=2 / transfer=2 / colormatrix=2 / chromaloc=0 / display-window=0 / cll=0,0 / min-luma=0 / max-luma=1023 / log2-max-poc-lsb=8 / vui-timing-info / vui-hrd-info / slices=1 / no-opt-qp-pps / no-opt-ref-list-length-pps / no-multi-pass-opt-rps / scenecut-bias=0.05 / hist-threshold=0.03 / no-opt-cu-delta-qp / no-aq-motion / no-hdr10 / no-hdr10-opt / no-dhdr10-opt / no-idr-recovery-sei / analysis-reuse-level=0 / analysis-save-reuse-level=0 / analysis-load-reuse-level=0 / scale-factor=0 / refine-intra=0 / refine-inter=0 / refine-mv=1 / refine-ctu-distortion=0 / no-limit-sao / ctu-info=0 / no-lowpass-dct / refine-analysis-type=0 / copy-pic=1 / max-ausize-factor=1.0 / no-dynamic-refine / no-single-sei / no-hevc-aq / no-svt / no-field / qp-adaptation-range=1.00 / scenecut-aware-qp=0conformance-window-offsets / right=0 / bottom=0 / decoder-max-rate=0 / no-vbv-live-multi-pass
Language : English
Default : Yes
Forced : Yes

Audio #1
ID : 2
Format : AC-3
Format/Info : Audio Coding 3
Commercial name : Dolby Digital
Codec ID : A_AC3
Duration : 1 h 57 min
Bit rate mode : Constant
Bit rate : 384 kb/s
Channel(s) : 6 channels
Channel layout : L R C LFE Ls Rs
Sampling rate : 48.0 kHz
Frame rate : 31.250 FPS (1536 SPF)
Bit depth : 32 bits
Compression mode : Lossy
Stream size : 322 MiB (4%)
Title : AC-3 / 5.1 Ch / 384 kbps / DUB / iTunes
Language : Russian
Service kind : Complete Main
Default : Yes
Forced : Yes

Audio #2
ID : 3
Format : AC-3
Format/Info : Audio Coding 3
Commercial name : Dolby Digital
Codec ID : A_AC3
Duration : 1 h 57 min
Bit rate mode : Constant
Bit rate : 640 kb/s
Channel(s) : 6 channels
Channel layout : L R C LFE Ls Rs
Sampling rate : 48.0 kHz
Frame rate : 31.250 FPS (1536 SPF)
Compression mode : Lossy
Stream size : 536 MiB (7%)
Title : AC-3 / 5.1 Ch / 640 kbps / MVO / PARADOX & OMSKBIRD Records
Language : Russian
Service kind : Complete Main
Default : No
Forced : No

Audio #3
ID : 4
Format : AC-3
Format/Info : Audio Coding 3
Commercial name : Dolby Digital
Codec ID : A_AC3
Duration : 1 h 57 min
Bit rate mode : Constant
Bit rate : 384 kb/s
Channel(s) : 6 channels
Channel layout : L R C LFE Ls Rs
Sampling rate : 48.0 kHz
Frame rate : 31.250 FPS (1536 SPF)
Bit depth : 32 bits
Compression mode : Lossy
Stream size : 321 MiB (4%)
Title : AC-3 / 5.1 Ch / 384 kbps / MVO / HamsterStudio
Language : Russian
Service kind : Complete Main
Default : No
Forced : No

Audio #4
ID : 5
Format : AC-3
Format/Info : Audio Coding 3
Commercial name : Dolby Digital
Codec ID : A_AC3
Duration : 1 h 57 min
Bit rate mode : Constant
Bit rate : 640 kb/s
Channel(s) : 6 channels
Channel layout : L R C LFE Ls Rs
Sampling rate : 48.0 kHz
Frame rate : 31.250 FPS (1536 SPF)
Bit depth : 32 bits
Compression mode : Lossy
Stream size : 536 MiB (7%)
Title : AC-3 / 5.1 Ch / 640 kbps / AVO / Ю. Сербин
Language : Russian
Service kind : Complete Main
Default : No
Forced : No

Audio #5
ID : 6
Format : AC-3
Format/Info : Audio Coding 3
Commercial name : Dolby Digital
Codec ID : A_AC3
Duration : 1 h 57 min
Bit rate mode : Constant
Bit rate : 640 kb/s
Channel(s) : 6 channels
Channel layout : L R C LFE Ls Rs
Sampling rate : 48.0 kHz
Frame rate : 31.250 FPS (1536 SPF)
Bit depth : 32 bits
Compression mode : Lossy
Stream size : 536 MiB (7%)
Title : AC-3 / 5.1 Ch / 640 kbps / AVO / А. Матвеев 18+
Language : Russian
Service kind : Complete Main
Default : No
Forced : No

Audio #6
ID : 7
Format : AC-3
Format/Info : Audio Coding 3
Commercial name : Dolby Digital
Codec ID : A_AC3
Duration : 1 h 57 min
Bit rate mode : Constant
Bit rate : 640 kb/s
Channel(s) : 6 channels
Channel layout : L R C LFE Ls Rs
Sampling rate : 48.0 kHz
Frame rate : 31.250 FPS (1536 SPF)
Bit depth : 32 bits
Compression mode : Lossy
Stream size : 536 MiB (7%)
Title : AC-3 / 5.1 Ch / 640 kbps / AVO / А. Матвеев
Language : Russian
Service kind : Complete Main
Default : No
Forced : No

Audio #7
ID : 8
Format : AC-3
Format/Info : Audio Coding 3
Commercial name : Dolby Digital
Codec ID : A_AC3
Duration : 1 h 57 min
Bit rate mode : Constant
Bit rate : 192 kb/s
Channel(s) : 2 channels
Channel layout : L R
Sampling rate : 48.0 kHz
Frame rate : 31.250 FPS (1536 SPF)
Bit depth : 32 bits
Compression mode : Lossy
Stream size : 161 MiB (2%)
Title : AC-3 / 2.0 Ch / 192 kbps / MVO
Language : Ukrainian
Service kind : Complete Main
Default : No
Forced : No

Audio #8
ID : 9
Format : AC-3
Format/Info : Audio Coding 3
Commercial name : Dolby Digital
Codec ID : A_AC3
Duration : 1 h 57 min
Bit rate mode : Constant
Bit rate : 640 kb/s
Channel(s) : 6 channels
Channel layout : L R C LFE Ls Rs
Sampling rate : 48.0 kHz
Frame rate : 31.250 FPS (1536 SPF)
Bit depth : 16 bits
Compression mode : Lossy
Stream size : 536 MiB (7%)
Title : AC-3 / 5.1 Ch / 640 kbps / Original
Language : English
Service kind : Complete Main
Default : No
Forced : No

Text #1
ID : 10
Format : UTF-8
Codec ID : S_TEXT/UTF8
Codec ID/Info : UTF-8 Plain Text
Duration : 1 h 47 min
Bit rate : 27 b/s
Count of elements : 641
Stream size : 21.7 KiB (0%)
Title : kornickolay
Language : Russian
Default : No
Forced : No

Text #2
ID : 11
Format : UTF-8
Codec ID : S_TEXT/UTF8
Codec ID/Info : UTF-8 Plain Text
Duration : 1 h 49 min
Bit rate : 23 b/s
Count of elements : 363
Stream size : 19.2 KiB (0%)
Title : А. Матвеев 18+
Language : Russian
Default : No
Forced : No

Text #3
ID : 12
Format : UTF-8
Codec ID : S_TEXT/UTF8
Codec ID/Info : UTF-8 Plain Text
Duration : 1 h 49 min
Bit rate : 23 b/s
Count of elements : 364
Stream size : 19.3 KiB (0%)
Title : А. Матвеев
Language : Russian
Default : No
Forced : No

Text #4
ID : 13
Format : UTF-8
Codec ID : S_TEXT/UTF8
Codec ID/Info : UTF-8 Plain Text
Duration : 1 h 44 min
Bit rate : 19 b/s
Count of elements : 618
Stream size : 15.2 KiB (0%)
Title : Full
Language : English
Default : No
Forced : No

Text #5
ID : 14
Format : UTF-8
Codec ID : S_TEXT/UTF8
Codec ID/Info : UTF-8 Plain Text
Duration : 1 h 45 min
Bit rate : 22 b/s
Count of elements : 728
Stream size : 17.5 KiB (0%)
Title : SDH
Language : English
Default : No
Forced : No

Menu
00:00:00.000 : :Chapter 1
00:07:25.370 : :Chapter 2
00:15:38.732 : :Chapter 3
00:20:58.999 : :Chapter 4
00:26:27.893 : :Chapter 5
00:30:23.873 : :Chapter 6
00:36:27.611 : :Chapter 7
00:43:01.629 : :Chapter 8
00:50:22.685 : :Chapter 9
00:56:25.469 : :Chapter 10
01:04:38.251 : :Chapter 11
01:09:01.815 : :Chapter 12
01:17:13.353 : :Chapter 13
01:23:10.205 : :Chapter 14
01:31:23.608 : :Chapter 15
01:40:37.076 : :Chapter 16
01:46:53.423 : :Chapter 17
01:51:19.683 : :Chapter 18
01:57:03.138 : :Chapter 19
Загрузка...Cкриншот1 Неоновый демон / The Neon Demon (2016) [GER Transfer] UHD-BDRip 1080p [HEVC] 10 bit [SDR] от -Star-Lord- (RG RIPS CLUB)Загрузка...Cкриншот2 Неоновый демон / The Neon Demon (2016) [GER Transfer] UHD-BDRip 1080p [HEVC] 10 bit [SDR] от -Star-Lord- (RG RIPS CLUB)Загрузка...Cкриншот3 Неоновый демон / The Neon Demon (2016) [GER Transfer] UHD-BDRip 1080p [HEVC] 10 bit [SDR] от -Star-Lord- (RG RIPS CLUB)Загрузка...Cкриншот4 Неоновый демон / The Neon Demon (2016) [GER Transfer] UHD-BDRip 1080p [HEVC] 10 bit [SDR] от -Star-Lord- (RG RIPS CLUB)
Релиз-группа: RIPS CLUB
Сэмпл Торрент🧲 Магнет

Рейтинги КП и IMDB, кнопки "Позвать в чате" и "Спасибо", а также мультитрекерная статистика доступны только зарегистрированным/авторизованным пользователям!

Файлы: 1
  • The Neon Demon (2016) [GER Transfer] UHD-BDRip 1080p H.265 [6xRUS_UKR_ENG] [RIPS-CLUB].mkv   7.3 ГБ
Поблагодарили: 11
77carlsson77, Beebo, ilyich05, IRIT, makss333, MIGRANT, mvclub, netfigni, Nuclear70, SergKote, z_artem
StarLord
0238207.3 ГБ

Добавление нового комментария

Добавление комментариев доступно только зарегистрированным/авторизованным пользователям.