Чат

⚫︎
Список изменений сайта - https://rips.club/changelog.html (обновлен 24.05.2024)
    Онлайн (за 10 мин.): 0
    Отправка сообщений доступна только зарегистрированным/авторизованным пользователям.

    🎨︎Папа-мама гусь / Duck Duck Goose (2018) [iTunes] BDRip 1080p [HEVC] 10 bit от Мичман


    Обложка Папа-мама гусь / Duck Duck Goose (2018) [iTunes] BDRip 1080p [HEVC] 10 bit от Мичман
    HEVC
    10 bit
    ✂︎Сэмпл⤓︎Торрент🧲︎Магнет$Пожертвования
    Год: 2018
    Страна: Китай, США
    Студия: Original Force
    Жанр: Мультфильм, Комедия, Приключения, Семейный
    Длительность: 01:31:22

    Режиссер: Крис Дженкинс
    В ролях: Джим Гэффиган, Зендая Колеман, Лэнс Лим, Грег Прупс, Наташа Леджеро, Дидрих Бадер, Регги Уоттс, Карл Райнер, Стивен Фрай, Крэйг Фергюсон

    Описание: Пэм — веселый и самовлюбленный неудачник, который постоянно попадает в нелепые ситуации и подвергает свою родню опасности. Ему всегда удавалось избежать наказания, но не в этот раз…. Из-за полученной травмы крыла, неудачливый эгоист упал на землю, где не сумел благополучно приземлиться. Рухнув вниз, он чуть было не задавил двух маленьких утят. Несмотря на свой скверный и несерьезный характер, Пэм проявил заботу о малышах. У гуся созрел план — отправиться в дорогу с птенцами пешком. Им предстоит преодолеть множество километров, где их ждет масса приключений и испытаний.


    Видео: 1920x804, 4745 Kbps
    Аудио: AC3, 384 Кбит/сек, 6 каналов, 48,0 КГц - РусскийРусский, Дублированный (iTunes)
    Субтитры: Нет

    МедиаинфоОбщее
    Уникальный идентификатор : 234538958669539116708083701364606511550 (0xB0728F73EE2A9B77C55906322CA629BE)
    Полное имя : J:\ФИЛЬМЫ\Папа-мама гусь (2018) BDRip 1080p [HEVC] 10 bit.mkv
    Формат : Matroska
    Версия формата : Version 4 / Version 2
    Размер файла : 3,27 Гбайт
    Продолжительность : 1 ч. 31 м.
    Общий поток : 5129 Кбит/сек
    Дата кодирования : UTC 2018-07-25 01:25:54
    Программа кодирования : mkvmerge v19.0.0 ('Brave Captain') 64-bit
    Библиотека кодирования : libebml v1.3.5 + libmatroska v1.4.8
    Обложка : Yes
    Attachments : cover.jpg

    Видео
    Идентификатор : 1
    Формат : HEVC
    Формат/Информация : High Efficiency Video Coding
    Профиль формата : Main 10@L5.1@High
    Идентификатор кодека : V_MPEGH/ISO/HEVC
    Продолжительность : 1 ч. 31 м.
    Битрейт : 4745 Кбит/сек
    Ширина : 1920 пикселей
    Высота : 804 пикселя
    Соотношение сторон : 2,40:1
    Режим частоты кадров : Постоянный
    Частота кадров : 23,976 (24000/1001) кадра/сек
    Цветовое пространство : YUV
    Субдискретизация насыщенности : 4:2:0
    Битовая глубина : 10 бит
    Бит/(Пиксели*Кадры) : 0.128
    Размер потока : 3,03 Гбайт (93%)
    Библиотека кодирования : x265 2.8+19-bcdc610cf5f0:[Windows][GCC 7.3.0][64 bit] 10bit
    Настройки программы : cpuid=1049583 / frame-threads=5 / numa-pools=4 / wpp / no-pmode / no-pme / no-psnr / no-ssim / log-level=3 / input-csp=1 / input-res=1920x804 / interlace=0 / total-frames=0 / level-idc=51 / high-tier=1 / uhd-bd=0 / ref=3 / allow-non-conformance / no-repeat-headers / annexb / no-aud / no-hrd / info / hash=0 / no-temporal-layers / open-gop / min-keyint=24 / keyint=240 / gop-lookahead=0 / bframes=4 / b-adapt=2 / b-pyramid / bframe-bias=0 / rc-lookahead=20 / lookahead-slices=5 / scenecut=40 / radl=0 / no-intra-refresh / ctu=64 / min-cu-size=8 / no-rect / no-amp / max-tu-size=32 / tu-inter-depth=1 / tu-intra-depth=1 / limit-tu=0 / rdoq-level=0 / dynamic-rd=0.00 / no-ssim-rd / signhide / no-tskip / nr-intra=0 / nr-inter=0 / no-constrained-intra / strong-intra-smoothing / max-merge=2 / limit-refs=3 / no-limit-modes / me=1 / subme=7 / merange=57 / temporal-mvp / weightp / no-weightb / no-analyze-src-pics / deblock=-4:-4 / sao / no-sao-non-deblock / rd=3 / no-early-skip / rskip / no-fast-intra / no-tskip-fast / no-cu-lossless / no-b-intra / no-splitrd-skip / rdpenalty=0 / psy-rd=2.00 / psy-rdoq=0.00 / no-rd-refine / no-lossless / cbqpoffs=0 / crqpoffs=0 / rc=crf / crf=16.0 / qcomp=0.60 / qpstep=4 / stats-write=0 / stats-read=0 / vbv-maxrate=160000 / vbv-bufsize=160000 / vbv-init=0.9 / crf-max=0.0 / crf-min=0.0 / ipratio=1.40 / pbratio=1.30 / aq-mode=1 / aq-strength=1.00 / cutree / zone-count=0 / no-strict-cbr / qg-size=32 / no-rc-grain / qpmax=69 / qpmin=0 / no-const-vbv / sar=1 / overscan=0 / videoformat=5 / range=0 / colorprim=1 / transfer=1 / colormatrix=1 / chromaloc=0 / display-window=0 / max-cll=0,0 / min-luma=0 / max-luma=1023 / log2-max-poc-lsb=8 / vui-timing-info / vui-hrd-info / slices=1 / no-opt-qp-pps / no-opt-ref-list-length-pps / no-multi-pass-opt-rps / scenecut-bias=0.05 / no-opt-cu-delta-qp / no-aq-motion / no-hdr / no-hdr-opt / no-dhdr10-opt / no-idr-recovery-sei / analysis-reuse-level=5 / scale-factor=0 / refine-intra=0 / refine-inter=0 / refine-mv=0 / no-limit-sao / ctu-info=0 / no-lowpass-dct / refine-mv-type=0 / copy-pic=1 / max-ausize-factor=1.0 / no-dynamic-refine / no-single-sei
    Язык : English
    Default : Да
    Forced : Нет
    Цветовой диапазон : Limited
    Основные цвета : BT.709
    Характеристики трансфера : BT.709
    Коэффициенты матрицы : BT.709

    Аудио
    Идентификатор : 2
    Формат : AC-3
    Формат/Информация : Audio Coding 3
    Идентификатор кодека : A_AC3
    Продолжительность : 1 ч. 30 м.
    Вид битрейта : Постоянный
    Битрейт : 384 Кбит/сек
    Каналы : 6 каналов
    Расположение каналов : Front: L C R, Side: L R, LFE
    Частота : 48,0 КГц
    Частота кадров : 31,250 кадров/сек (1536 SPF)
    Битовая глубина : 16 бит
    Метод сжатия : С потерями
    Размер потока : 250 Мбайт (7%)
    Заголовок : iTunes
    Язык : Russian
    ServiceKind/String : Complete Main
    Default : Да
    Forced : Нет
    Загрузка...Cкриншот1 Папа-мама гусь / Duck Duck Goose (2018) [iTunes] BDRip 1080p [HEVC] 10 bit от МичманЗагрузка...Cкриншот2 Папа-мама гусь / Duck Duck Goose (2018) [iTunes] BDRip 1080p [HEVC] 10 bit от МичманЗагрузка...Cкриншот3 Папа-мама гусь / Duck Duck Goose (2018) [iTunes] BDRip 1080p [HEVC] 10 bit от МичманЗагрузка...Cкриншот4 Папа-мама гусь / Duck Duck Goose (2018) [iTunes] BDRip 1080p [HEVC] 10 bit от Мичман
    Поблагодарили: 3brukvalub, ChimeyJimmey, MIGRANT
    Файлы: 1
    • Папа-мама гусь (2018) BDRip 1080p [HEVC] 10 bit.mkv

    Рейтинги КП и IMDB, кнопки "Раздайте, пожалуйста" и "Спасибо", а также мультитрекерная статистика доступны только зарегистрированным/авторизованным пользователям!

    Мичман
    0013103.27 ГБ

    💬︎ Комментарии

    Добавление комментариев доступно только зарегистрированным/авторизованным пользователям.