Чат

⚫︎
Список изменений сайта - https://rips.club/changelog.html (обновлен 24.05.2024)
  • arwis
  • Roman1312
  • z1M4p9i0
Онлайн (за 10 мин.): 3
Отправка сообщений доступна только зарегистрированным/авторизованным пользователям.

🎥︎G. I. Joe. Бросок кобры: Снейк Айз / Snake Eyes: G.I. Joe Origins (2021) BDRip 1080p [HEVC] 10 bit от OldGamer (RG RIPS CLUB)


Обложка G. I. Joe. Бросок кобры: Снейк Айз / Snake Eyes: G.I. Joe Origins (2021) BDRip 1080p [HEVC] 10 bit от OldGamer (RG RIPS CLUB)
HEVC
10 bit
✂︎Сэмпл⤓︎Торрент🧲︎Магнет$Пожертвования

При перезаливке на другие сайты просьба указать автора и релиз-группу.


Год: 2021
Страна: США
Студия: Di Bonaventura Pictures, Hasbro Inc., Metro-Goldwyn-Mayer (MGM), Paramount Pictures, Skydance Productions
Жанр: Фантастика, Фэнтези, Боевик, Триллер
Длительность: 02:01:25

Режиссер: Роберт Швентке
В ролях: Генри Голдинг, Эндрю Кодзи, Урсула Корберо, Харука Абэ, Такэхиро Хира, Питер Менса, Самуэль Финци, Самара Уивинг, Эри Исида, Ико Уайс

Описание: Загадочный и суровый одиночка Снейк Айз спасает наследника древнего японского клана Арасикагэ, и в знак признательности клан открывает ему тайные знания пути ниндзя. Но главное: Снейк Айз обретает то, к чему так долго стремился, — дом. Однако, когда становятся известны секреты его прошлого, на кону оказываются его честь, преданность и доверие самых близких людей.


Релиз-группа: RIPS CLUB
Исходник: Blu-Ray Remux 1080p
Видео: 1920x804 (2.40:1), 5071 Кбит/сек, HEVC (Main10@L.4.1@High)
Аудио1: AC3, 6 ch, 640 Kbps - РусскийРусский, DUB
Аудио2: AC3, 6 ch, 448 Kbps - УкраинскийУкраинский, DUB
Аудио3: AC3, 6 ch, 640 Kbps - EnglishEnglish, Original
Субтитры: Русские форсированные и полные (SRT), Украинские форсированные и полные (SRT), English full (SRT)

Как за несколько секунд удалить ненужные аудиодорожки и субтитры (Внимание! После удаления вы не сможете поддержать раздачу)


Лог (x265 info)x265 [info]: frame I: 734, Avg QP:16.47 kb/s: 16249.06
x265 [info]: frame P: 33903, Avg QP:18.07 kb/s: 10383.04
x265 [info]: frame B: 140026, Avg QP:20.00 kb/s: 3725.13
x265 [info]: Weighted P-Frames: Y:11.5% UV:9.8%
x265 [info]: Weighted B-Frames: Y:11.5% UV:9.3%
x265 [info]: consecutive B-frames: 7.8% 6.4% 9.8% 26.3% 11.7% 18.1% 4.9% 5.8% 2.5% 2.0% 1.6% 1.5% 0.6% 0.4% 0.4% 0.2% 0.2%
x265 [info]: encoded 174663 frames in 95098.73s (1.84 fps), 5070.09 kb/s, Avg QP:19.61
МедиаинфоОбщее
Уникальный идентификатор : 201688185421379614222663105053301554364 (0x97BBBB4861DD6A584959CF969E463CBC)
Полное имя : \\.\03.G.I.Joe.Бросок.кобры.Снейк.Айз.Snake.Eyes.G.I.Joe.Origins.2021.BDRip-HEVC.1080p.mkv
Формат : Matroska
Версия формата : Version 4
Размер файла : 5,77 Гбайт
Продолжительность : 2 ч. 1 м.
Общий поток : 6 801 Кбит/сек
Название фильма : G.I.Joe.Бросок.кобры.Снейк.Айз.Snake.Eyes.G.I.Joe.Origins.2021.BDRip-HEVC.1080p
Дата кодирования : UTC 2022-01-11 13:52:37
Программа кодирования : mkvmerge v64.0.0 ('Willows') 64-bit
Библиотека кодирования : libebml v1.4.2 + libmatroska v1.6.4

Видео
Идентификатор : 1
Формат : HEVC
Формат/Информация : High Efficiency Video Coding
Профиль формата : Main 10@L4.1@High
Идентификатор кодека : V_MPEGH/ISO/HEVC
Продолжительность : 2 ч. 1 м.
Битрейт : 5 071 Кбит/сек
Ширина : 1 920 пикселей
Высота : 804 пикселя
Соотношение сторон : 2,40:1
Режим частоты кадров : Постоянный
Частота кадров : 23,976 (24000/1001) кадра/сек
Цветовое пространство : YUV
Субдискретизация насыщенности : 4:2:0
Битовая глубина : 10 бит
Бит/(Пиксели*Кадры) : 0.137
Размер потока : 4,30 Гбайт (75%)
Заголовок : Snake Eyes: G.I. Joe Origins / Rip by OldGamer
Библиотека кодирования : x265 3.5+19-8003e4382:[Windows][GCC 11.2.0][64 bit] 10bit
Настройки программы : cpuid=1111039 / frame-threads=4 / numa-pools=16 / wpp / no-pmode / no-pme / no-psnr / no-ssim / log-level=2 / input-csp=1 / input-res=1920x804 / interlace=0 / total-frames=174663 / level-idc=41 / high-tier=1 / uhd-bd=0 / ref=5 / no-allow-non-conformance / no-repeat-headers / annexb / no-aud / no-eob / no-eos / no-hrd / info / hash=0 / no-temporal-layers / open-gop / min-keyint=23 / keyint=240 / gop-lookahead=0 / bframes=16 / b-adapt=2 / b-pyramid / bframe-bias=0 / rc-lookahead=40 / lookahead-slices=0 / scenecut=40 / no-hist-scenecut / radl=0 / no-splice / no-intra-refresh / ctu=32 / min-cu-size=8 / rect / amp / max-tu-size=32 / tu-inter-depth=4 / tu-intra-depth=4 / limit-tu=1 / rdoq-level=2 / dynamic-rd=0.00 / no-ssim-rd / signhide / no-tskip / nr-intra=0 / nr-inter=0 / no-constrained-intra / no-strong-intra-smoothing / max-merge=5 / limit-refs=3 / no-limit-modes / me=3 / subme=7 / merange=57 / temporal-mvp / no-frame-dup / no-hme / weightp / weightb / no-analyze-src-pics / deblock=-3:-3 / no-sao / no-sao-non-deblock / rd=6 / selective-sao=0 / no-early-skip / no-rskip / no-fast-intra / no-tskip-fast / no-cu-lossless / b-intra / no-splitrd-skip / rdpenalty=0 / psy-rd=2.00 / psy-rdoq=1.00 / no-rd-refine / no-lossless / cbqpoffs=0 / crqpoffs=0 / rc=crf / crf=20.0 / qcomp=0.75 / qpstep=4 / stats-write=0 / stats-read=0 / vbv-maxrate=50000 / vbv-bufsize=50000 / vbv-init=0.9 / min-vbv-fullness=50.0 / max-vbv-fullness=80.0 / crf-max=0.0 / crf-min=0.0 / ipratio=1.40 / pbratio=1.30 / aq-mode=1 / aq-strength=1.00 / no-cutree / zone-count=1 / zones: / start-frame=166221 / end-frame=174663 / qp=36 / no-strict-cbr / qg-size=32 / no-rc-grain / qpmax=69 / qpmin=0 / no-const-vbv / sar=1 / overscan=0 / videoformat=5 / range=0 / colorprim=2 / transfer=2 / colormatrix=2 / chromaloc=0 / display-window=0 / cll=0,0 / min-luma=0 / max-luma=1023 / log2-max-poc-lsb=8 / vui-timing-info / vui-hrd-info / slices=1 / no-opt-qp-pps / no-opt-ref-list-length-pps / no-multi-pass-opt-rps / scenecut-bias=0.00 / hist-threshold=0.03 / no-opt-cu-delta-qp / no-aq-motion / no-hdr10 / no-hdr10-opt / no-dhdr10-opt / no-idr-recovery-sei / analysis-reuse-level=0 / analysis-save-reuse-level=0 / analysis-load-reuse-level=0 / scale-factor=0 / refine-intra=0 / refine-inter=0 / refine-mv=1 / refine-ctu-distortion=0 / no-limit-sao / ctu-info=0 / no-lowpass-dct / refine-analysis-type=0 / copy-pic=1 / max-ausize-factor=1.0 / no-dynamic-refine / no-single-sei / no-hevc-aq / no-svt / no-field / qp-adaptation-range=1.00 / scenecut-aware-qp=0conformance-window-offsets / right=0 / bottom=0 / decoder-max-rate=0 / no-vbv-live-multi-pass
Язык : English
Default : Да
Forced : Нет

Аудио #1
Идентификатор : 2
ID in the original source medium : 4352 (0x1100)
Формат : AC-3
Формат/Информация : Audio Coding 3
Коммерческое название : Dolby Digital
Идентификатор кодека : A_AC3
Продолжительность : 2 ч. 1 м.
Вид битрейта : Постоянный
Битрейт : 640 Кбит/сек
Каналы : 6 каналов
Channel layout : L R C LFE Ls Rs
Частота : 48,0 КГц
Частота кадров : 31,250 кадров/сек (1536 SPF)
Метод сжатия : С потерями
Размер потока : 556 Мбайт (9%)
Заголовок : DUB
Язык : Russian
Service kind : Complete Main
Default : Да
Forced : Нет
Носитель оригинала : Blu-ray

Аудио #2
Идентификатор : 3
ID in the original source medium : 4353 (0x1101)
Формат : AC-3
Формат/Информация : Audio Coding 3
Коммерческое название : Dolby Digital
Идентификатор кодека : A_AC3
Продолжительность : 2 ч. 1 м.
Вид битрейта : Постоянный
Битрейт : 448 Кбит/сек
Каналы : 6 каналов
Channel layout : L R C LFE Ls Rs
Частота : 48,0 КГц
Частота кадров : 31,250 кадров/сек (1536 SPF)
Метод сжатия : С потерями
Размер потока : 389 Мбайт (7%)
Заголовок : DUB
Язык : Ukrainian
Service kind : Complete Main
Default : Нет
Forced : Нет
Носитель оригинала : Blu-ray

Аудио #3
Идентификатор : 4
Формат : AC-3
Формат/Информация : Audio Coding 3
Коммерческое название : Dolby Digital
Идентификатор кодека : A_AC3
Продолжительность : 2 ч. 1 м.
Вид битрейта : Постоянный
Битрейт : 640 Кбит/сек
Каналы : 6 каналов
Channel layout : L R C LFE Ls Rs
Частота : 48,0 КГц
Частота кадров : 31,250 кадров/сек (1536 SPF)
Метод сжатия : С потерями
Размер потока : 556 Мбайт (9%)
Язык : English
Service kind : Complete Main
Default : Нет
Forced : Нет

Текст #1
Идентификатор : 5
Формат : UTF-8
Идентификатор кодека : S_TEXT/UTF8
Идентификатор кодека/Информация : UTF-8 Plain Text
Продолжительность : 1 ч. 59 м.
Битрейт : 1 бит/сек
Count of elements : 25
Размер потока : 1,25 Кбайт (0%)
Заголовок : forced
Язык : Russian
Default : Да
Forced : Нет

Текст #2
Идентификатор : 6
Формат : UTF-8
Идентификатор кодека : S_TEXT/UTF8
Идентификатор кодека/Информация : UTF-8 Plain Text
Продолжительность : 1 ч. 59 м.
Битрейт : 42 бит/сек
Count of elements : 797
Размер потока : 37,0 Кбайт (0%)
Язык : Russian
Default : Нет
Forced : Нет

Текст #3
Идентификатор : 7
Формат : UTF-8
Идентификатор кодека : S_TEXT/UTF8
Идентификатор кодека/Информация : UTF-8 Plain Text
Продолжительность : 1 ч. 33 м.
Битрейт : 1 бит/сек
Count of elements : 21
Размер потока : 803 байт (0%)
Заголовок : forced
Язык : Ukrainian
Default : Нет
Forced : Нет

Текст #4
Идентификатор : 8
Формат : UTF-8
Идентификатор кодека : S_TEXT/UTF8
Идентификатор кодека/Информация : UTF-8 Plain Text
Продолжительность : 1 ч. 59 м.
Битрейт : 40 бит/сек
Count of elements : 788
Размер потока : 35,5 Кбайт (0%)
Язык : Ukrainian
Default : Нет
Forced : Нет

Текст #5
Идентификатор : 9
Формат : UTF-8
Идентификатор кодека : S_TEXT/UTF8
Идентификатор кодека/Информация : UTF-8 Plain Text
Продолжительность : 1 ч. 52 м.
Битрейт : 27 бит/сек
Count of elements : 776
Размер потока : 22,3 Кбайт (0%)
Язык : English
Default : Нет
Forced : Нет

Меню
00:00:00.000 : en:Chapter 01
00:10:17.367 : en:Chapter 02
00:19:39.887 : en:Chapter 03
00:28:50.062 : en:Chapter 04
00:37:50.977 : en:Chapter 05
00:43:39.867 : en:Chapter 06
00:54:53.790 : en:Chapter 07
01:03:18.920 : en:Chapter 08
01:14:04.440 : en:Chapter 09
01:23:59.117 : en:Chapter 10
01:29:09.219 : en:Chapter 11
01:36:39.293 : en:Chapter 12
01:46:26.922 : en:Chapter 13
01:53:51.533 : en:Chapter 14
Загрузка...Cкриншот1 G. I. Joe. Бросок кобры: Снейк Айз / Snake Eyes: G.I. Joe Origins (2021) BDRip 1080p [HEVC] 10 bit от OldGamer (RG RIPS CLUB)Загрузка...Cкриншот2 G. I. Joe. Бросок кобры: Снейк Айз / Snake Eyes: G.I. Joe Origins (2021) BDRip 1080p [HEVC] 10 bit от OldGamer (RG RIPS CLUB)Загрузка...Cкриншот3 G. I. Joe. Бросок кобры: Снейк Айз / Snake Eyes: G.I. Joe Origins (2021) BDRip 1080p [HEVC] 10 bit от OldGamer (RG RIPS CLUB)Загрузка...Cкриншот4 G. I. Joe. Бросок кобры: Снейк Айз / Snake Eyes: G.I. Joe Origins (2021) BDRip 1080p [HEVC] 10 bit от OldGamer (RG RIPS CLUB)
Поблагодарили: 1277carlsson77, alexyak, D3ZOXY, denisptp4, ilyich05, IRIT, makss333, MIGRANT, Nuclear70, SergKote, StarLord, TaurohtaR
Файлы: 1
  • 03.G.I.Joe.Бросок.кобры.Снейк.Айз.Snake.Eyes.G.I.Joe.Origins.2021.BDRip-HEVC.1080p.mkv

Рейтинги КП и IMDB, кнопки "Раздайте, пожалуйста" и "Спасибо", а также мультитрекерная статистика доступны только зарегистрированным/авторизованным пользователям!

OldGamer
340100505.77 ГБ

💬︎ Комментарии

Добавление комментариев доступно только зарегистрированным/авторизованным пользователям.