💬 Мини-чат

Для тех, кому интересен процесс переделки сайта - https://rips.club/changelog.html (обновлен 22.02.2024)
OldGamerz1M4p9i0, и этот релиз скачался
Adminatomicheart, встал, но у Вас в профиле не видно. Вам бы перекачать.
OldGamerz1M4p9i0, Хан Соло скачался, но релиз, который был на руторе, там аудиодорожек меньше, чем тут, а видеоряд тот же. Попробуйте оттуда, я пока что сидирую.
OldGamerХан Соло откуда-то по чайной ложке в час скачивается, за сутки 50%, наблюдаем-с дальше
Adminatomicheart, завтра посмотрю, он у меня должен быть.
atomicheartРаздайте, пожалуйста, Тихое место: Дилогия / A Quiet Place: Dilogy (2018-2020) UHD-BDRip 1080p [HEVC] 10 bit [HDR] от Mr. Fox
z1M4p9i0Раздайте, пожалуйста, Хан Соло: Звёздные войны. Истории / Solo: A Star Wars Story (2018) [Локализованная версия] BDRip 1080p [HEVC] 10 bit от Cthulhu
z1M4p9i0Раздайте, пожалуйста, Терминатор: Тёмные судьбы / Terminator: Dark Fate (2019) [iTunes] UHD-BDRip 1440p [HEVC] 10 bit от HANNIBAL
OldGamerKeynol, честно говоря, пока что не планировалось, так как у нас есть отличный рип этого фильма
KeynolПриветствую! А можно сделать HEVC 10 bit на Трон Наследие Hybrid ? там файл на 31 гиг :-( на рутрекере. Хороший, но очень массивный..
  • OldGamer
  • 375509
  • InSpector
  • pmihail99
  • Лара
Отправка сообщений доступна только зарегистрированным/авторизованным пользователям.
Онлайн (за 10 мин.): 5

Дядюшка Бак / Uncle Buck (1989) BDRip 1080p [HEVC] 10 bit от TaurohtaR

HEVC
10 bit
Обложка Дядюшка Бак / Uncle Buck (1989) BDRip 1080p [HEVC] 10 bit от TaurohtaR Год: 1989
Страна: США
Студия: Hughes Entertainment, Universal Pictures
Жанр: Драма, Комедия, Семейный
Продолжительность: 01:39:38

Режиссер: Джон Хьюз
В ролях: Джон Кэнди, Джин Луиза Келли, Гэби Хоффманн, Маколей Калкин, Эми Мэдиган, Элейн Бромка, Гэррет М. Браун, Лори Меткаф, Джей Андервуд, Брайан Тарантина, Майк Старр, Сюзанн Шеперд, Уильям Уиндом, Дэннис Кокрум, Джоэль Робинсон, Колин Баумгартнер, Эрик Уиппл, Марк Розенталь

Описание: Ленивого, добродушного дядюшку-холостяка просят позаботиться о племянниках на время семейного кризиса их родителей. К дяде Баку те обратились от отчаяния: больше оставить детей не с кем. Но немного везения, много любви, и дядя Бак сумеет всех удивить.


Видео: 1916x1040, ~12486 Кбит/сек
Аудио1: DTS, 2 ch, 768 Kbps - РусскийРусский, Дублированный (Пифагор)
Аудио2: DTS, 2 ch, 768 Kbps - РусскийРусский, Профессиональный многоголосый закадровый (CTC)
Аудио3: AC3, 2 ch, 192 Kbps - РусскийРусский, Профессиональный двухголосый закадровый (НТВ)
Аудио4: DTS, 2 ch, 768 Kbps - РусскийРусский, Авторский одноголосый (С. Визгунов)
Аудио5: DTS, 2 ch, 768 Kbps - РусскийРусский, Авторский одноголосый (А. Михалёв)
Аудио6: DTS, 2 ch, 768 Kbps - РусскийРусский, Авторский одноголосый (В. Дохалов)
Аудио7: AC3, 2 ch, 192 Kbps - РусскийРусский, Авторский одноголосый (А. Марченко)
Аудио8: AC3, 2 ch, 192 Kbps - УкраинскийУкраинский, Профессиональный многоголосый закадровый (1+1)
Аудио9: AC3, 2 ch, 192 Kbps - УкраинскийУкраинский, Профессиональный многоголосый закадровый (НЛО-ТВ)
Аудио10: AC3, 6 ch, 640 Kbps - АнглийскийАнглийский, Оригинал
Субтитры: английские

Как за пару секунд удалить ненужные аудиодорожки и субтитры (Внимание! После удаления вы не сможете поддержать раздачу)

Лог (x265 info)
x265 [info]: frame I: 1264, Avg QP:18.57 kb/s: 25845.80
x265 [info]: frame P: 18656, Avg QP:19.24 kb/s: 17540.44
x265 [info]: frame B: 123432, Avg QP:21.71 kb/s: 11582.92
x265 [info]: Weighted P-Frames: Y:16.2% UV:12.6%
x265 [info]: Weighted B-Frames: Y:16.2% UV:10.8%
x265 [info]: consecutive B-frames: 9.4% 1.7% 1.9% 6.7% 9.1% 24.4% 8.6% 6.2% 8.3% 4.0% 5.1% 5.7% 2.3% 1.3% 2.0% 1.6% 1.7%
encoded 143352 frames in 238309.83s (0.60 fps), 12484.00 kb/s, Avg QP:21.36
Медиаинфо
General
Unique ID : 189985137163384554587145880659333271691 (0x8EEDCE747FFB6B24260F57B3DFB4D08B)
Complete name : Uncle Buck (1989) BDRip 1080p H.265 [7xRUS_2xUKR_ENG] [RIPS-CLUB].mkv
Format : Matroska
Format version : Version 4
File size : 12.4 GiB
Duration : 1 h 39 min
Overall bit rate : 17.7 Mb/s
Movie name : Дядюшка Бак (Дядя Бак) / Дядько Бак (Дядечко Бак) / Uncle Buck (1989)
Encoded date : UTC 2022-01-19 19:02:04
Writing application : mkvmerge v64.0.0 ('Willows') 64-bit
Writing library : libebml v1.4.2 + libmatroska v1.6.4
Cover : Yes
Attachments : Cover.jpg

Video
ID : 1
Format : HEVC
Format/Info : High Efficiency Video Coding
Format profile : Main 10@L4.1@High
Codec ID : V_MPEGH/ISO/HEVC
Duration : 1 h 39 min
Bit rate : 12.5 Mb/s
Width : 1 916 pixels
Height : 1 040 pixels
Display aspect ratio : 1.85:1
Frame rate mode : Constant
Frame rate : 23.976 (24000/1001) FPS
Color space : YUV
Chroma subsampling : 4:2:0
Bit depth : 10 bits
Bits/(Pixel*Frame) : 0.261
Stream size : 8.69 GiB (70%)
Title : Дядюшка Бак (Дядя Бак) / Дядько Бак (Дядечко Бак) / Uncle Buck (1989)
Writing library : x265 3.5+1-f0c1022b6:[Windows][clang 12.0.0][64 bit] 10bit
Encoding settings : cpuid=1111039 / frame-threads=3 / numa-pools=8 / wpp / no-pmode / no-pme / no-psnr / no-ssim / log-level=2 / input-csp=1 / input-res=1916x1040 / interlace=0 / total-frames=0 / level-idc=0 / high-tier=1 / uhd-bd=0 / ref=5 / no-allow-non-conformance / no-repeat-headers / annexb / no-aud / no-hrd / info / hash=0 / no-temporal-layers / open-gop / min-keyint=24 / keyint=240 / gop-lookahead=0 / bframes=16 / b-adapt=2 / b-pyramid / bframe-bias=0 / rc-lookahead=40 / lookahead-slices=0 / scenecut=40 / hist-scenecut=0 / radl=0 / no-splice / no-intra-refresh / ctu=64 / min-cu-size=8 / rect / amp / max-tu-size=16 / tu-inter-depth=4 / tu-intra-depth=4 / limit-tu=1 / rdoq-level=2 / dynamic-rd=0.00 / no-ssim-rd / signhide / no-tskip / nr-intra=0 / nr-inter=0 / no-constrained-intra / no-strong-intra-smoothing / max-merge=4 / limit-refs=1 / limit-modes / me=3 / subme=7 / merange=57 / temporal-mvp / no-frame-dup / no-hme / weightp / weightb / no-analyze-src-pics / deblock=-3:-3 / no-sao / no-sao-non-deblock / rd=6 / selective-sao=0 / no-early-skip / rskip / no-fast-intra / no-tskip-fast / no-cu-lossless / b-intra / no-splitrd-skip / rdpenalty=0 / psy-rd=2.00 / psy-rdoq=1.00 / no-rd-refine / no-lossless / cbqpoffs=0 / crqpoffs=0 / rc=crf / crf=21.0 / qcomp=0.65 / qpstep=4 / stats-write=0 / stats-read=0 / vbv-maxrate=50000 / vbv-bufsize=50000 / vbv-init=0.9 / min-vbv-fullness=50.0 / max-vbv-fullness=80.0 / crf-max=0.0 / crf-min=0.0 / ipratio=1.40 / pbratio=1.30 / aq-mode=3 / aq-strength=1.00 / no-cutree / zone-count=0 / no-strict-cbr / qg-size=32 / no-rc-grain / qpmax=69 / qpmin=0 / no-const-vbv / sar=1 / overscan=0 / videoformat=5 / range=0 / colorprim=1 / transfer=1 / colormatrix=1 / chromaloc=0 / display-window=0 / cll=0,0 / min-luma=0 / max-luma=1023 / log2-max-poc-lsb=8 / vui-timing-info / vui-hrd-info / slices=1 / no-opt-qp-pps / no-opt-ref-list-length-pps / no-multi-pass-opt-rps / scenecut-bias=0.05 / hist-threshold=0.03 / no-opt-cu-delta-qp / no-aq-motion / no-hdr10 / no-hdr10-opt / no-dhdr10-opt / no-idr-recovery-sei / analysis-reuse-level=0 / analysis-save-reuse-level=0 / analysis-load-reuse-level=0 / scale-factor=0 / refine-intra=0 / refine-inter=0 / refine-mv=1 / refine-ctu-distortion=0 / no-limit-sao / ctu-info=0 / no-lowpass-dct / refine-analysis-type=0 / copy-pic=1 / max-ausize-factor=1.0 / no-dynamic-refine / no-single-sei / no-hevc-aq / no-svt / no-field / qp-adaptation-range=1.00 / scenecut-aware-qp=0conformance-window-offsets / right=0 / bottom=0 / decoder-max-rate=0 / no-vbv-live-multi-pass
Language : English
Default : Yes
Forced : Yes
Color range : Limited
Color primaries : BT.709
Transfer characteristics : BT.709
Matrix coefficients : BT.709

Audio #1
ID : 2
Format : DTS
Format/Info : Digital Theater Systems
Codec ID : A_DTS
Duration : 1 h 39 min
Bit rate mode : Constant
Bit rate : 768 kb/s
Channel(s) : 2 channels
Channel layout : Lt Rt
Sampling rate : 48.0 kHz
Frame rate : 93.750 FPS (512 SPF)
Bit depth : 24 bits
Compression mode : Lossy
Delay relative to video : -5 ms
Stream size : 547 MiB (4%)
Title : DTS / 5.1 Ch / 768 kbps / DUB / Пифагор
Language : Russian
Default : Yes
Forced : Yes

Audio #2
ID : 3
Format : DTS
Format/Info : Digital Theater Systems
Codec ID : A_DTS
Duration : 1 h 39 min
Bit rate mode : Constant
Bit rate : 768 kb/s
Channel(s) : 2 channels
Channel layout : L R
Sampling rate : 48.0 kHz
Frame rate : 93.750 FPS (512 SPF)
Bit depth : 24 bits
Compression mode : Lossy
Delay relative to video : -5 ms
Stream size : 547 MiB (4%)
Title : DTS / 5.1 Ch / 768 kbps / MVO / CTC
Language : Russian
Default : No
Forced : No

Audio #3
ID : 4
Format : AC-3
Format/Info : Audio Coding 3
Commercial name : Dolby Digital
Codec ID : A_AC3
Duration : 1 h 39 min
Bit rate mode : Constant
Bit rate : 192 kb/s
Channel(s) : 2 channels
Channel layout : L R
Sampling rate : 48.0 kHz
Frame rate : 31.250 FPS (1536 SPF)
Compression mode : Lossy
Delay relative to video : -5 ms
Stream size : 137 MiB (1%)
Title : AC-3 / 2.0 Ch / 192 kbps / DVO / НТВ
Language : Russian
Service kind : Complete Main
Default : No
Forced : No

Audio #4
ID : 5
Format : DTS
Format/Info : Digital Theater Systems
Codec ID : A_DTS
Duration : 1 h 39 min
Bit rate mode : Constant
Bit rate : 768 kb/s
Channel(s) : 2 channels
Channel layout : L R
Sampling rate : 48.0 kHz
Frame rate : 93.750 FPS (512 SPF)
Bit depth : 24 bits
Compression mode : Lossy
Delay relative to video : -5 ms
Stream size : 547 MiB (4%)
Title : DTS / 5.1 Ch / 768 kbps / AVO / С. Визгунов
Language : Russian
Default : No
Forced : No

Audio #5
ID : 6
Format : DTS
Format/Info : Digital Theater Systems
Codec ID : A_DTS
Duration : 1 h 39 min
Bit rate mode : Constant
Bit rate : 768 kb/s
Channel(s) : 2 channels
Channel layout : L R
Sampling rate : 48.0 kHz
Frame rate : 93.750 FPS (512 SPF)
Bit depth : 24 bits
Compression mode : Lossy
Delay relative to video : -5 ms
Stream size : 547 MiB (4%)
Title : DTS / 5.1 Ch / 768 kbps / AVO / А. Михалёв
Language : Russian
Default : No
Forced : No

Audio #6
ID : 7
Format : DTS
Format/Info : Digital Theater Systems
Codec ID : A_DTS
Duration : 1 h 39 min
Bit rate mode : Constant
Bit rate : 768 kb/s
Channel(s) : 2 channels
Channel layout : L R
Sampling rate : 48.0 kHz
Frame rate : 93.750 FPS (512 SPF)
Bit depth : 24 bits
Compression mode : Lossy
Delay relative to video : -5 ms
Stream size : 547 MiB (4%)
Title : DTS / 5.1 Ch / 768 kbps / AVO / В. Дохалов
Language : Russian
Default : No
Forced : No

Audio #7
ID : 8
Format : AC-3
Format/Info : Audio Coding 3
Commercial name : Dolby Digital
Codec ID : A_AC3
Duration : 1 h 39 min
Bit rate mode : Constant
Bit rate : 192 kb/s
Channel(s) : 2 channels
Channel layout : L R
Sampling rate : 48.0 kHz
Frame rate : 31.250 FPS (1536 SPF)
Compression mode : Lossy
Delay relative to video : -5 ms
Stream size : 137 MiB (1%)
Title : AC-3 / 2.0 Ch / 192 kbps / AVO / А. Марченко
Language : Russian
Service kind : Complete Main
Default : No
Forced : No

Audio #8
ID : 9
Format : AC-3
Format/Info : Audio Coding 3
Commercial name : Dolby Digital
Codec ID : A_AC3
Duration : 1 h 39 min
Bit rate mode : Constant
Bit rate : 192 kb/s
Channel(s) : 2 channels
Channel layout : L R
Sampling rate : 48.0 kHz
Frame rate : 31.250 FPS (1536 SPF)
Compression mode : Lossy
Stream size : 137 MiB (1%)
Title : AC-3 / 2.0 Ch / 192 kbps / MVO / 1+1
Language : Ukrainian
Service kind : Complete Main
Default : No
Forced : No

Audio #9
ID : 10
Format : AC-3
Format/Info : Audio Coding 3
Commercial name : Dolby Digital
Codec ID : A_AC3
Duration : 1 h 39 min
Bit rate mode : Constant
Bit rate : 192 kb/s
Channel(s) : 2 channels
Channel layout : L R
Sampling rate : 48.0 kHz
Frame rate : 31.250 FPS (1536 SPF)
Compression mode : Lossy
Stream size : 137 MiB (1%)
Title : AC-3 / 2.0 Ch / 192 kbps / MVO / НЛО-ТВ
Language : Ukrainian
Service kind : Complete Main
Default : No
Forced : No

Audio #10
ID : 11
Format : AC-3
Format/Info : Audio Coding 3
Commercial name : Dolby Digital
Format settings : Dolby Surround
Codec ID : A_AC3
Duration : 1 h 39 min
Bit rate mode : Constant
Bit rate : 640 kb/s
Channel(s) : 2 channels
Channel layout : L R
Sampling rate : 48.0 kHz
Frame rate : 31.250 FPS (1536 SPF)
Compression mode : Lossy
Delay relative to video : -5 ms
Stream size : 456 MiB (4%)
Title : AC-3 / 2.0 Ch / 640 kbps / Original
Language : English
Service kind : Complete Main
Default : No
Forced : No

Text
ID : 12
Format : UTF-8
Codec ID : S_TEXT/UTF8
Codec ID/Info : UTF-8 Plain Text
Duration : 1 h 38 min
Bit rate : 57 b/s
Count of elements : 1429
Stream size : 41.4 KiB (0%)
Title : Full
Language : English
Default : No
Forced : No

Menu
00:00:00.000 : en:Family Problems
00:06:12.372 : en:Relatively Speaking
00:12:54.190 : en:The Buck Stops Here
00:18:37.700 : en:A Chilly Reception
00:23:03.090 : en:Bug Spraying
00:30:40.797 : en:Running The Asylum
00:36:45.495 : en:Dirty Laundry
00:39:42.630 : en:A Night On The Town
00:45:41.697 : en:Party Time
00:53:32.418 : en:Back To School
00:59:13.383 : en:Girl Troubles
01:10:18.381 : en:Adventures In Babysitting
01:15:35.948 : en:Saving Tia
01:21:24.129 : en:Making Up Is Hard To Do
01:28:07.240 : en:And A Great Sense Of Humor
01:31:20.433 : en:Going Home/End Credits
Загрузка...Cкриншот1 Дядюшка Бак / Uncle Buck (1989) BDRip 1080p [HEVC] 10 bit от TaurohtaRЗагрузка...Cкриншот2 Дядюшка Бак / Uncle Buck (1989) BDRip 1080p [HEVC] 10 bit от TaurohtaRЗагрузка...Cкриншот3 Дядюшка Бак / Uncle Buck (1989) BDRip 1080p [HEVC] 10 bit от TaurohtaRЗагрузка...Cкриншот4 Дядюшка Бак / Uncle Buck (1989) BDRip 1080p [HEVC] 10 bit от TaurohtaR
Сэмпл Торрент🧲 Магнет

Рейтинги КП и IMDB, кнопки "Позвать в чате" и "Спасибо", а также мультитрекерная статистика доступны только зарегистрированным/авторизованным пользователям!

Файлы: 1
  • Uncle Buck (1989) BDRip 1080p H.265 [7xRUS_2xUKR_ENG] [RIPS-CLUB].mkv   12.35 ГБ
Поблагодарили: 7
donadar, ilyich05, IRIT, makss333, Nuclear70, umca, Странник
StarLord
0910012.35 ГБ

Добавление нового комментария

Добавление комментариев доступно только зарегистрированным/авторизованным пользователям.