💬 Мини-чат

Для тех, кому интересен процесс переделки сайта - https://rips.club/changelog.html (обновлен 20.04.2024)
  • justmkr
Отправка сообщений доступна только зарегистрированным/авторизованным пользователям.
Онлайн (за 10 мин.): 1

Пуленепробиваемый / Bulletproof (1996) BDRip 1080p [HEVC] 10 bit от XuMuK

HEVC
10 bit
Обложка Пуленепробиваемый / Bulletproof (1996) BDRip 1080p [HEVC] 10 bit от XuMuK Год: 1996
Страна: США
Студия: Universal Pictures, Brillstein-Grey Entertainment, Robert Simonds Productions
Жанр: Боевик, Комедия, Криминал
Продолжительность: 01:24:22

В ролях: Дэймон Уайанс, Адам Сэндлер, Джеймс Каан, Джип Свенсон, Джеймс Фарентино, Кристен Уилсон, Ларри МакКой, Аллен Коверт, Билл Нанн, Марк Робертс

Описание: Рок Китс и Арчи Моузес — лучшие друзья. Год назад Моузес, мелкий воришка и мошенник, взял Китса «в дело». С тех пор они не расставались и вместе совершили целый ряд небольших преступлений. Все меняется, когда друзья оказываются вовлеченными в крупномасштабную операцию, проводимую наркобароном Фрэнком Колтоном. Рок Китс на самом деле оказывается агентом полиции, его настоящее имя Джек Картер. Полицейскому под прикрытием Картеру не удается арестовать организатора операции Колтона, поэтому он пытается арестовать своего друга Моузеса. Моузес стреляет в Картера и сбегает с места преступления. Вскоре полиция настигает Моузеса. Он соглашается дать показания против наркобарона Колтона при одном условии: к месту проведения судебного слушания его должен проводить бывший друг Китс-Картер. Вскоре друзья встречаются вновь и вместе отправляются в опасное путешествие. Выживут ли они? Выживет ли их дружба?


Видео: 1920x816, ~5322 Кбит/сек
Аудио1: E-AC3, 6 ch, 640 Kbps - РусскийРусский, Дублированный (Netflix)
Аудио2: AC3, 2 ch, 192 Kbps - РусскийРусский, Дублированный (ТВ3)
Аудио3: AC3, 6 ch, 448 Kbps - РусскийРусский, Профессиональный многоголосый закадровый
Аудио4: AC3, 2 ch, 192 Kbps - РусскийРусский, Профессиональный многоголосый закадровый (SDI Media Lat)
Аудио5: AC3, 2 ch, 192 Kbps - РусскийРусский, Профессиональный многоголосый закадровый (СТС - студия "Фильм Экспорт")
Аудио6: AC3, 2 ch, 192 Kbps - РусскийРусский, Профессиональный двухголосый закадровый (Премьер Видео Фильм)
Аудио7: AC3, 6 ch, 448 Kbps - РусскийРусский, Авторский одноголосый (М. Яроцкий)
Аудио8: AC3, 2 ch, 192 Kbps - РусскийРусский, Авторский одноголосый (А. Гаврилов)
Аудио9: AC3, 2 ch, 192 Kbps - РусскийРусский, Авторский одноголосый (Ю. Живов)
Аудио10: AC3, 2 ch, 192 Kbps - РусскийРусский, Авторский одноголосый (С. Визгунов)
Аудио11: AC3, 2 ch, 192 Kbps - РусскийРусский, Любительский одноголосый закадровый (Неизвестный LD)
Аудио12: AC3, 2 ch, 192 Kbps - УкраинскийУкраинский, Профессиональный многоголосый закадровый (ICTV)
Аудио13: AC3, 2 ch, 192 Kbps - УкраинскийУкраинский, Профессиональный многоголосый закадровый (ТК "Укрїана", НЛО-ТВ)
Аудио14: AC3, 2 ch, 192 Kbps - УкраинскийУкраинский, Профессиональный многоголосый закадровый (Cine+)
Аудио15: AC3, 2 ch, 192 Kbps - УкраинскийУкраинский, Профессиональный двухголосый закадровый (1+1)
Аудио16: AC3, 6 ch, 640 Kbps - АнглийскийАнглийский, Оригинал
Субтитры: русские (форс., полные х2), украинские (форс., полные), английские (полные, SDH)

Как за пару секунд удалить ненужные аудиодорожки и субтитры (Внимание! После удаления вы не сможете поддержать раздачу)

Медиаинфо
General
Unique ID : 52496318642963156796177880448422761628 (0x277E6C57209930C93B20A6C16429D49C)
Complete name : Bulletproof (1996) BDRip 1080p H.265 [11xRUS_4xUKR_ENG] [RIPS-CLUB].mkv
Format : Matroska
Format version : Version 4
File size : 5.78 GiB
Duration : 1 h 24 min
Overall bit rate : 9 806 kb/s
Movie name : Пуленепробиваемый / Куленепробивний / Bulletproof (1996)
Encoded date : UTC 2022-01-23 21:16:55
Writing application : mkvmerge v64.0.0 ('Willows') 64-bit
Writing library : libebml v1.4.2 + libmatroska v1.6.4
Cover : Yes
Attachments : Cover.jpg

Video
ID : 1
Format : HEVC
Format/Info : High Efficiency Video Coding
Format profile : Main 10@L4.1@High
Codec ID : V_MPEGH/ISO/HEVC
Duration : 1 h 24 min
Bit rate : 5 322 kb/s
Width : 1 920 pixels
Height : 816 pixels
Display aspect ratio : 2.35:1
Frame rate mode : Constant
Frame rate : 23.976 (24000/1001) FPS
Color space : YUV
Chroma subsampling : 4:2:0
Bit depth : 10 bits
Bits/(Pixel*Frame) : 0.142
Stream size : 3.14 GiB (54%)
Title : Пуленепробиваемый / Куленепробивний / Bulletproof (1996)
Writing library : x265 2.6+32-b763c22920f6:[Windows][MSVC 1900][64 bit] 10bit
Encoding settings : cpuid=1173503 / frame-threads=4 / numa-pools=16 / wpp / no-pmode / no-pme / no-psnr / no-ssim / log-level=2 / input-csp=1 / input-res=1920x816 / interlace=0 / total-frames=121368 / level-idc=41 / high-tier=1 / uhd-bd=0 / ref=5 / no-allow-non-conformance / no-repeat-headers / annexb / no-aud / no-hrd / info / hash=0 / no-temporal-layers / open-gop / min-keyint=23 / keyint=240 / gop-lookahead=0 / bframes=8 / b-adapt=2 / no-b-pyramid / bframe-bias=0 / rc-lookahead=40 / lookahead-slices=4 / scenecut=40 / radl=0 / no-intra-refresh / ctu=64 / min-cu-size=8 / rect / amp / max-tu-size=32 / tu-inter-depth=3 / tu-intra-depth=3 / limit-tu=1 / rdoq-level=2 / dynamic-rd=0.00 / no-ssim-rd / signhide / no-tskip / nr-intra=0 / nr-inter=0 / no-constrained-intra / no-strong-intra-smoothing / max-merge=3 / limit-refs=2 / limit-modes / me=3 / subme=7 / merange=57 / temporal-mvp / weightp / weightb / no-analyze-src-pics / deblock=-3:-3 / no-sao / no-sao-non-deblock / rd=6 / no-early-skip / rskip / no-fast-intra / no-tskip-fast / no-cu-lossless / b-intra / no-splitrd-skip / rdpenalty=0 / psy-rd=2.00 / psy-rdoq=1.00 / no-rd-refine / no-lossless / cbqpoffs=-2 / crqpoffs=-2 / rc=crf / crf=18.0 / qcomp=0.60 / qpstep=4 / stats-write=0 / stats-read=0 / vbv-maxrate=50000 / vbv-bufsize=50000 / vbv-init=0.9 / crf-max=0.0 / crf-min=0.0 / ipratio=1.40 / pbratio=1.30 / aq-mode=1 / aq-strength=1.00 / cutree / zone-count=1 / zones: / start-frame=114581 / end-frame=121368 / qp=35 / no-strict-cbr / qg-size=32 / no-rc-grain / qpmax=69 / qpmin=0 / no-const-vbv / sar=1 / overscan=0 / videoformat=5 / range=0 / colorprim=2 / transfer=2 / colormatrix=2 / chromaloc=0 / display-window=0 / max-cll=0,0 / min-luma=0 / max-luma=1023 / log2-max-poc-lsb=8 / vui-timing-info / vui-hrd-info / slices=1 / no-opt-qp-pps / no-opt-ref-list-length-pps / no-multi-pass-opt-rps / scenecut-bias=0.05 / no-opt-cu-delta-qp / no-aq-motion / no-hdr / no-hdr-opt / no-dhdr10-opt / analysis-reuse-level=5 / scale-factor=0 / refine-intra=0 / refine-inter=0 / refine-mv=0 / no-limit-sao / ctu-info=0 / no-lowpass-dct / refine-mv-type=0 / copy-pic=1
Language : English
Default : Yes
Forced : Yes

Audio #1
ID : 2
Format : E-AC-3
Format/Info : Enhanced AC-3
Commercial name : Dolby Digital Plus
Codec ID : A_EAC3
Duration : 1 h 24 min
Bit rate mode : Constant
Bit rate : 640 kb/s
Channel(s) : 6 channels
Channel layout : L R C LFE Ls Rs
Sampling rate : 48.0 kHz
Frame rate : 31.250 FPS (1536 SPF)
Bit depth : 32 bits
Compression mode : Lossy
Stream size : 386 MiB (7%)
Title : E-AC3 / 5.1 Ch / 640 kbps / DUB / Netflix
Language : Russian
Service kind : Complete Main
Default : Yes
Forced : Yes

Audio #2
ID : 3
Format : AC-3
Format/Info : Audio Coding 3
Commercial name : Dolby Digital
Codec ID : A_AC3
Duration : 1 h 24 min
Bit rate mode : Constant
Bit rate : 192 kb/s
Channel(s) : 2 channels
Channel layout : L R
Sampling rate : 48.0 kHz
Frame rate : 31.250 FPS (1536 SPF)
Bit depth : 32 bits
Compression mode : Lossy
Stream size : 116 MiB (2%)
Title : AC-3 / 2.0 Ch / 192 kbps / DUB / ТВ3
Language : Russian
Service kind : Complete Main
Default : No
Forced : No

Audio #3
ID : 4
Format : AC-3
Format/Info : Audio Coding 3
Commercial name : Dolby Digital
Codec ID : A_AC3
Duration : 1 h 24 min
Bit rate mode : Constant
Bit rate : 448 kb/s
Channel(s) : 6 channels
Channel layout : L R C LFE Ls Rs
Sampling rate : 48.0 kHz
Frame rate : 31.250 FPS (1536 SPF)
Bit depth : 32 bits
Compression mode : Lossy
Stream size : 270 MiB (5%)
Title : AC-3 / 5.1 Ch / 448 kbps / MVO
Language : Russian
Service kind : Complete Main
Default : No
Forced : No

Audio #4
ID : 5
Format : AC-3
Format/Info : Audio Coding 3
Commercial name : Dolby Digital
Codec ID : A_AC3
Duration : 1 h 24 min
Bit rate mode : Constant
Bit rate : 192 kb/s
Channel(s) : 2 channels
Channel layout : L R
Sampling rate : 48.0 kHz
Frame rate : 31.250 FPS (1536 SPF)
Bit depth : 32 bits
Compression mode : Lossy
Stream size : 116 MiB (2%)
Title : AC-3 / 2.0 Ch / 192 kbps / MVO / SDI Media Lat
Language : Russian
Service kind : Complete Main
Default : No
Forced : No

Audio #5
ID : 6
Format : AC-3
Format/Info : Audio Coding 3
Commercial name : Dolby Digital
Codec ID : A_AC3
Duration : 1 h 24 min
Bit rate mode : Constant
Bit rate : 192 kb/s
Channel(s) : 2 channels
Channel layout : L R
Sampling rate : 48.0 kHz
Frame rate : 31.250 FPS (1536 SPF)
Bit depth : 32 bits
Compression mode : Lossy
Stream size : 116 MiB (2%)
Title : AC-3 / 2.0 Ch / 192 kbps / MVO / СТС (студия "Фильм Экспорт")
Language : Russian
Service kind : Complete Main
Default : No
Forced : No

Audio #6
ID : 7
Format : AC-3
Format/Info : Audio Coding 3
Commercial name : Dolby Digital
Codec ID : A_AC3
Duration : 1 h 24 min
Bit rate mode : Constant
Bit rate : 192 kb/s
Channel(s) : 2 channels
Channel layout : L R
Sampling rate : 48.0 kHz
Frame rate : 31.250 FPS (1536 SPF)
Bit depth : 32 bits
Compression mode : Lossy
Stream size : 116 MiB (2%)
Title : AC-3 / 2.0 Ch / 192 kbps / DVO / Премьер Видео Фильм
Language : Russian
Service kind : Complete Main
Default : No
Forced : No

Audio #7
ID : 8
Format : AC-3
Format/Info : Audio Coding 3
Commercial name : Dolby Digital
Codec ID : A_AC3
Duration : 1 h 24 min
Bit rate mode : Constant
Bit rate : 448 kb/s
Channel(s) : 6 channels
Channel layout : L R C LFE Ls Rs
Sampling rate : 48.0 kHz
Frame rate : 31.250 FPS (1536 SPF)
Bit depth : 32 bits
Compression mode : Lossy
Stream size : 270 MiB (5%)
Title : AC-3 / 5.1 Ch / 448 kbps / AVO / М. Яроцкий
Language : Russian
Service kind : Complete Main
Default : No
Forced : No

Audio #8
ID : 9
Format : AC-3
Format/Info : Audio Coding 3
Commercial name : Dolby Digital
Codec ID : A_AC3
Duration : 1 h 24 min
Bit rate mode : Constant
Bit rate : 192 kb/s
Channel(s) : 2 channels
Channel layout : L R
Sampling rate : 48.0 kHz
Frame rate : 31.250 FPS (1536 SPF)
Bit depth : 32 bits
Compression mode : Lossy
Stream size : 116 MiB (2%)
Title : AC-3 / 2.0 Ch / 192 kbps / AVO / А. Гаврилов
Language : Russian
Service kind : Complete Main
Default : No
Forced : No

Audio #9
ID : 10
Format : AC-3
Format/Info : Audio Coding 3
Commercial name : Dolby Digital
Codec ID : A_AC3
Duration : 1 h 24 min
Bit rate mode : Constant
Bit rate : 192 kb/s
Channel(s) : 2 channels
Channel layout : L R
Sampling rate : 48.0 kHz
Frame rate : 31.250 FPS (1536 SPF)
Bit depth : 32 bits
Compression mode : Lossy
Stream size : 116 MiB (2%)
Title : AC-3 / 2.0 Ch / 192 kbps / AVO / Ю. Живов
Language : Russian
Service kind : Complete Main
Default : No
Forced : No

Audio #10
ID : 11
Format : AC-3
Format/Info : Audio Coding 3
Commercial name : Dolby Digital
Codec ID : A_AC3
Duration : 1 h 24 min
Bit rate mode : Constant
Bit rate : 192 kb/s
Channel(s) : 2 channels
Channel layout : L R
Sampling rate : 48.0 kHz
Frame rate : 31.250 FPS (1536 SPF)
Bit depth : 32 bits
Compression mode : Lossy
Stream size : 116 MiB (2%)
Title : AC-3 / 2.0 Ch / 192 kbps / AVO / С. Визгунов
Language : Russian
Service kind : Complete Main
Default : No
Forced : No

Audio #11
ID : 12
Format : AC-3
Format/Info : Audio Coding 3
Commercial name : Dolby Digital
Codec ID : A_AC3
Duration : 1 h 24 min
Bit rate mode : Constant
Bit rate : 192 kb/s
Channel(s) : 2 channels
Channel layout : L R
Sampling rate : 48.0 kHz
Frame rate : 31.250 FPS (1536 SPF)
Bit depth : 32 bits
Compression mode : Lossy
Stream size : 116 MiB (2%)
Title : AC-3 / 2.0 Ch / 192 kbps / AVO / Неизвестный LD
Language : Russian
Service kind : Complete Main
Default : No
Forced : No

Audio #12
ID : 13
Format : AC-3
Format/Info : Audio Coding 3
Commercial name : Dolby Digital
Codec ID : A_AC3
Duration : 1 h 24 min
Bit rate mode : Constant
Bit rate : 192 kb/s
Channel(s) : 2 channels
Channel layout : L R
Sampling rate : 48.0 kHz
Frame rate : 31.250 FPS (1536 SPF)
Compression mode : Lossy
Stream size : 116 MiB (2%)
Title : AC-3 / 2.0 Ch / 192 kbps / MVO / ICTV
Language : Ukrainian
Service kind : Complete Main
Default : No
Forced : No

Audio #13
ID : 14
Format : AC-3
Format/Info : Audio Coding 3
Commercial name : Dolby Digital
Codec ID : A_AC3
Duration : 1 h 24 min
Bit rate mode : Constant
Bit rate : 192 kb/s
Channel(s) : 2 channels
Channel layout : L R
Sampling rate : 48.0 kHz
Frame rate : 31.250 FPS (1536 SPF)
Compression mode : Lossy
Stream size : 116 MiB (2%)
Title : AC-3 / 2.0 Ch / 192 kbps / MVO / ТК "Укрїана", НЛО-ТВ
Language : Ukrainian
Service kind : Complete Main
Default : No
Forced : No

Audio #14
ID : 15
Format : AC-3
Format/Info : Audio Coding 3
Commercial name : Dolby Digital
Codec ID : A_AC3
Duration : 1 h 24 min
Bit rate mode : Constant
Bit rate : 192 kb/s
Channel(s) : 2 channels
Channel layout : L R
Sampling rate : 48.0 kHz
Frame rate : 31.250 FPS (1536 SPF)
Compression mode : Lossy
Stream size : 116 MiB (2%)
Title : AC-3 / 2.0 Ch / 192 kbps / MVO / Cine+
Language : Ukrainian
Service kind : Complete Main
Default : No
Forced : No

Audio #15
ID : 16
Format : AC-3
Format/Info : Audio Coding 3
Commercial name : Dolby Digital
Codec ID : A_AC3
Duration : 1 h 24 min
Bit rate mode : Constant
Bit rate : 192 kb/s
Channel(s) : 2 channels
Channel layout : L R
Sampling rate : 48.0 kHz
Frame rate : 31.250 FPS (1536 SPF)
Compression mode : Lossy
Stream size : 116 MiB (2%)
Title : AC-3 / 2.0 Ch / 192 kbps / DVO / 1+1 (Андрій Твердак та Наталія Ярошенко)
Language : Ukrainian
Service kind : Complete Main
Default : No
Forced : No

Audio #16
ID : 17
Format : AC-3
Format/Info : Audio Coding 3
Commercial name : Dolby Digital
Codec ID : A_AC3
Duration : 1 h 24 min
Bit rate mode : Constant
Bit rate : 640 kb/s
Channel(s) : 6 channels
Channel layout : L R C LFE Ls Rs
Sampling rate : 48.0 kHz
Frame rate : 31.250 FPS (1536 SPF)
Bit depth : 32 bits
Compression mode : Lossy
Stream size : 386 MiB (7%)
Title : AC-3 / 5.1 Ch / 640 kbps / Original
Language : English
Service kind : Complete Main
Default : No
Forced : No

Text #1
ID : 18
Format : UTF-8
Codec ID : S_TEXT/UTF8
Codec ID/Info : UTF-8 Plain Text
Duration : 1 h 8 min
Bit rate : 1 b/s
Count of elements : 20
Stream size : 805 Bytes (0%)
Title : Forced
Language : Russian
Default : Yes
Forced : Yes

Text #2
ID : 19
Format : UTF-8
Codec ID : S_TEXT/UTF8
Codec ID/Info : UTF-8 Plain Text
Duration : 1 h 23 min
Bit rate : 104 b/s
Count of elements : 1019
Stream size : 63.9 KiB (0%)
Title : Full from Netflix
Language : Russian
Default : No
Forced : No

Text #3
ID : 20
Format : UTF-8
Codec ID : S_TEXT/UTF8
Codec ID/Info : UTF-8 Plain Text
Duration : 1 h 19 min
Bit rate : 97 b/s
Count of elements : 1037
Stream size : 56.4 KiB (0%)
Title : Full
Language : Russian
Default : No
Forced : No

Text #4
ID : 21
Format : UTF-8
Codec ID : S_TEXT/UTF8
Codec ID/Info : UTF-8 Plain Text
Duration : 1 h 2 min
Bit rate : 0 b/s
Count of elements : 6
Stream size : 274 Bytes (0%)
Title : Forced
Language : Ukrainian
Default : No
Forced : No

Text #5
ID : 22
Format : UTF-8
Codec ID : S_TEXT/UTF8
Codec ID/Info : UTF-8 Plain Text
Duration : 1 h 23 min
Bit rate : 100 b/s
Count of elements : 1016
Stream size : 61.6 KiB (0%)
Title : Full from Netflix
Language : Ukrainian
Default : No
Forced : No

Text #6
ID : 23
Format : UTF-8
Codec ID : S_TEXT/UTF8
Codec ID/Info : UTF-8 Plain Text
Duration : 1 h 19 min
Bit rate : 99 b/s
Count of elements : 1027
Stream size : 57.7 KiB (0%)
Title : Full
Language : English
Default : No
Forced : No

Text #7
ID : 24
Format : UTF-8
Codec ID : S_TEXT/UTF8
Codec ID/Info : UTF-8 Plain Text
Duration : 1 h 19 min
Bit rate : 71 b/s
Count of elements : 1228
Stream size : 41.7 KiB (0%)
Title : SDH
Language : English
Default : No
Forced : No

Menu
00:00:00.000 : :The Car Thieves (Main Titles)
00:03:22.368 : :The Rock and Archie Show
00:10:18.951 : :Mr. Colton
00:12:26.162 : :He Acts Like a Cop
00:17:20.079 : :Jack's Down
00:21:10.060 : :Archie's Deal
00:27:01.369 : :The New Flight Plan
00:34:56.052 : :The Hunting Cap Lodge
00:45:43.782 : :The Assault on Bungalow 7
00:56:16.039 : :The Blues Brothers
01:00:43.598 : :Welcome Home
01:07:26.292 : :A Package for Mr. Colton
01:10:45.491 : :Traci's Turn
01:13:44.420 : :Colton Takes His Shot
01:16:12.276 : :The Jack and Archie Show
01:17:49.456 : :The Bullfighter
Загрузка...Cкриншот1 Пуленепробиваемый / Bulletproof (1996) BDRip 1080p [HEVC] 10 bit от XuMuKЗагрузка...Cкриншот2 Пуленепробиваемый / Bulletproof (1996) BDRip 1080p [HEVC] 10 bit от XuMuKЗагрузка...Cкриншот3 Пуленепробиваемый / Bulletproof (1996) BDRip 1080p [HEVC] 10 bit от XuMuKЗагрузка...Cкриншот4 Пуленепробиваемый / Bulletproof (1996) BDRip 1080p [HEVC] 10 bit от XuMuK
Сэмпл Торрент🧲 Магнет

Рейтинги КП и IMDB, кнопки "Позвать в чате" и "Спасибо", а также мультитрекерная статистика доступны только зарегистрированным/авторизованным пользователям!

Файлы: 1
  • Bulletproof (1996) BDRip 1080p H.265 [11xRUS_4xUKR_ENG] [RIPS-CLUB].mkv   5.78 ГБ
Поблагодарили: 11
77carlsson77, and50, Andrey_alex, D16T, Elico1977, FijiMAX, ilyich05, makss333, Niflung, Nuclear70, SergKote
StarLord
2252015.78 ГБ

Добавление нового комментария

Добавление комментариев доступно только зарегистрированным/авторизованным пользователям.
Аватар StarLord
  StarLord  
Admin писал(а):
Я так понимаю видеоряд прежний, просто добавлены дополнительные дорожки.
Все верно
Аватар Admin
  Admin  
Я так понимаю видеоряд прежний, просто добавлены дополнительные дорожки.