💬 Мини-чат

Для тех, кому интересен процесс переделки сайта - https://rips.club/changelog.html (обновлен 20.04.2024)
  • justmkr
Отправка сообщений доступна только зарегистрированным/авторизованным пользователям.
Онлайн (за 10 мин.): 1

Ракетчик / The Rocketeer (1991) BDRip 1080p [HEVC] 10 bit от Giggalo

HEVC
10 bit
Обложка Ракетчик / The Rocketeer (1991) BDRip 1080p [HEVC] 10 bit от Giggalo Год: 1991
Страна: США
Студия: Dark Horse Entertainment, Gordon Company, Silver Screen Partners IV, Touchstone Pictures, Walt Disney Pictures
Жанр: Фантастика, Боевик, Приключения, Семейный
Продолжительность: 01:48:37

Режиссер: Джо Джонстон
В ролях: Терри О'Куинн, Эд Лоутер, Дженнифер Коннелли, Алан Аркин, Тимоти Далтон, Пол Сорвино, Джеймс Хэнди, Билл Кэмпбелл

Описание: Америка тридцатых годов, расцвет гангстеров, промышленного шпионаж, строительства аэропланов, мир на пороге второй мировой войны. Клифф Сэкорд – молодой пилот, к нему в руки попадает сверхсекретное приспособление, ракетный ранец. Это устройство позволяет человеку подниматься в воздух. Газеты пестрят сообщениями о человеке парящем в небе, журналисты присваивают незнакомцу прозвище «Ракетчик». На поиски Клиффа Сэкорда брошены существенные силы, он необходим всем: репортерам, агентам национальной безопасности, его ищут заинтересованные в новейшем оружии фашисты.


Исходник: BDRemux
Видео: 1920x818, ~12,1 Мбит/сек
Аудио1: AC3, 6 ch, 640 Kbps - РусскийРусский, DVO (Видеосервис)
Аудио2: AC3, 6 ch, 640 Kbps - РусскийРусский, AVO (А.Марченко)
Аудио3: AC3, 2 ch, 192 Kbps - РусскийРусский, AVO (А.Гаврилов)
Аудио4: AC3, 6 ch, 640 Kbps - АнглийскийАнглийский
Субтитры: Английские (полные)

Как за пару секунд удалить ненужные аудиодорожки и субтитры (Внимание! После удаления вы не сможете поддержать раздачу)

Лог (x265 info)
x265 [info]: frame I: 1596, Avg QP:17.67 kb/s: 34116.98
x265 [info]: frame P: 27729, Avg QP:18.70 kb/s: 21054.60
x265 [info]: frame B: 126795, Avg QP:20.49 kb/s: 9839.21
x265 [info]: Weighted P-Frames: Y:9.0% UV:6.6%
x265 [info]: Weighted B-Frames: Y:7.5% UV:4.7%
x265 [info]: consecutive B-frames: 7.8% 3.7% 6.8% 21.8% 8.9% 23.9% 7.3% 13.6% 3.0% 1.9% 0.4% 0.3% 0.2% 0.1% 0.1% 0.0% 0.1%

encoded 156120 frames in 155643.65s (1.00 fps), 12079.40 kb/s, Avg QP:20.14
Медиаинфо
Общее
Уникальный идентификатор : 51039264002519913100756283568207583886 (0x2665CE000BA41DE3F08857458B2A5A8E)
Полное имя : D:\torrent\The Rocketeer. 1991 (BDRip-HEVC 1080p).mkv
Формат : Matroska
Версия формата : Version 4
Размер файла : 10,8 Гбайт
Продолжительность : 1 ч. 48 м.
Общий поток : 14,2 Мбит/сек
Название фильма : rip by Giggalo
Дата кодирования : UTC 2022-01-24 17:56:23
Программа кодирования : mkvmerge v55.0.0 ('Waiting For Space') 64-bit
Библиотека кодирования : libebml v1.4.2 + libmatroska v1.6.4
Обложка : Yes
Attachments : cover.jpg

Видео
Идентификатор : 1
Формат : HEVC
Формат/Информация : High Efficiency Video Coding
Профиль формата : Main 10@L4.1@High
Идентификатор кодека : V_MPEGH/ISO/HEVC
Продолжительность : 1 ч. 48 м.
Битрейт : 12,1 Мбит/сек
Ширина : 1 920 пикселей
Высота : 818 пикселей
Соотношение сторон : 2,35:1
Режим частоты кадров : Постоянный
Частота кадров : 23,976 (23976/1000) кадра/сек
Частота кадров в оригинале : 23,976 (24000/1001) кадра/сек
Цветовое пространство : YUV
Субдискретизация насыщенности : 4:2:0
Битовая глубина : 10 бит
Бит/(Пиксели*Кадры) : 0.321
Размер потока : 9,16 Гбайт (85%)
Библиотека кодирования : x265 3.4+1-7b120308dc64:[Windows][GCC 10.1.0][64 bit] 10bit
Настройки программы : cpuid=1111039 / frame-threads=3 / numa-pools=12 / wpp / no-pmode / no-pme / no-psnr / no-ssim / log-level=2 / input-csp=1 / input-res=1920x818 / interlace=0 / total-frames=156120 / level-idc=41 / high-tier=1 / uhd-bd=0 / ref=5 / no-allow-non-conformance / no-repeat-headers / annexb / no-aud / no-hrd / info / hash=0 / no-temporal-layers / open-gop / min-keyint=23 / keyint=240 / gop-lookahead=0 / bframes=16 / b-adapt=2 / b-pyramid / bframe-bias=0 / rc-lookahead=60 / lookahead-slices=4 / scenecut=40 / hist-scenecut=0 / radl=0 / no-splice / no-intra-refresh / ctu=32 / min-cu-size=8 / rect / amp / max-tu-size=32 / tu-inter-depth=4 / tu-intra-depth=4 / limit-tu=1 / rdoq-level=2 / dynamic-rd=0.00 / no-ssim-rd / signhide / no-tskip / nr-intra=0 / nr-inter=0 / no-constrained-intra / no-strong-intra-smoothing / max-merge=5 / limit-refs=2 / limit-modes / me=3 / subme=7 / merange=57 / temporal-mvp / no-frame-dup / no-hme / weightp / weightb / no-analyze-src-pics / deblock=-3:-3 / no-sao / no-sao-non-deblock / rd=6 / selective-sao=0 / no-early-skip / no-rskip / no-fast-intra / no-tskip-fast / no-cu-lossless / no-b-intra / no-splitrd-skip / rdpenalty=0 / psy-rd=2.00 / psy-rdoq=1.00 / no-rd-refine / no-lossless / cbqpoffs=0 / crqpoffs=0 / rc=crf / crf=20.0 / qcomp=0.70 / qpstep=4 / stats-write=0 / stats-read=0 / vbv-maxrate=50000 / vbv-bufsize=50000 / vbv-init=0.9 / crf-max=0.0 / crf-min=0.0 / ipratio=1.40 / pbratio=1.30 / aq-mode=1 / aq-strength=1.00 / no-cutree / zone-count=0 / no-strict-cbr / qg-size=32 / no-rc-grain / qpmax=69 / qpmin=0 / no-const-vbv / sar=1 / overscan=0 / videoformat=5 / range=0 / colorprim=1 / transfer=1 / colormatrix=1 / chromaloc=0 / display-window=0 / cll=0,0 / min-luma=0 / max-luma=1023 / log2-max-poc-lsb=8 / vui-timing-info / vui-hrd-info / slices=1 / no-opt-qp-pps / no-opt-ref-list-length-pps / no-multi-pass-opt-rps / scenecut-bias=0.05 / hist-threshold=0.03 / no-opt-cu-delta-qp / no-aq-motion / no-hdr10 / no-hdr10-opt / no-dhdr10-opt / no-idr-recovery-sei / analysis-reuse-level=0 / analysis-save-reuse-level=0 / analysis-load-reuse-level=0 / scale-factor=0 / refine-intra=0 / refine-inter=0 / refine-mv=1 / refine-ctu-distortion=0 / no-limit-sao / ctu-info=0 / no-lowpass-dct / refine-analysis-type=0 / copy-pic=1 / max-ausize-factor=1.0 / no-dynamic-refine / no-single-sei / no-hevc-aq / no-svt / no-field / qp-adaptation-range=1.00 / no-scenecut-aware-qpconformance-window-offsets / right=0 / bottom=0 / decoder-max-rate=0
Default : Да
Forced : Нет
Цветовой диапазон : Limited
Основные цвета : BT.709
Характеристики трансфера : BT.709
Коэффициенты матрицы : BT.709

Аудио #1
Идентификатор : 2
Формат : AC-3
Формат/Информация : Audio Coding 3
Коммерческое название : Dolby Digital
Идентификатор кодека : A_AC3
Продолжительность : 1 ч. 48 м.
Вид битрейта : Постоянный
Битрейт : 640 Кбит/сек
Каналы : 6 каналов
Channel layout : L R C LFE Ls Rs
Частота : 48,0 КГц
Частота кадров : 31,250 кадров/сек (1536 SPF)
Метод сжатия : С потерями
Размер потока : 497 Мбайт (5%)
Заголовок : DVO (Видеосервис)
Язык : Russian
Service kind : Complete Main
Default : Да
Forced : Нет

Аудио #2
Идентификатор : 3
Формат : AC-3
Формат/Информация : Audio Coding 3
Коммерческое название : Dolby Digital
Идентификатор кодека : A_AC3
Продолжительность : 1 ч. 48 м.
Вид битрейта : Постоянный
Битрейт : 640 Кбит/сек
Каналы : 6 каналов
Channel layout : L R C LFE Ls Rs
Частота : 48,0 КГц
Частота кадров : 31,250 кадров/сек (1536 SPF)
Метод сжатия : С потерями
Размер потока : 497 Мбайт (5%)
Заголовок : AVO (А.Марченко)
Язык : Russian
Service kind : Complete Main
Default : Нет
Forced : Нет

Аудио #3
Идентификатор : 4
Формат : AC-3
Формат/Информация : Audio Coding 3
Коммерческое название : Dolby Digital
Идентификатор кодека : A_AC3
Продолжительность : 1 ч. 48 м.
Вид битрейта : Постоянный
Битрейт : 192 Кбит/сек
Каналы : 2 канала
Channel layout : L R
Частота : 48,0 КГц
Частота кадров : 31,250 кадров/сек (1536 SPF)
Метод сжатия : С потерями
Размер потока : 149 Мбайт (1%)
Заголовок : AVO (А.Гаврилов)
Язык : Russian
Service kind : Complete Main
Default : Нет
Forced : Нет

Аудио #4
Идентификатор : 5
Формат : AC-3
Формат/Информация : Audio Coding 3
Коммерческое название : Dolby Digital
Идентификатор кодека : A_AC3
Продолжительность : 1 ч. 48 м.
Вид битрейта : Постоянный
Битрейт : 640 Кбит/сек
Каналы : 6 каналов
Channel layout : L R C LFE Ls Rs
Частота : 48,0 КГц
Частота кадров : 31,250 кадров/сек (1536 SPF)
Метод сжатия : С потерями
Размер потока : 497 Мбайт (5%)
Язык : English
Service kind : Complete Main
Default : Нет
Forced : Нет

Текст
Идентификатор : 6
Формат : UTF-8
Идентификатор кодека : S_TEXT/UTF8
Идентификатор кодека/Информация : UTF-8 Plain Text
Продолжительность : 1 ч. 42 м.
Битрейт : 47 бит/сек
Count of elements : 1015
Размер потока : 35,8 Кбайт (0%)
Заголовок : Original
Язык : English
Default : Нет
Forced : Нет

Меню
00:00:00.000 : en:00:00:00.000
00:12:37.173 : en:00:12:37.173
00:18:20.724 : en:00:18:20.724
00:23:50.762 : en:00:23:50.762
00:31:10.618 : en:00:31:10.618
00:37:43.094 : en:00:37:43.094
00:47:26.718 : en:00:47:26.718
00:53:39.883 : en:00:53:39.883
01:01:34.649 : en:01:01:34.649
01:08:44.787 : en:01:08:44.787
01:12:45.819 : en:01:12:45.819
01:22:55.303 : en:01:22:55.303
01:26:41.029 : en:01:26:41.029
01:40:56.425 : en:01:40:56.425
01:44:03.695 : en:01:44:03.695
Загрузка...Cкриншот1 Ракетчик / The Rocketeer (1991) BDRip 1080p [HEVC] 10 bit от GiggaloЗагрузка...Cкриншот2 Ракетчик / The Rocketeer (1991) BDRip 1080p [HEVC] 10 bit от GiggaloЗагрузка...Cкриншот3 Ракетчик / The Rocketeer (1991) BDRip 1080p [HEVC] 10 bit от GiggaloЗагрузка...Cкриншот4 Ракетчик / The Rocketeer (1991) BDRip 1080p [HEVC] 10 bit от Giggalo
Сэмпл Торрент🧲 Магнет

Рейтинги КП и IMDB, кнопки "Позвать в чате" и "Спасибо", а также мультитрекерная статистика доступны только зарегистрированным/авторизованным пользователям!

Файлы: 1
  • The Rocketeer. 1991 (BDRip-HEVC 1080p).mkv   10.76 ГБ
Поблагодарили: 11
77carlsson77, Bond_villain, cannabisonair, han-nik, ilyich05, IRIT, makss333, Nuclear70, OldGamer, sharkey71, StarLord
Giggalo
0370010.76 ГБ

Добавление нового комментария

Добавление комментариев доступно только зарегистрированным/авторизованным пользователям.