💬 Мини-чат

Для тех, кому интересен процесс переделки сайта - https://rips.club/changelog.html (обновлен 22.02.2024)
OldGamerz1M4p9i0, и этот релиз скачался
Adminatomicheart, встал, но у Вас в профиле не видно. Вам бы перекачать.
OldGamerz1M4p9i0, Хан Соло скачался, но релиз, который был на руторе, там аудиодорожек меньше, чем тут, а видеоряд тот же. Попробуйте оттуда, я пока что сидирую.
OldGamerХан Соло откуда-то по чайной ложке в час скачивается, за сутки 50%, наблюдаем-с дальше
Adminatomicheart, завтра посмотрю, он у меня должен быть.
atomicheartРаздайте, пожалуйста, Тихое место: Дилогия / A Quiet Place: Dilogy (2018-2020) UHD-BDRip 1080p [HEVC] 10 bit [HDR] от Mr. Fox
z1M4p9i0Раздайте, пожалуйста, Хан Соло: Звёздные войны. Истории / Solo: A Star Wars Story (2018) [Локализованная версия] BDRip 1080p [HEVC] 10 bit от Cthulhu
z1M4p9i0Раздайте, пожалуйста, Терминатор: Тёмные судьбы / Terminator: Dark Fate (2019) [iTunes] UHD-BDRip 1440p [HEVC] 10 bit от HANNIBAL
OldGamerKeynol, честно говоря, пока что не планировалось, так как у нас есть отличный рип этого фильма
KeynolПриветствую! А можно сделать HEVC 10 bit на Трон Наследие Hybrid ? там файл на 31 гиг :-( на рутрекере. Хороший, но очень массивный..
  • OldGamer
  • InSpector
  • Странник
Отправка сообщений доступна только зарегистрированным/авторизованным пользователям.
Онлайн (за 10 мин.): 3

Бэтмен: Квадрология / Batman: Quadrilogy (1989-1997) UHD-BDRip 1080p [HEVC] 10 bit [HDR] от Mr. Fox

HEVC
HDR
10 bit
Обложка Бэтмен: Квадрология / Batman: Quadrilogy (1989-1997) UHD-BDRip 1080p [HEVC] 10 bit [HDR] от Mr. Fox Год: 1989-1997
Страна: США, Великобритания
Жанр: Фантастика, Боевик, Триллер, Криминал

1. Бэтмен / Batman (1989) UHD-BDRip 1080p [HEVC] 10 bit [HDR] от Mr. Fox
HEVC
10 bit
Обложка Бэтмен / Batman (1989) UHD-BDRip 1080p [HEVC] 10 bit [HDR] от Mr. Fox Год: 1989
Страна: США, Великобритания
Студия: Guber-Peters Company, PolyGram Filmed Entertainment, Warner Bros.
Жанр: Фантастика, Боевик, Триллер, Криминал
Продолжительность: 02:06:19

Режиссер: Тим Бёртон
В ролях: Майкл Китон, Джек Николсон, Ким Бейсингер, Роберт Вул, Пэт Хингл, Билли Ди Уильямс, Майкл Гоф, Джек Пэланс, Джерри Холл, Трейси Уолтер

Описание: В раннем детстве юный наследник Брюс Уэйн стал свидетелем убийства своих родителей и после этого стал ненавидеть преступность. В Готэме все чаще случались насилие, ограбления и убийства. В трудное для города время появляется герой, способный укротить любого преступника и заставить его бежать в страхе. Таинственный мститель, герой по прозвищу «Бэтмен», встал на защиту слабых и начал свою борьбу с преступниками. Раскрыть таинственность героя, узнать, кто скрывается за маской героя хотят журналистка Вики Вейл и репортер Нокс. Тем временем один из преступников, уходя от полицейской погони, упал в чан с химикатами и превратился в Джокера, который стал угрозой для города. Только Бэтмен может ему помешать...


Видео: 1920x1038, ~8559 Кбит/сек
Аудио1: AC3, 6 ch, 640 Kbps - РусскийРусский, Дублированный (Лицензия)
Аудио2: AC3, 2 ch, 192 Kbps - УкраинскийУкраинский, Дублированный (НЛО)
Аудио3: AC3, 6 ch, 640 Kbps - АнглийскийАнглийский, Оригинал
Субтитры: русские (полные), украинские (форсированные, полные), английские (полные, SDH)

Как за пару секунд удалить ненужные аудиодорожки и субтитры (Внимание! После удаления вы не сможете поддержать раздачу)

Лог (x265 info)
x265 [info]: frame I: Avg QP:18.11 kb/s
x265 [info]: frame P: Avg QP:19.34 kb/s
x265 [info]: frame B: Avg QP:21.17 kb/s
Медиаинфо
General
Unique ID : 319852898790868516980181020925404815730 (0xF0A16D7471942F4F78C41BBA6CFAA172)
Complete name : E:\Torrent\Batman\1. Batman (1989).mkv
Format : Matroska
Format version : Version 4
File size : 8.85 GiB
Duration : 2 h 6 min
Overall bit rate : 10.0 Mb/s
Movie name : Batman (1989)
Encoded date : UTC 2022-01-06 04:18:49
Writing application : mkvmerge v64.0.0 ('Willows') 64-bit
Writing library : libebml v1.4.2 + libmatroska v1.6.4
Cover : Yes
Attachments : cover

Video
ID : 1
Format : HEVC
Format/Info : High Efficiency Video Coding
Format profile : Main 10@L4.1@High
HDR format : SMPTE ST 2086, HDR10 compatible
Codec ID : V_MPEGH/ISO/HEVC
Duration : 2 h 6 min
Bit rate : 8 559 kb/s
Width : 1 920 pixels
Height : 1 038 pixels
Display aspect ratio : 1.85:1
Frame rate mode : Constant
Frame rate : 23.976 (23976/1000) FPS
Original frame rate : 23.976 (24000/1001) FPS
Color space : YUV
Chroma subsampling : 4:2:0 (Type 2)
Bit depth : 10 bits
Bits/(Pixel*Frame) : 0.179
Stream size : 7.55 GiB (85%)
Writing library : x265 3.5+1-ce882936d:[Windows][MSVC 1928][64 bit] 10bit
Encoding settings : cpuid=1111039 / frame-threads=4 / numa-pools=16 / wpp / no-pmode / no-pme / no-psnr / no-ssim / log-level=2 / input-csp=1 / input-res=1920x1038 / interlace=0 / total-frames=181700 / level-idc=41 / high-tier=1 / uhd-bd=0 / ref=5 / no-allow-non-conformance / repeat-headers / annexb / no-aud / no-hrd / info / hash=0 / no-temporal-layers / open-gop / min-keyint=23 / keyint=240 / gop-lookahead=0 / bframes=12 / b-adapt=2 / b-pyramid / bframe-bias=0 / rc-lookahead=60 / lookahead-slices=4 / scenecut=40 / hist-scenecut=0 / radl=0 / no-splice / no-intra-refresh / ctu=32 / min-cu-size=8 / rect / amp / max-tu-size=32 / tu-inter-depth=4 / tu-intra-depth=4 / limit-tu=1 / rdoq-level=2 / dynamic-rd=0.00 / no-ssim-rd / signhide / no-tskip / nr-intra=0 / nr-inter=0 / no-constrained-intra / no-strong-intra-smoothing / max-merge=4 / limit-refs=2 / limit-modes / me=3 / subme=7 / merange=57 / temporal-mvp / no-frame-dup / no-hme / weightp / weightb / no-analyze-src-pics / deblock=-3:-3 / no-sao / no-sao-non-deblock / rd=6 / selective-sao=0 / no-early-skip / no-rskip / no-fast-intra / no-tskip-fast / no-cu-lossless / no-b-intra / no-splitrd-skip / rdpenalty=0 / psy-rd=2.00 / psy-rdoq=1.00 / no-rd-refine / no-lossless / cbqpoffs=0 / crqpoffs=0 / rc=crf / crf=19.0 / qcomp=0.60 / qpstep=4 / stats-write=0 / stats-read=0 / vbv-maxrate=50000 / vbv-bufsize=50000 / vbv-init=0.9 / min-vbv-fullness=50.0 / max-vbv-fullness=80.0 / crf-max=0.0 / crf-min=0.0 / ipratio=1.40 / pbratio=1.30 / aq-mode=1 / aq-strength=1.00 / no-cutree / zone-count=0 / no-strict-cbr / qg-size=32 / no-rc-grain / qpmax=69 / qpmin=0 / no-const-vbv / sar=1 / overscan=0 / videoformat=5 / range=0 / colorprim=9 / transfer=16 / colormatrix=9 / chromaloc=1 / chromaloc-top=2 / chromaloc-bottom=2 / display-window=0 / master-display=G(13250,34500)B(7500,3000)R(34000,16000)WP(15635,16450)L(40000000,50) / cll=1284,113 / min-luma=0 / max-luma=1023 / log2-max-poc-lsb=8 / vui-timing-info / vui-hrd-info / slices=1 / no-opt-qp-pps / no-opt-ref-list-length-pps / no-multi-pass-opt-rps / scenecut-bias=0.05 / hist-threshold=0.03 / no-opt-cu-delta-qp / no-aq-motion / hdr10 / hdr10-opt / no-dhdr10-opt / no-idr-recovery-sei / analysis-reuse-level=0 / analysis-save-reuse-level=0 / analysis-load-reuse-level=0 / scale-factor=0 / refine-intra=0 / refine-inter=0 / refine-mv=1 / refine-ctu-distortion=0 / no-limit-sao / ctu-info=0 / no-lowpass-dct / refine-analysis-type=0 / copy-pic=1 / max-ausize-factor=1.0 / no-dynamic-refine / no-single-sei / no-hevc-aq / no-svt / no-field / qp-adaptation-range=1.00 / scenecut-aware-qp=0conformance-window-offsets / right=0 / bottom=0 / decoder-max-rate=0 / no-vbv-live-multi-pass
Default : Yes
Forced : No
Color range : Limited
Color primaries : BT.2020
Transfer characteristics : PQ
Matrix coefficients : BT.2020 non-constant
Mastering display color primar : Display P3
Mastering display luminance : min: 0.0050 cd/m2, max: 4000 cd/m2
Maximum Content Light Level : 1284 cd/m2
Maximum Frame-Average Light Le : 113 cd/m2

Audio #1
ID : 2
Format : AC-3
Format/Info : Audio Coding 3
Commercial name : Dolby Digital
Codec ID : A_AC3
Duration : 2 h 6 min
Bit rate mode : Constant
Bit rate : 640 kb/s
Channel(s) : 6 channels
Channel layout : L R C LFE Ls Rs
Sampling rate : 48.0 kHz
Frame rate : 31.250 FPS (1536 SPF)
Compression mode : Lossy
Stream size : 578 MiB (6%)
Title : Дубляж (Лицензия)
Language : Russian
Service kind : Complete Main
Default : Yes
Forced : Yes

Audio #2
ID : 3
Format : AC-3
Format/Info : Audio Coding 3
Commercial name : Dolby Digital
Codec ID : A_AC3
Duration : 2 h 6 min
Bit rate mode : Constant
Bit rate : 192 kb/s
Channel(s) : 2 channels
Channel layout : L R
Sampling rate : 48.0 kHz
Frame rate : 31.250 FPS (1536 SPF)
Compression mode : Lossy
Stream size : 173 MiB (2%)
Title : Дубляж (НЛО)
Language : Ukrainian
Service kind : Complete Main
Default : No
Forced : No

Audio #3
ID : 4
Format : AC-3
Format/Info : Audio Coding 3
Commercial name : Dolby Digital
Format settings : Dolby Surround EX
Codec ID : A_AC3
Duration : 2 h 6 min
Bit rate mode : Constant
Bit rate : 640 kb/s
Channel(s) : 6 channels
Channel layout : L R C LFE Ls Rs
Sampling rate : 48.0 kHz
Frame rate : 31.250 FPS (1536 SPF)
Compression mode : Lossy
Stream size : 578 MiB (6%)
Title : Original
Language : English
Service kind : Complete Main
Default : No
Forced : No

Text #1
ID : 5
Format : UTF-8
Codec ID : S_TEXT/UTF8
Codec ID/Info : UTF-8 Plain Text
Duration : 2 h 0 min
Bit rate : 50 b/s
Count of elements : 978
Stream size : 44.5 KiB (0%)
Title : Full
Language : Russian
Default : No
Forced : No

Text #2
ID : 6
Format : UTF-8
Codec ID : S_TEXT/UTF8
Codec ID/Info : UTF-8 Plain Text
Duration : 1 h 29 min
Bit rate : 1 b/s
Count of elements : 33
Stream size : 886 Bytes (0%)
Title : Forced
Language : Ukrainian
Default : No
Forced : No

Text #3
ID : 7
Format : UTF-8
Codec ID : S_TEXT/UTF8
Codec ID/Info : UTF-8 Plain Text
Duration : 2 h 5 min
Bit rate : 47 b/s
Count of elements : 1046
Stream size : 44.1 KiB (0%)
Title : Full
Language : Ukrainian
Default : No
Forced : No

Text #4
ID : 8
Format : UTF-8
Codec ID : S_TEXT/UTF8
Codec ID/Info : UTF-8 Plain Text
Duration : 2 h 3 min
Bit rate : 37 b/s
Count of elements : 1012
Stream size : 33.5 KiB (0%)
Title : Full
Language : English
Default : No
Forced : No

Text #5
ID : 9
Format : UTF-8
Codec ID : S_TEXT/UTF8
Codec ID/Info : UTF-8 Plain Text
Duration : 2 h 0 min
Bit rate : 42 b/s
Count of elements : 1264
Stream size : 37.4 KiB (0%)
Title : SDH
Language : English
Default : No
Forced : No

Menu
00:00:00.000 : en:Credits
00:02:33.153 : en:"I'm Batman"
00:07:03.590 : en:Looking Fine
00:09:26.566 : en:Better Be Sure
00:12:21.991 : en:Knox Meets Vale
00:14:41.839 : en:Grissom's #1 Guy
00:17:03.564 : en:Party at Wayne Manor
00:20:05.287 : en:Their Odd Host
00:23:57.811 : en:Axis Chemical Ambush
00:27:05.749 : en:Napier's Plunge
00:30:25.365 : en:Dinner for Two
00:34:12.259 : en:Drastic Surgery
00:36:13.546 : en:Call Me Joker
00:38:24.302 : en:"Get a Load of Me"
00:41:06.047 : en:Glad You're Dead
00:45:06.495 : en:Two Roses
00:48:06.801 : en:Vengeance - And No Press
00:50:51.465 : en:So Much to Do
00:54:18.881 : en:Put On a Happy Face
00:57:54.096 : en:Cosmetics Scare
00:59:34.070 : en:Museum Date
01:06:37.785 : en:Wonderful Toys
01:12:23.923 : en:Not Exactly Normal
01:16:28.959 : en:A Name to My Pain
01:18:18.861 : en:Not Quite Telling Her
01:21:10.449 : en:Dancing With the Devil
01:25:29.833 : en:Don't Get Personal
01:27:24.739 : en:Gauntlet Thrown
01:29:32.701 : en:Sad Memory; Getting In
01:33:57.799 : en:Chemical Inferno
01:35:50.119 : en:Gotham's Greed
01:38:15.556 : en:The Batwing
01:42:43.616 : en:Come to Me
01:46:34.013 : en:Bell Tower Ascent
01:50:10.729 : en:Bat in My Belfry
01:53:19.960 : en:Downfalls
01:59:42.967 : en:Signals
02:02:30.134 : en:End Credits
Загрузка...Cкриншот1 Бэтмен / Batman (1989) UHD-BDRip 1080p [HEVC] 10 bit [HDR] от Mr. FoxЗагрузка...Cкриншот2 Бэтмен / Batman (1989) UHD-BDRip 1080p [HEVC] 10 bit [HDR] от Mr. FoxЗагрузка...Cкриншот3 Бэтмен / Batman (1989) UHD-BDRip 1080p [HEVC] 10 bit [HDR] от Mr. FoxЗагрузка...Cкриншот4 Бэтмен / Batman (1989) UHD-BDRip 1080p [HEVC] 10 bit [HDR] от Mr. Fox
Сэмпл
2. Бэтмен возвращается / Batman Returns (1992) UHD-BDRip 1080p [HEVC] 10 bit [HDR] от Mr. Fox
HEVC
10 bit
Обложка Бэтмен возвращается / Batman Returns (1992) UHD-BDRip 1080p [HEVC] 10 bit [HDR] от Mr. Fox Год: 1992
Страна: США, Великобритания
Студия: PolyGram Filmed Entertainment, Warner Bros.
Жанр: Боевик, Фантастика
Продолжительность: 02:06:28

Режиссер: Тим Бёртон
В ролях: Майкл Китон, Дэнни ДеВито, Мишель Пфайффер, Кристофер Уокен, Майкл Гоф, Майкл Мерфи, Кристи Конэуэй, Эндрю Бринярски, Пэт Хингл, Винсент Скьявелли

Описание: Над Готэмом нависла новая угроза. Два эксцентричных персонажа: мерзкий Пингвин, брошенный родителями и вышедший из городской канализации, и таинственная Женщина-Кошка начали борьбу за власть. Один из них намерен занять кресло мэра города, а другая испытывает романтические чувства к готэмскому герою. Сможет ли Бэтмен победить таких грозных противников одновременно?


Видео: 1920x1038, ~7662 Кбит/сек
Аудио1: AC3, 6 ch, 448 Kbps - РусскийРусский, Дублированный (Лицензия)
Аудио2: AC3, 2 ch, 192 Kbps - УкраинскийУкраинский, Дублированный (НЛО)
Аудио3: AC3, 6 ch, 640 Kbps - АнглийскийАнглийский, Оригинал
Субтитры: русские (полные), украинские (форсированные, полные), английские (полные, SDH)

Как за пару секунд удалить ненужные аудиодорожки и субтитры (Внимание! После удаления вы не сможете поддержать раздачу)

Лог (x265 info)
x265 [info]: frame I: Avg QP:18.27 kb/s
x265 [info]: frame P: Avg QP:19.51 kb/s
x265 [info]: frame B: Avg QP:21.48 kb/s
Медиаинфо
General
Unique ID : 48095279590859272069848712083894768919 (0x242ED05CB7EC1A5908702F8918151517)
Complete name : E:\Torrent\Batman\2. Batman Returns (1992).mkv
Format : Matroska
Format version : Version 4
File size : 7.90 GiB
Duration : 2 h 6 min
Overall bit rate : 8 943 kb/s
Movie name : Batman Returns (1992)
Encoded date : UTC 2022-01-08 06:13:27
Writing application : mkvmerge v64.0.0 ('Willows') 64-bit
Writing library : libebml v1.4.2 + libmatroska v1.6.4
Cover : Yes
Attachments : cover

Video
ID : 1
Format : HEVC
Format/Info : High Efficiency Video Coding
Format profile : Main 10@L4.1@High
HDR format : SMPTE ST 2086, HDR10 compatible
Codec ID : V_MPEGH/ISO/HEVC
Duration : 2 h 6 min
Bit rate : 7 662 kb/s
Width : 1 920 pixels
Height : 1 038 pixels
Display aspect ratio : 1.85:1
Frame rate mode : Constant
Frame rate : 23.976 (23976/1000) FPS
Original frame rate : 23.976 (24000/1001) FPS
Color space : YUV
Chroma subsampling : 4:2:0 (Type 2)
Bit depth : 10 bits
Bits/(Pixel*Frame) : 0.160
Stream size : 6.77 GiB (86%)
Writing library : x265 3.5+1-ce882936d:[Windows][MSVC 1928][64 bit] 10bit
Encoding settings : cpuid=1111039 / frame-threads=4 / numa-pools=16 / wpp / no-pmode / no-pme / no-psnr / no-ssim / log-level=2 / input-csp=1 / input-res=1920x1038 / interlace=0 / total-frames=181906 / level-idc=41 / high-tier=1 / uhd-bd=0 / ref=5 / no-allow-non-conformance / repeat-headers / annexb / no-aud / no-hrd / info / hash=0 / no-temporal-layers / open-gop / min-keyint=23 / keyint=240 / gop-lookahead=0 / bframes=12 / b-adapt=2 / b-pyramid / bframe-bias=0 / rc-lookahead=60 / lookahead-slices=4 / scenecut=40 / hist-scenecut=0 / radl=0 / no-splice / no-intra-refresh / ctu=32 / min-cu-size=8 / rect / amp / max-tu-size=32 / tu-inter-depth=4 / tu-intra-depth=4 / limit-tu=1 / rdoq-level=2 / dynamic-rd=0.00 / no-ssim-rd / signhide / no-tskip / nr-intra=0 / nr-inter=0 / no-constrained-intra / no-strong-intra-smoothing / max-merge=4 / limit-refs=2 / limit-modes / me=3 / subme=7 / merange=57 / temporal-mvp / no-frame-dup / no-hme / weightp / weightb / no-analyze-src-pics / deblock=-3:-3 / no-sao / no-sao-non-deblock / rd=6 / selective-sao=0 / no-early-skip / no-rskip / no-fast-intra / no-tskip-fast / no-cu-lossless / no-b-intra / no-splitrd-skip / rdpenalty=0 / psy-rd=2.00 / psy-rdoq=1.00 / no-rd-refine / no-lossless / cbqpoffs=0 / crqpoffs=0 / rc=crf / crf=19.0 / qcomp=0.65 / qpstep=4 / stats-write=0 / stats-read=0 / vbv-maxrate=50000 / vbv-bufsize=50000 / vbv-init=0.9 / min-vbv-fullness=50.0 / max-vbv-fullness=80.0 / crf-max=0.0 / crf-min=0.0 / ipratio=1.40 / pbratio=1.30 / aq-mode=1 / aq-strength=1.00 / no-cutree / zone-count=0 / no-strict-cbr / qg-size=32 / no-rc-grain / qpmax=69 / qpmin=0 / no-const-vbv / sar=1 / overscan=0 / videoformat=5 / range=0 / colorprim=9 / transfer=16 / colormatrix=9 / chromaloc=1 / chromaloc-top=2 / chromaloc-bottom=2 / display-window=0 / master-display=G(13250,34500)B(7500,3000)R(34000,16000)WP(15635,16450)L(40000000,50) / cll=1993,311 / min-luma=0 / max-luma=1023 / log2-max-poc-lsb=8 / vui-timing-info / vui-hrd-info / slices=1 / no-opt-qp-pps / no-opt-ref-list-length-pps / no-multi-pass-opt-rps / scenecut-bias=0.05 / hist-threshold=0.03 / no-opt-cu-delta-qp / no-aq-motion / hdr10 / hdr10-opt / no-dhdr10-opt / no-idr-recovery-sei / analysis-reuse-level=0 / analysis-save-reuse-level=0 / analysis-load-reuse-level=0 / scale-factor=0 / refine-intra=0 / refine-inter=0 / refine-mv=1 / refine-ctu-distortion=0 / no-limit-sao / ctu-info=0 / no-lowpass-dct / refine-analysis-type=0 / copy-pic=1 / max-ausize-factor=1.0 / no-dynamic-refine / no-single-sei / no-hevc-aq / no-svt / no-field / qp-adaptation-range=1.00 / scenecut-aware-qp=0conformance-window-offsets / right=0 / bottom=0 / decoder-max-rate=0 / no-vbv-live-multi-pass
Default : Yes
Forced : No
Color range : Limited
Color primaries : BT.2020
Transfer characteristics : PQ
Matrix coefficients : BT.2020 non-constant
Mastering display color primar : Display P3
Mastering display luminance : min: 0.0050 cd/m2, max: 4000 cd/m2
Maximum Content Light Level : 1993 cd/m2
Maximum Frame-Average Light Le : 311 cd/m2

Audio #1
ID : 2
Format : AC-3
Format/Info : Audio Coding 3
Commercial name : Dolby Digital
Codec ID : A_AC3
Duration : 2 h 6 min
Bit rate mode : Constant
Bit rate : 448 kb/s
Channel(s) : 6 channels
Channel layout : L R C LFE Ls Rs
Sampling rate : 48.0 kHz
Frame rate : 31.250 FPS (1536 SPF)
Compression mode : Lossy
Delay relative to video : 1 ms
Stream size : 405 MiB (5%)
Title : Дубляж (Лицензия)
Language : Russian
Service kind : Complete Main
Default : Yes
Forced : Yes

Audio #2
ID : 3
Format : AC-3
Format/Info : Audio Coding 3
Commercial name : Dolby Digital
Codec ID : A_AC3
Duration : 2 h 6 min
Bit rate mode : Constant
Bit rate : 192 kb/s
Channel(s) : 2 channels
Channel layout : L R
Sampling rate : 48.0 kHz
Frame rate : 31.250 FPS (1536 SPF)
Compression mode : Lossy
Stream size : 174 MiB (2%)
Title : Дубляж (НЛО)
Language : Ukrainian
Service kind : Complete Main
Default : No
Forced : No

Audio #3
ID : 4
Format : AC-3
Format/Info : Audio Coding 3
Commercial name : Dolby Digital
Format settings : Dolby Surround EX
Codec ID : A_AC3
Duration : 2 h 6 min
Bit rate mode : Constant
Bit rate : 640 kb/s
Channel(s) : 6 channels
Channel layout : L R C LFE Ls Rs
Sampling rate : 48.0 kHz
Frame rate : 31.250 FPS (1536 SPF)
Compression mode : Lossy
Delay relative to video : 32 ms
Stream size : 579 MiB (7%)
Title : Original
Language : English
Service kind : Complete Main
Default : No
Forced : No

Text #1
ID : 5
Format : UTF-8
Codec ID : S_TEXT/UTF8
Codec ID/Info : UTF-8 Plain Text
Duration : 1 h 58 min
Bit rate : 57 b/s
Count of elements : 1052
Stream size : 49.5 KiB (0%)
Title : Full
Language : Russian
Default : No
Forced : No

Text #2
ID : 6
Format : UTF-8
Codec ID : S_TEXT/UTF8
Codec ID/Info : UTF-8 Plain Text
Duration : 1 h 29 min
Bit rate : 0 b/s
Count of elements : 9
Stream size : 223 Bytes (0%)
Title : Forced
Language : Ukrainian
Default : No
Forced : No

Text #3
ID : 7
Format : UTF-8
Codec ID : S_TEXT/UTF8
Codec ID/Info : UTF-8 Plain Text
Duration : 2 h 6 min
Bit rate : 54 b/s
Count of elements : 1027
Stream size : 50.2 KiB (0%)
Title : Full
Language : Ukrainian
Default : No
Forced : No

Text #4
ID : 8
Format : UTF-8
Codec ID : S_TEXT/UTF8
Codec ID/Info : UTF-8 Plain Text
Duration : 2 h 4 min
Bit rate : 36 b/s
Count of elements : 1034
Stream size : 33.7 KiB (0%)
Title : Full
Language : English
Default : No
Forced : No

Text #5
ID : 9
Format : UTF-8
Codec ID : S_TEXT/UTF8
Codec ID/Info : UTF-8 Plain Text
Duration : 2 h 5 min
Bit rate : 39 b/s
Count of elements : 1136
Stream size : 36.6 KiB (0%)
Title : SDH
Language : English
Default : No
Forced : No

Text #6
ID : 10
Format : UTF-8
Codec ID : S_TEXT/UTF8
Codec ID/Info : UTF-8 Plain Text
Duration : 2 h 5 min
Bit rate : 38 b/s
Count of elements : 1132
Stream size : 35.8 KiB (0%)
Title : SDH
Language : English
Default : No
Forced : No

Menu #1
00:00:00.000 : :Глава 01
00:02:23.059 : :Глава 02
00:05:30.371 : :Глава 03
00:07:09.846 : :Глава 04
00:09:22.520 : :Глава 05
00:12:47.767 : :Глава 06
00:17:12.865 : :Глава 07
00:23:11.264 : :Глава 08
00:25:18.725 : :Глава 09
00:28:30.125 : :Глава 10
00:33:50.862 : :Глава 11
00:40:26.674 : :Глава 12
00:43:03.872 : :Глава 13
00:44:11.982 : :Глава 14
00:48:31.033 : :Глава 15
00:54:08.078 : :Глава 16
00:55:47.719 : :Глава 17
00:57:59.601 : :Глава 18
00:59:43.997 : :Глава 19
01:02:15.440 : :Глава 20
01:07:47.438 : :Глава 21
01:10:01.780 : :Глава 22
01:13:08.759 : :Глава 23
01:18:00.050 : :Глава 24
01:20:42.254 : :Глава 25
01:22:29.361 : :Глава 26
01:26:43.823 : :Глава 27
01:31:44.707 : :Глава 28
01:33:47.288 : :Глава 29
01:38:13.596 : :Глава 30
01:40:38.449 : :Глава 31
01:42:43.532 : :Глава 32
01:44:08.325 : :Глава 33
01:48:42.557 : :Глава 34
01:50:45.430 : :Глава 35
01:53:55.912 : :Глава 36
01:55:46.230 : :Глава 37
01:58:21.677 : :Глава 38
02:00:51.285 : :Глава 39

Menu #2
00:00:00.000 : en:"I'll Get Drive-Through" (Credits)
00:02:23.308 : en:Of Two Minds; Insightful But Naive
00:05:30.663 : en:Steel Trap
00:07:10.096 : en:Copter Chaos
00:09:22.727 : en:Too Many Questions
00:12:48.099 : en:Getting Under His Cape
00:17:13.198 : en:Terminating Stickley
00:23:11.556 : en:Riddles to Solve (Bad Days)
00:25:19.016 : en:Not Exactly What They Seem
00:28:30.375 : en:Tragedy Under the Big Top
00:33:51.195 : en:Wayne Manor's New Resident
00:40:26.924 : en:"It's Happening Again"
00:43:04.081 : en:Broken Wings Mend in Time
00:44:12.315 : en:Ambush on Gotham's Streets
00:48:31.241 : en:The Riddler Comes Calling
00:54:08.411 : en:A New Criminal Couple
00:55:48.011 : en:Secrets in the Sky and Under Wayne Manor
00:57:59.809 : en:"We're All Two People"
00:59:44.247 : en:A Ride in the Other Car (Smash It Up, Where Are You Now?)
01:02:15.731 : en:"I'm a Part of This"
01:07:47.729 : en:The Nygmatech Tango
01:10:02.198 : en:Party Crashers
01:13:09.051 : en:Needed Guidance
01:17:59.341 : en:The Lady Decides
01:20:42.504 : en:Bats on the Brain
01:22:29.611 : en:The Crimefighter Decides
01:26:44.032 : en:Unhappy Halloween
01:31:44.999 : en:Intruders at Wayne Manor
01:33:47.455 : en:Counting on Batman
01:38:13.887 : en:Partners
01:40:38.698 : en:By Air and Sea
01:42:44.158 : en:Taking a Dive
01:44:08.575 : en:Clash on Claw Island
01:48:42.849 : en:Double Jeopardy
01:50:45.639 : en:Flipped Out
01:53:56.162 : en:Now a Choice
01:55:46.439 : en:Batman's Identity
01:58:21.928 : en:A New Dream
02:00:50.910 : en:End Credits (Hold Me, Thrill Me, Kiss Me, Kill Me; Kiss From
Загрузка...Cкриншот1 Бэтмен возвращается / Batman Returns (1992) UHD-BDRip 1080p [HEVC] 10 bit [HDR] от Mr. FoxЗагрузка...Cкриншот2 Бэтмен возвращается / Batman Returns (1992) UHD-BDRip 1080p [HEVC] 10 bit [HDR] от Mr. FoxЗагрузка...Cкриншот3 Бэтмен возвращается / Batman Returns (1992) UHD-BDRip 1080p [HEVC] 10 bit [HDR] от Mr. FoxЗагрузка...Cкриншот4 Бэтмен возвращается / Batman Returns (1992) UHD-BDRip 1080p [HEVC] 10 bit [HDR] от Mr. Fox
Сэмпл
3. Бэтмен навсегда / Batman Forever (1995) UHD-BDRip 1080p [HEVC] 10 bit [HDR] от Mr. Fox
HEVC
10 bit
Обложка Бэтмен навсегда / Batman Forever (1995) UHD-BDRip 1080p [HEVC] 10 bit [HDR] от Mr. Fox Год: 1995
Страна: США, Великобритания
Студия: PolyGram Filmed Entertainment, Warner Bros. Pictures Co.
Жанр: Боевик, Приключения
Продолжительность: 02:01:35

Режиссер: Джоэл Шумахер
В ролях: Вэл Килмер, Томми Ли Джонс, Джим Керри, Николь Кидман, Крис О’Доннелл, Майкл Гоф, Пэт Хингл, Дрю Бэрримор, Деби Мейзар, Элизабет Сэндерс

Описание: Бэтмен продолжает войну со злом. На этот раз ему предстоит биться с двумя объединенными злодеями: бывшим окружным прокурором пострадавшим от кислоты Двуликим и сумасшедшим гением Загадочником. А помогать ему станет юный акробат по имени Робин.


Видео: 1920x1038, ~8714 Кбит/сек
Аудио1: AC3, 6 ch, 448 Kbps - РусскийРусский, Дублированный (Лицензия)
Аудио2: AC3, 2 ch, 192 Kbps - УкраинскийУкраинский, Многоголосый (ICTV)
Аудио3: AC3, 6 ch, 448 Kbps - АнглийскийАнглийский, Оригинал
Субтитры: русские (полные), английские (полные, SDH)

Как за пару секунд удалить ненужные аудиодорожки и субтитры (Внимание! После удаления вы не сможете поддержать раздачу)

Лог (x265 info)
x265 [info]: frame I: Avg QP:17.26 kb/s
x265 [info]: frame P: Avg QP:18.57 kb/s
x265 [info]: frame B: Avg QP:20.61 kb/s
Медиаинфо
General
Unique ID : 117733767602660017388640367200377905675 (0x5892B2E7C7201E25B0D88FA55086220B)
Complete name : E:\Torrent\Batman\3. Batman Forever (1995).mkv
Format : Matroska
Format version : Version 4
File size : 8.33 GiB
Duration : 2 h 1 min
Overall bit rate : 9 805 kb/s
Movie name : Batman Forever (1995)
Encoded date : UTC 2022-01-10 04:08:26
Writing application : mkvmerge v64.0.0 ('Willows') 64-bit
Writing library : libebml v1.4.2 + libmatroska v1.6.4
Cover : Yes
Attachments : cover

Video
ID : 1
Format : HEVC
Format/Info : High Efficiency Video Coding
Format profile : Main 10@L4.1@High
HDR format : SMPTE ST 2086, HDR10 compatible
Codec ID : V_MPEGH/ISO/HEVC
Duration : 2 h 1 min
Bit rate : 8 714 kb/s
Width : 1 920 pixels
Height : 1 038 pixels
Display aspect ratio : 1.85:1
Frame rate mode : Constant
Frame rate : 23.976 (23976/1000) FPS
Original frame rate : 23.976 (24000/1001) FPS
Color space : YUV
Chroma subsampling : 4:2:0 (Type 2)
Bit depth : 10 bits
Bits/(Pixel*Frame) : 0.182
Stream size : 7.40 GiB (89%)
Writing library : x265 3.5+1-ce882936d:[Windows][MSVC 1928][64 bit] 10bit
Encoding settings : cpuid=1111039 / frame-threads=4 / numa-pools=16 / wpp / no-pmode / no-pme / no-psnr / no-ssim / log-level=2 / input-csp=1 / input-res=1920x1038 / interlace=0 / total-frames=174917 / level-idc=41 / high-tier=1 / uhd-bd=0 / ref=5 / no-allow-non-conformance / repeat-headers / annexb / no-aud / no-hrd / info / hash=0 / no-temporal-layers / open-gop / min-keyint=23 / keyint=240 / gop-lookahead=0 / bframes=12 / b-adapt=2 / b-pyramid / bframe-bias=0 / rc-lookahead=60 / lookahead-slices=4 / scenecut=40 / hist-scenecut=0 / radl=0 / no-splice / no-intra-refresh / ctu=32 / min-cu-size=8 / rect / amp / max-tu-size=32 / tu-inter-depth=4 / tu-intra-depth=4 / limit-tu=1 / rdoq-level=2 / dynamic-rd=0.00 / no-ssim-rd / signhide / no-tskip / nr-intra=0 / nr-inter=0 / no-constrained-intra / no-strong-intra-smoothing / max-merge=4 / limit-refs=2 / limit-modes / me=3 / subme=7 / merange=57 / temporal-mvp / no-frame-dup / no-hme / weightp / weightb / no-analyze-src-pics / deblock=-3:-3 / no-sao / no-sao-non-deblock / rd=6 / selective-sao=0 / no-early-skip / no-rskip / no-fast-intra / no-tskip-fast / no-cu-lossless / no-b-intra / no-splitrd-skip / rdpenalty=0 / psy-rd=2.00 / psy-rdoq=1.00 / no-rd-refine / no-lossless / cbqpoffs=0 / crqpoffs=0 / rc=crf / crf=19.0 / qcomp=0.60 / qpstep=4 / stats-write=0 / stats-read=0 / vbv-maxrate=50000 / vbv-bufsize=50000 / vbv-init=0.9 / min-vbv-fullness=50.0 / max-vbv-fullness=80.0 / crf-max=0.0 / crf-min=0.0 / ipratio=1.40 / pbratio=1.30 / aq-mode=1 / aq-strength=1.00 / no-cutree / zone-count=0 / no-strict-cbr / qg-size=32 / no-rc-grain / qpmax=69 / qpmin=0 / no-const-vbv / sar=1 / overscan=0 / videoformat=5 / range=0 / colorprim=9 / transfer=16 / colormatrix=9 / chromaloc=1 / chromaloc-top=2 / chromaloc-bottom=2 / display-window=0 / master-display=G(13250,34500)B(7500,3000)R(34000,16000)WP(15635,16450)L(40000000,50) / cll=1353,135 / min-luma=0 / max-luma=1023 / log2-max-poc-lsb=8 / vui-timing-info / vui-hrd-info / slices=1 / no-opt-qp-pps / no-opt-ref-list-length-pps / no-multi-pass-opt-rps / scenecut-bias=0.05 / hist-threshold=0.03 / no-opt-cu-delta-qp / no-aq-motion / hdr10 / hdr10-opt / no-dhdr10-opt / no-idr-recovery-sei / analysis-reuse-level=0 / analysis-save-reuse-level=0 / analysis-load-reuse-level=0 / scale-factor=0 / refine-intra=0 / refine-inter=0 / refine-mv=1 / refine-ctu-distortion=0 / no-limit-sao / ctu-info=0 / no-lowpass-dct / refine-analysis-type=0 / copy-pic=1 / max-ausize-factor=1.0 / no-dynamic-refine / no-single-sei / no-hevc-aq / no-svt / no-field / qp-adaptation-range=1.00 / scenecut-aware-qp=0conformance-window-offsets / right=0 / bottom=0 / decoder-max-rate=0 / no-vbv-live-multi-pass
Default : Yes
Forced : No
Color range : Limited
Color primaries : BT.2020
Transfer characteristics : PQ
Matrix coefficients : BT.2020 non-constant
Mastering display color primar : Display P3
Mastering display luminance : min: 0.0050 cd/m2, max: 4000 cd/m2
Maximum Content Light Level : 1353 cd/m2
Maximum Frame-Average Light Le : 135 cd/m2

Audio #1
ID : 2
Format : AC-3
Format/Info : Audio Coding 3
Commercial name : Dolby Digital
Codec ID : A_AC3
Duration : 2 h 1 min
Bit rate mode : Constant
Bit rate : 448 kb/s
Channel(s) : 6 channels
Channel layout : L R C LFE Ls Rs
Sampling rate : 48.0 kHz
Frame rate : 31.250 FPS (1536 SPF)
Compression mode : Lossy
Stream size : 390 MiB (5%)
Title : Дубляж (Лицензия)
Language : Russian
Service kind : Complete Main
Default : Yes
Forced : Yes

Audio #2
ID : 3
Format : AC-3
Format/Info : Audio Coding 3
Commercial name : Dolby Digital
Codec ID : A_AC3
Duration : 2 h 1 min
Bit rate mode : Constant
Bit rate : 192 kb/s
Channel(s) : 2 channels
Channel layout : L R
Sampling rate : 48.0 kHz
Frame rate : 31.250 FPS (1536 SPF)
Compression mode : Lossy
Delay relative to video : 42 ms
Stream size : 167 MiB (2%)
Title : MVO (ICTV)
Language : Ukrainian
Service kind : Complete Main
Default : No
Forced : No

Audio #3
ID : 4
Format : AC-3
Format/Info : Audio Coding 3
Commercial name : Dolby Digital
Format settings : Dolby Surround EX
Codec ID : A_AC3
Duration : 2 h 1 min
Bit rate mode : Constant
Bit rate : 448 kb/s
Channel(s) : 6 channels
Channel layout : L R C LFE Ls Rs
Sampling rate : 48.0 kHz
Frame rate : 31.250 FPS (1536 SPF)
Compression mode : Lossy
Stream size : 390 MiB (5%)
Title : Original
Language : English
Service kind : Complete Main
Default : No
Forced : No

Text #1
ID : 5
Format : UTF-8
Codec ID : S_TEXT/UTF8
Codec ID/Info : UTF-8 Plain Text
Duration : 1 h 55 min
Bit rate : 58 b/s
Count of elements : 1134
Stream size : 49.6 KiB (0%)
Title : Full
Language : Russian
Default : No
Forced : No

Text #2
ID : 6
Format : UTF-8
Codec ID : S_TEXT/UTF8
Codec ID/Info : UTF-8 Plain Text
Duration : 1 h 55 min
Bit rate : 40 b/s
Count of elements : 1248
Stream size : 34.0 KiB (0%)
Title : Full
Language : English
Default : No
Forced : No

Text #3
ID : 7
Format : UTF-8
Codec ID : S_TEXT/UTF8
Codec ID/Info : UTF-8 Plain Text
Duration : 1 h 56 min
Bit rate : 55 b/s
Count of elements : 1763
Stream size : 47.1 KiB (0%)
Title : SDH
Language : English
Default : No
Forced : No

Menu
00:00:00.000 : :Глава 01
00:02:18.012 : :Глава 02
00:05:30.496 : :Глава 03
00:10:10.610 : :Глава 04
00:12:40.926 : :Глава 05
00:16:36.829 : :Глава 06
00:19:55.903 : :Глава 07
00:24:52.240 : :Глава 08
00:29:09.914 : :Глава 09
00:32:56.557 : :Глава 10
00:41:03.252 : :Глава 11
00:44:09.605 : :Глава 12
00:46:51.767 : :Глава 13
00:48:09.177 : :Глава 14
00:50:49.421 : :Глава 15
00:56:48.822 : :Глава 16
00:58:16.951 : :Глава 17
01:01:51.165 : :Глава 18
01:04:45.089 : :Глава 19
01:08:38.155 : :Глава 20
01:10:24.762 : :Глава 21
01:15:14.009 : :Глава 22
01:19:55.665 : :Глава 23
01:21:59.748 : :Глава 24
01:24:06.708 : :Глава 25
01:24:58.510 : :Глава 26
01:26:17.505 : :Глава 27
01:31:36.073 : :Глава 28
01:35:50.661 : :Глава 29
01:37:25.005 : :Глава 30
01:39:55.948 : :Глава 31
01:41:11.565 : :Глава 32
01:42:54.042 : :Глава 33
01:44:58.792 : :Глава 34
01:52:35.665 : :Глава 35
01:53:45.109 : :Глава 36
01:54:42.333 : :Глава 37
01:56:03.706 : :Глава 38
01:57:33.212 : :Глава 39
Загрузка...Cкриншот1 Бэтмен навсегда / Batman Forever (1995) UHD-BDRip 1080p [HEVC] 10 bit [HDR] от Mr. FoxЗагрузка...Cкриншот2 Бэтмен навсегда / Batman Forever (1995) UHD-BDRip 1080p [HEVC] 10 bit [HDR] от Mr. FoxЗагрузка...Cкриншот3 Бэтмен навсегда / Batman Forever (1995) UHD-BDRip 1080p [HEVC] 10 bit [HDR] от Mr. FoxЗагрузка...Cкриншот4 Бэтмен навсегда / Batman Forever (1995) UHD-BDRip 1080p [HEVC] 10 bit [HDR] от Mr. Fox
Сэмпл
4. Бэтмен и Робин / Batman & Robin (1997) UHD-BDRip 1080p [HEVC] 10 bit [HDR] от Mr. Fox
HEVC
10 bit
Обложка Бэтмен и Робин / Batman & Robin (1997) UHD-BDRip 1080p [HEVC] 10 bit [HDR] от Mr. Fox Год: 1997
Страна: США, Великобритания
Студия: PolyGram Filmed Entertainment, Warner Bros. Pictures Co.
Жанр: Фантастика, Боевик
Продолжительность: 02:04:53

Режиссер: Джоэл Шумахер
В ролях: Арнольд Шварценеггер, Джордж Клуни, Крис О’Доннелл, Ума Турман, Алисия Сильверстоун, Майкл Гоф, Пэт Хингл, Джон Гловер, Эль Макферсон, Вивика А. Фокс

Описание: Над Готэмом вновь нависла угроза: злодей-морозилка Мистер Фриз и психованная любительница растений по кличке Ядовитый Плющ решают уничтожить город. Единственные, кто могут остановить злодеев — Бэтмен и Робин, однако у этих супергероев возникают разногласия…


Видео: 1920x1038, ~8450 Кбит/сек
Аудио1: AC3, 6 ch, 448 Kbps - РусскийРусский, Дублированный (Лицензия)
Аудио2: AC3, 2 ch, 192 Kbps - УкраинскийУкраинский, Дублированный (НЛО)
Аудио3: AC3, 6 ch, 640 Kbps - АнглийскийАнглийский, Оригинал
Субтитры: русские (полные), английские (полные, SDH)

Как за пару секунд удалить ненужные аудиодорожки и субтитры (Внимание! После удаления вы не сможете поддержать раздачу)

Лог (x265 info)
x265 [info]: frame I: Avg QP:17.78 kb/s
x265 [info]: frame P: Avg QP:19.08 kb/s
x265 [info]: frame B: Avg QP:21.09 kb/s
Медиаинфо
General
Unique ID : 8855705083182712466561011141822458243 (0x6A98BF873E00978A9877BB30E652983)
Complete name : E:\Torrent\Batman\4. Batman and Robin (1997).mkv
Format : Matroska
Format version : Version 4
File size : 8.49 GiB
Duration : 2 h 4 min
Overall bit rate : 9 730 kb/s
Movie name : Batman and Robin (1997)
Encoded date : UTC 2022-01-11 15:03:31
Writing application : mkvmerge v64.0.0 ('Willows') 64-bit
Writing library : libebml v1.4.2 + libmatroska v1.6.4
Cover : Yes
Attachments : cover

Video
ID : 1
Format : HEVC
Format/Info : High Efficiency Video Coding
Format profile : Main 10@L4.1@High
HDR format : SMPTE ST 2086, HDR10 compatible
Codec ID : V_MPEGH/ISO/HEVC
Duration : 2 h 4 min
Bit rate : 8 450 kb/s
Width : 1 920 pixels
Height : 1 038 pixels
Display aspect ratio : 1.85:1
Frame rate mode : Constant
Frame rate : 23.976 (23976/1000) FPS
Original frame rate : 23.976 (24000/1001) FPS
Color space : YUV
Chroma subsampling : 4:2:0 (Type 2)
Bit depth : 10 bits
Bits/(Pixel*Frame) : 0.177
Stream size : 7.37 GiB (87%)
Writing library : x265 3.5+1-ce882936d:[Windows][MSVC 1928][64 bit] 10bit
Encoding settings : cpuid=1111039 / frame-threads=4 / numa-pools=16 / wpp / no-pmode / no-pme / no-psnr / no-ssim / log-level=2 / input-csp=1 / input-res=1920x1038 / interlace=0 / total-frames=179623 / level-idc=41 / high-tier=1 / uhd-bd=0 / ref=5 / no-allow-non-conformance / repeat-headers / annexb / no-aud / no-hrd / info / hash=0 / no-temporal-layers / open-gop / min-keyint=23 / keyint=240 / gop-lookahead=0 / bframes=12 / b-adapt=2 / b-pyramid / bframe-bias=0 / rc-lookahead=60 / lookahead-slices=4 / scenecut=40 / hist-scenecut=0 / radl=0 / no-splice / no-intra-refresh / ctu=32 / min-cu-size=8 / rect / amp / max-tu-size=32 / tu-inter-depth=4 / tu-intra-depth=4 / limit-tu=1 / rdoq-level=2 / dynamic-rd=0.00 / no-ssim-rd / signhide / no-tskip / nr-intra=0 / nr-inter=0 / no-constrained-intra / no-strong-intra-smoothing / max-merge=4 / limit-refs=2 / limit-modes / me=3 / subme=7 / merange=57 / temporal-mvp / no-frame-dup / no-hme / weightp / weightb / no-analyze-src-pics / deblock=-3:-3 / no-sao / no-sao-non-deblock / rd=6 / selective-sao=0 / no-early-skip / no-rskip / no-fast-intra / no-tskip-fast / no-cu-lossless / no-b-intra / no-splitrd-skip / rdpenalty=0 / psy-rd=2.00 / psy-rdoq=1.00 / no-rd-refine / no-lossless / cbqpoffs=0 / crqpoffs=0 / rc=crf / crf=19.0 / qcomp=0.60 / qpstep=4 / stats-write=0 / stats-read=0 / vbv-maxrate=50000 / vbv-bufsize=50000 / vbv-init=0.9 / min-vbv-fullness=50.0 / max-vbv-fullness=80.0 / crf-max=0.0 / crf-min=0.0 / ipratio=1.40 / pbratio=1.30 / aq-mode=1 / aq-strength=1.00 / no-cutree / zone-count=0 / no-strict-cbr / qg-size=32 / no-rc-grain / qpmax=69 / qpmin=0 / no-const-vbv / sar=1 / overscan=0 / videoformat=5 / range=0 / colorprim=9 / transfer=16 / colormatrix=9 / chromaloc=1 / chromaloc-top=2 / chromaloc-bottom=2 / display-window=0 / master-display=G(13250,34500)B(7500,3000)R(34000,16000)WP(15635,16450)L(40000000,50) / cll=1642,167 / min-luma=0 / max-luma=1023 / log2-max-poc-lsb=8 / vui-timing-info / vui-hrd-info / slices=1 / no-opt-qp-pps / no-opt-ref-list-length-pps / no-multi-pass-opt-rps / scenecut-bias=0.05 / hist-threshold=0.03 / no-opt-cu-delta-qp / no-aq-motion / hdr10 / hdr10-opt / no-dhdr10-opt / no-idr-recovery-sei / analysis-reuse-level=0 / analysis-save-reuse-level=0 / analysis-load-reuse-level=0 / scale-factor=0 / refine-intra=0 / refine-inter=0 / refine-mv=1 / refine-ctu-distortion=0 / no-limit-sao / ctu-info=0 / no-lowpass-dct / refine-analysis-type=0 / copy-pic=1 / max-ausize-factor=1.0 / no-dynamic-refine / no-single-sei / no-hevc-aq / no-svt / no-field / qp-adaptation-range=1.00 / scenecut-aware-qp=0conformance-window-offsets / right=0 / bottom=0 / decoder-max-rate=0 / no-vbv-live-multi-pass
Default : Yes
Forced : No
Color range : Limited
Color primaries : BT.2020
Transfer characteristics : PQ
Matrix coefficients : BT.2020 non-constant
Mastering display color primar : Display P3
Mastering display luminance : min: 0.0050 cd/m2, max: 4000 cd/m2
Maximum Content Light Level : 1642 cd/m2
Maximum Frame-Average Light Le : 167 cd/m2

Audio #1
ID : 2
Format : AC-3
Format/Info : Audio Coding 3
Commercial name : Dolby Digital
Codec ID : A_AC3
Duration : 2 h 4 min
Bit rate mode : Constant
Bit rate : 448 kb/s
Channel(s) : 6 channels
Channel layout : L R C LFE Ls Rs
Sampling rate : 48.0 kHz
Frame rate : 31.250 FPS (1536 SPF)
Compression mode : Lossy
Stream size : 400 MiB (5%)
Title : Дубляж (Лицензия)
Language : Russian
Service kind : Complete Main
Default : Yes
Forced : Yes

Audio #2
ID : 3
Format : AC-3
Format/Info : Audio Coding 3
Commercial name : Dolby Digital
Codec ID : A_AC3
Duration : 2 h 4 min
Bit rate mode : Constant
Bit rate : 192 kb/s
Channel(s) : 2 channels
Channel layout : L R
Sampling rate : 48.0 kHz
Frame rate : 31.250 FPS (1536 SPF)
Compression mode : Lossy
Stream size : 172 MiB (2%)
Title : Дубляж (НЛО)
Language : Ukrainian
Service kind : Complete Main
Default : No
Forced : No

Audio #3
ID : 4
Format : AC-3
Format/Info : Audio Coding 3
Commercial name : Dolby Digital
Format settings : Dolby Surround EX
Codec ID : A_AC3
Duration : 2 h 4 min
Bit rate mode : Constant
Bit rate : 640 kb/s
Channel(s) : 6 channels
Channel layout : L R C LFE Ls Rs
Sampling rate : 48.0 kHz
Frame rate : 31.250 FPS (1536 SPF)
Compression mode : Lossy
Stream size : 572 MiB (7%)
Title : Original
Language : English
Service kind : Complete Main
Default : No
Forced : No

Text #1
ID : 5
Format : UTF-8
Codec ID : S_TEXT/UTF8
Codec ID/Info : UTF-8 Plain Text
Duration : 1 h 58 min
Bit rate : 60 b/s
Count of elements : 1191
Stream size : 52.3 KiB (0%)
Title : Full
Language : Russian
Default : No
Forced : No

Text #2
ID : 6
Format : UTF-8
Codec ID : S_TEXT/UTF8
Codec ID/Info : UTF-8 Plain Text
Duration : 1 h 57 min
Bit rate : 37 b/s
Count of elements : 1164
Stream size : 32.4 KiB (0%)
Title : Full
Language : English
Default : No
Forced : No

Text #3
ID : 7
Format : UTF-8
Codec ID : S_TEXT/UTF8
Codec ID/Info : UTF-8 Plain Text
Duration : 1 h 57 min
Bit rate : 42 b/s
Count of elements : 1281
Stream size : 36.4 KiB (0%)
Title : SDH
Language : English
Default : No
Forced : No

Menu
00:00:00.000 : :Глава 01
00:03:51.064 : :Глава 02
00:09:12.385 : :Глава 03
00:13:25.846 : :Глава 04
00:15:11.577 : :Глава 05
00:19:09.356 : :Глава 06
00:21:00.926 : :Глава 07
00:24:03.442 : :Глава 08
00:26:35.719 : :Глава 09
00:29:13.084 : :Глава 10
00:31:41.608 : :Глава 11
00:33:59.203 : :Глава 12
00:38:42.111 : :Глава 13
00:39:54.517 : :Глава 14
00:45:32.104 : :Глава 15
00:48:47.841 : :Глава 16
00:50:53.425 : :Глава 17
00:54:27.889 : :Глава 18
00:56:23.380 : :Глава 19
00:59:29.649 : :Глава 20
01:01:05.119 : :Глава 21
01:06:00.790 : :Глава 22
01:07:47.438 : :Глава 23
01:12:16.707 : :Глава 24
01:15:59.012 : :Глава 25
01:20:16.436 : :Глава 26
01:22:59.766 : :Глава 27
01:25:40.385 : :Глава 28
01:28:47.447 : :Глава 29
01:32:02.016 : :Глава 30
01:33:25.224 : :Глава 31
01:35:15.835 : :Глава 32
01:36:25.112 : :Глава 33
01:41:21.116 : :Глава 34
01:44:21.380 : :Глава 35
01:48:36.510 : :Глава 36
01:49:53.753 : :Глава 37
01:51:43.571 : :Глава 38
01:53:33.598 : :Глава 39
01:56:29.190 : :Глава 40
01:57:25.413 : :Глава 41
01:59:41.716 : :Глава 42
Загрузка...Cкриншот1 Бэтмен и Робин / Batman & Robin (1997) UHD-BDRip 1080p [HEVC] 10 bit [HDR] от Mr. FoxЗагрузка...Cкриншот2 Бэтмен и Робин / Batman & Robin (1997) UHD-BDRip 1080p [HEVC] 10 bit [HDR] от Mr. FoxЗагрузка...Cкриншот3 Бэтмен и Робин / Batman & Robin (1997) UHD-BDRip 1080p [HEVC] 10 bit [HDR] от Mr. FoxЗагрузка...Cкриншот4 Бэтмен и Робин / Batman & Robin (1997) UHD-BDRip 1080p [HEVC] 10 bit [HDR] от Mr. Fox
Сэмпл
Торрент🧲 Магнет

Рейтинги КП и IMDB, кнопки "Позвать в чате" и "Спасибо", а также мультитрекерная статистика доступны только зарегистрированным/авторизованным пользователям!

Файлы: 4
  • Batman
    • 1. Batman (1989).mkv   8.85 ГБ
    • 2. Batman Returns (1992).mkv   7.9 ГБ
    • 3. Batman Forever (1995).mkv   8.33 ГБ
    • 4. Batman and Robin (1997).mkv   8.49 ГБ
Поблагодарили: 13
77carlsson77, Brooklyn, Chestnoc, Elico1977, gotgame1, ilyich05, Kiran, makss333, netfigni, Nuclear70, Rexfire, SergKote, torrentzulu
Admin
031210 (4)  33.57 ГБ

Добавление нового комментария

Добавление комментариев доступно только зарегистрированным/авторизованным пользователям.